Opened 3 weeks ago

Last modified 3 weeks ago

#6227 open defect

2 video packets dropped when copying stream if encoding another stream

Reported by: Cubittus Owned by:
Priority: important Component: undetermined
Version: git-master Keywords: regression
Cc: Blocked By:
Blocking: Reproduced by developer: yes
Analyzed by developer: no

Description

Summary of the bug:

Given an mp4 file containing h264 video and aac audio streams, I want to reencode the audio and copy the video stream. When I do this the copied video stream is corrupted. Verbose logging shows that two packets are lost from the video stream.

The packets are lost on the copied video stream only if the audio stream is being re-encoded, but not when both streams are copied.

A git bisect determined that this bug appeared in commit af1761f7b5b1b72197dc40934953b775c2d951cc .
It is still present in the current git head 58eb0f57f6702d57b6f97ec5010657bb2c076eff .

How to reproduce:
A simple shell script to genenate a source and demonstrate the problem:

#!/bin/sh
ffmpeg -v verbose -y -f lavfi -i yuvtestsrc=s=640x360:r=25:d=10,rotate=PI*t -f lavfi -i sine=d=10 -pix_fmt yuv420p -c:v libx264 -c:a aac test.mp4
ffmpeg -v verbose -y -i test.mp4 -c:v copy -c:a copy testcopy.mp4
ffmpeg -v verbose -y -i test.mp4 -c:v copy -c:a aac testaac.mp4

This creates a test mp4 file - test.mp4
It then uses -c copy to show that normal stream copy works fine for video and audio - testcopy.mp4
It then uses copy on the video and re-encodes the audio to demonstrate the problem - testaac.mp4

Output of the above script:

ffmpeg version N-83786-gf940492bb2 Copyright (c) 2000-2017 the FFmpeg developers
  built with gcc 5.4.0 (Gentoo 5.4.0-r3 p1.3, pie-0.6.5)
  configuration: --prefix=/usr/local --libdir=/usr/local/lib64 --shlibdir=/usr/local/lib64 --docdir=/usr/local/share/doc/ffmpeg-9999/html --mandir=/usr/local/share/man --enable-shared --cc=x86_64-pc-linux-gnu-gcc --cxx=x86_64-pc-linux-gnu-g++ --ar=x86_64-pc-linux-gnu-ar --optflags='-march=native -O2 -pipe' --disable-static --enable-avfilter --enable-avresample --disable-stripping --enable-version3 --disable-indev=oss --disable-indev=jack --disable-outdev=oss --enable-version3 --enable-version3 --enable-nonfree --enable-bzlib --disable-runtime-cpudetect --disable-debug --disable-gcrypt --enable-gnutls --enable-gmp --enable-gpl --enable-hardcoded-tables --enable-iconv --enable-lzma --enable-network --disable-openssl --enable-postproc --disable-libsmbclient --enable-ffplay --enable-sdl2 --disable-vaapi --disable-vdpau --enable-xlib --enable-libxcb --enable-libxcb-shm --enable-libxcb-xfixes --enable-zlib --disable-libcdio --disable-libiec61883 --disable-libdc1394 --enable-libcaca --enable-openal --disable-opengl --disable-libv4l2 --disable-libpulse --enable-libopencore-amrwb --enable-libopencore-amrnb --enable-libfdk-aac --enable-libopenjpeg --enable-libbluray --enable-libcelt --enable-libgme --enable-libgsm --disable-mmal --disable-libmodplug --enable-libopus --enable-libilbc --disable-librtmp --disable-libssh --enable-libschroedinger --enable-libspeex --enable-libvorbis --enable-libvpx --disable-libzvbi --enable-libbs2b --enable-chromaprint --disable-libflite --enable-frei0r --disable-libfribidi --enable-fontconfig --enable-ladspa --enable-libass --enable-libfreetype --enable-librubberband --disable-netcdf --disable-libzmq --enable-libzimg --enable-libsoxr --enable-pthreads --enable-libvo-amrwbenc --enable-libmp3lame --enable-libkvazaar --disable-nvenc --enable-libopenh264 --enable-libsnappy --enable-libtheora --enable-libtwolame --enable-libwavpack --enable-libwebp --enable-libx264 --enable-libx265 --enable-libxvid --disable-amd3dnow --disable-amd3dnowext --disable-fma4 --disable-xop --cpu=host --disable-doc --disable-htmlpages --enable-manpages
  WARNING: library configuration mismatch
  avutil      configuration: --prefix=/usr --libdir=/usr/lib64 --shlibdir=/usr/lib64 --docdir=/usr/share/doc/ffmpeg-9999/html --mandir=/usr/share/man --enable-shared --cc=x86_64-pc-linux-gnu-gcc --cxx=x86_64-pc-linux-gnu-g++ --ar=x86_64-pc-linux-gnu-ar --optflags='-march=native -O2 -pipe' --disable-static --enable-avfilter --enable-avresample --disable-stripping --enable-version3 --disable-indev=oss --disable-indev=jack --disable-outdev=oss --enable-version3 --enable-version3 --enable-nonfree --enable-bzlib --disable-runtime-cpudetect --disable-debug --disable-gcrypt --enable-gnutls --enable-gmp --enable-gpl --enable-hardcoded-tables --enable-iconv --enable-lzma --enable-network --disable-openssl --enable-postproc --disable-libsmbclient --enable-ffplay --enable-sdl2 --disable-vaapi --disable-vdpau --enable-xlib --enable-libxcb --enable-libxcb-shm --enable-libxcb-xfixes --enable-zlib --disable-libcdio --disable-libiec61883 --disable-libdc1394 --enable-libcaca --enable-openal --disable-opengl --disable-libv4l2 --disable-libpulse --enable-libopencore-amrwb --enable-libopencore-amrnb --enable-libfdk-aac --enable-libopenjpeg --enable-libbluray --enable-libcelt --enable-libgme --enable-libgsm --disable-mmal --disable-libmodplug --enable-libopus --enable-libilbc --disable-librtmp --disable-libssh --enable-libschroedinger --enable-libspeex --enable-libvorbis --enable-libvpx --disable-libzvbi --enable-libbs2b --enable-chromaprint --disable-libflite --enable-frei0r --disable-libfribidi --enable-fontconfig --enable-ladspa --enable-libass --enable-libfreetype --enable-librubberband --disable-netcdf --disable-libzmq --enable-libzimg --enable-libsoxr --enable-pthreads --enable-libvo-amrwbenc --enable-libmp3lame --enable-libkvazaar --disable-nvenc --enable-libopenh264 --enable-libsnappy --enable-libtheora --enable-libtwolame --enable-libwavpack --enable-libwebp --enable-libx264 --enable-libx265 --enable-libxvid --disable-amd3dnow --disable-amd3dnowext --disable-fma4 --disable-xop --cpu=host --disable-doc --disable-htmlpages --enable-manpages
  avcodec     configuration: --prefix=/usr --libdir=/usr/lib64 --shlibdir=/usr/lib64 --docdir=/usr/share/doc/ffmpeg-9999/html --mandir=/usr/share/man --enable-shared --cc=x86_64-pc-linux-gnu-gcc --cxx=x86_64-pc-linux-gnu-g++ --ar=x86_64-pc-linux-gnu-ar --optflags='-march=native -O2 -pipe' --disable-static --enable-avfilter --enable-avresample --disable-stripping --enable-version3 --disable-indev=oss --disable-indev=jack --disable-outdev=oss --enable-version3 --enable-version3 --enable-nonfree --enable-bzlib --disable-runtime-cpudetect --disable-debug --disable-gcrypt --enable-gnutls --enable-gmp --enable-gpl --enable-hardcoded-tables --enable-iconv --enable-lzma --enable-network --disable-openssl --enable-postproc --disable-libsmbclient --enable-ffplay --enable-sdl2 --disable-vaapi --disable-vdpau --enable-xlib --enable-libxcb --enable-libxcb-shm --enable-libxcb-xfixes --enable-zlib --disable-libcdio --disable-libiec61883 --disable-libdc1394 --enable-libcaca --enable-openal --disable-opengl --disable-libv4l2 --disable-libpulse --enable-libopencore-amrwb --enable-libopencore-amrnb --enable-libfdk-aac --enable-libopenjpeg --enable-libbluray --enable-libcelt --enable-libgme --enable-libgsm --disable-mmal --disable-libmodplug --enable-libopus --enable-libilbc --disable-librtmp --disable-libssh --enable-libschroedinger --enable-libspeex --enable-libvorbis --enable-libvpx --disable-libzvbi --enable-libbs2b --enable-chromaprint --disable-libflite --enable-frei0r --disable-libfribidi --enable-fontconfig --enable-ladspa --enable-libass --enable-libfreetype --enable-librubberband --disable-netcdf --disable-libzmq --enable-libzimg --enable-libsoxr --enable-pthreads --enable-libvo-amrwbenc --enable-libmp3lame --enable-libkvazaar --disable-nvenc --enable-libopenh264 --enable-libsnappy --enable-libtheora --enable-libtwolame --enable-libwavpack --enable-libwebp --enable-libx264 --enable-libx265 --enable-libxvid --disable-amd3dnow --disable-amd3dnowext --disable-fma4 --disable-xop --cpu=host --disable-doc --disable-htmlpages --enable-manpages
  avformat    configuration: --prefix=/usr --libdir=/usr/lib64 --shlibdir=/usr/lib64 --docdir=/usr/share/doc/ffmpeg-9999/html --mandir=/usr/share/man --enable-shared --cc=x86_64-pc-linux-gnu-gcc --cxx=x86_64-pc-linux-gnu-g++ --ar=x86_64-pc-linux-gnu-ar --optflags='-march=native -O2 -pipe' --disable-static --enable-avfilter --enable-avresample --disable-stripping --enable-version3 --disable-indev=oss --disable-indev=jack --disable-outdev=oss --enable-version3 --enable-version3 --enable-nonfree --enable-bzlib --disable-runtime-cpudetect --disable-debug --disable-gcrypt --enable-gnutls --enable-gmp --enable-gpl --enable-hardcoded-tables --enable-iconv --enable-lzma --enable-network --disable-openssl --enable-postproc --disable-libsmbclient --enable-ffplay --enable-sdl2 --disable-vaapi --disable-vdpau --enable-xlib --enable-libxcb --enable-libxcb-shm --enable-libxcb-xfixes --enable-zlib --disable-libcdio --disable-libiec61883 --disable-libdc1394 --enable-libcaca --enable-openal --disable-opengl --disable-libv4l2 --disable-libpulse --enable-libopencore-amrwb --enable-libopencore-amrnb --enable-libfdk-aac --enable-libopenjpeg --enable-libbluray --enable-libcelt --enable-libgme --enable-libgsm --disable-mmal --disable-libmodplug --enable-libopus --enable-libilbc --disable-librtmp --disable-libssh --enable-libschroedinger --enable-libspeex --enable-libvorbis --enable-libvpx --disable-libzvbi --enable-libbs2b --enable-chromaprint --disable-libflite --enable-frei0r --disable-libfribidi --enable-fontconfig --enable-ladspa --enable-libass --enable-libfreetype --enable-librubberband --disable-netcdf --disable-libzmq --enable-libzimg --enable-libsoxr --enable-pthreads --enable-libvo-amrwbenc --enable-libmp3lame --enable-libkvazaar --disable-nvenc --enable-libopenh264 --enable-libsnappy --enable-libtheora --enable-libtwolame --enable-libwavpack --enable-libwebp --enable-libx264 --enable-libx265 --enable-libxvid --disable-amd3dnow --disable-amd3dnowext --disable-fma4 --disable-xop --cpu=host --disable-doc --disable-htmlpages --enable-manpages
  avdevice    configuration: --prefix=/usr --libdir=/usr/lib64 --shlibdir=/usr/lib64 --docdir=/usr/share/doc/ffmpeg-9999/html --mandir=/usr/share/man --enable-shared --cc=x86_64-pc-linux-gnu-gcc --cxx=x86_64-pc-linux-gnu-g++ --ar=x86_64-pc-linux-gnu-ar --optflags='-march=native -O2 -pipe' --disable-static --enable-avfilter --enable-avresample --disable-stripping --enable-version3 --disable-indev=oss --disable-indev=jack --disable-outdev=oss --enable-version3 --enable-version3 --enable-nonfree --enable-bzlib --disable-runtime-cpudetect --disable-debug --disable-gcrypt --enable-gnutls --enable-gmp --enable-gpl --enable-hardcoded-tables --enable-iconv --enable-lzma --enable-network --disable-openssl --enable-postproc --disable-libsmbclient --enable-ffplay --enable-sdl2 --disable-vaapi --disable-vdpau --enable-xlib --enable-libxcb --enable-libxcb-shm --enable-libxcb-xfixes --enable-zlib --disable-libcdio --disable-libiec61883 --disable-libdc1394 --enable-libcaca --enable-openal --disable-opengl --disable-libv4l2 --disable-libpulse --enable-libopencore-amrwb --enable-libopencore-amrnb --enable-libfdk-aac --enable-libopenjpeg --enable-libbluray --enable-libcelt --enable-libgme --enable-libgsm --disable-mmal --disable-libmodplug --enable-libopus --enable-libilbc --disable-librtmp --disable-libssh --enable-libschroedinger --enable-libspeex --enable-libvorbis --enable-libvpx --disable-libzvbi --enable-libbs2b --enable-chromaprint --disable-libflite --enable-frei0r --disable-libfribidi --enable-fontconfig --enable-ladspa --enable-libass --enable-libfreetype --enable-librubberband --disable-netcdf --disable-libzmq --enable-libzimg --enable-libsoxr --enable-pthreads --enable-libvo-amrwbenc --enable-libmp3lame --enable-libkvazaar --disable-nvenc --enable-libopenh264 --enable-libsnappy --enable-libtheora --enable-libtwolame --enable-libwavpack --enable-libwebp --enable-libx264 --enable-libx265 --enable-libxvid --disable-amd3dnow --disable-amd3dnowext --disable-fma4 --disable-xop --cpu=host --disable-doc --disable-htmlpages --enable-manpages
  avfilter    configuration: --prefix=/usr --libdir=/usr/lib64 --shlibdir=/usr/lib64 --docdir=/usr/share/doc/ffmpeg-9999/html --mandir=/usr/share/man --enable-shared --cc=x86_64-pc-linux-gnu-gcc --cxx=x86_64-pc-linux-gnu-g++ --ar=x86_64-pc-linux-gnu-ar --optflags='-march=native -O2 -pipe' --disable-static --enable-avfilter --enable-avresample --disable-stripping --enable-version3 --disable-indev=oss --disable-indev=jack --disable-outdev=oss --enable-version3 --enable-version3 --enable-nonfree --enable-bzlib --disable-runtime-cpudetect --disable-debug --disable-gcrypt --enable-gnutls --enable-gmp --enable-gpl --enable-hardcoded-tables --enable-iconv --enable-lzma --enable-network --disable-openssl --enable-postproc --disable-libsmbclient --enable-ffplay --enable-sdl2 --disable-vaapi --disable-vdpau --enable-xlib --enable-libxcb --enable-libxcb-shm --enable-libxcb-xfixes --enable-zlib --disable-libcdio --disable-libiec61883 --disable-libdc1394 --enable-libcaca --enable-openal --disable-opengl --disable-libv4l2 --disable-libpulse --enable-libopencore-amrwb --enable-libopencore-amrnb --enable-libfdk-aac --enable-libopenjpeg --enable-libbluray --enable-libcelt --enable-libgme --enable-libgsm --disable-mmal --disable-libmodplug --enable-libopus --enable-libilbc --disable-librtmp --disable-libssh --enable-libschroedinger --enable-libspeex --enable-libvorbis --enable-libvpx --disable-libzvbi --enable-libbs2b --enable-chromaprint --disable-libflite --enable-frei0r --disable-libfribidi --enable-fontconfig --enable-ladspa --enable-libass --enable-libfreetype --enable-librubberband --disable-netcdf --disable-libzmq --enable-libzimg --enable-libsoxr --enable-pthreads --enable-libvo-amrwbenc --enable-libmp3lame --enable-libkvazaar --disable-nvenc --enable-libopenh264 --enable-libsnappy --enable-libtheora --enable-libtwolame --enable-libwavpack --enable-libwebp --enable-libx264 --enable-libx265 --enable-libxvid --disable-amd3dnow --disable-amd3dnowext --disable-fma4 --disable-xop --cpu=host --disable-doc --disable-htmlpages --enable-manpages
  avresample  configuration: --prefix=/usr --libdir=/usr/lib64 --shlibdir=/usr/lib64 --docdir=/usr/share/doc/ffmpeg-9999/html --mandir=/usr/share/man --enable-shared --cc=x86_64-pc-linux-gnu-gcc --cxx=x86_64-pc-linux-gnu-g++ --ar=x86_64-pc-linux-gnu-ar --optflags='-march=native -O2 -pipe' --disable-static --enable-avfilter --enable-avresample --disable-stripping --enable-version3 --disable-indev=oss --disable-indev=jack --disable-outdev=oss --enable-version3 --enable-version3 --enable-nonfree --enable-bzlib --disable-runtime-cpudetect --disable-debug --disable-gcrypt --enable-gnutls --enable-gmp --enable-gpl --enable-hardcoded-tables --enable-iconv --enable-lzma --enable-network --disable-openssl --enable-postproc --disable-libsmbclient --enable-ffplay --enable-sdl2 --disable-vaapi --disable-vdpau --enable-xlib --enable-libxcb --enable-libxcb-shm --enable-libxcb-xfixes --enable-zlib --disable-libcdio --disable-libiec61883 --disable-libdc1394 --enable-libcaca --enable-openal --disable-opengl --disable-libv4l2 --disable-libpulse --enable-libopencore-amrwb --enable-libopencore-amrnb --enable-libfdk-aac --enable-libopenjpeg --enable-libbluray --enable-libcelt --enable-libgme --enable-libgsm --disable-mmal --disable-libmodplug --enable-libopus --enable-libilbc --disable-librtmp --disable-libssh --enable-libschroedinger --enable-libspeex --enable-libvorbis --enable-libvpx --disable-libzvbi --enable-libbs2b --enable-chromaprint --disable-libflite --enable-frei0r --disable-libfribidi --enable-fontconfig --enable-ladspa --enable-libass --enable-libfreetype --enable-librubberband --disable-netcdf --disable-libzmq --enable-libzimg --enable-libsoxr --enable-pthreads --enable-libvo-amrwbenc --enable-libmp3lame --enable-libkvazaar --disable-nvenc --enable-libopenh264 --enable-libsnappy --enable-libtheora --enable-libtwolame --enable-libwavpack --enable-libwebp --enable-libx264 --enable-libx265 --enable-libxvid --disable-amd3dnow --disable-amd3dnowext --disable-fma4 --disable-xop --cpu=host --disable-doc --disable-htmlpages --enable-manpages
  swscale     configuration: --prefix=/usr --libdir=/usr/lib64 --shlibdir=/usr/lib64 --docdir=/usr/share/doc/ffmpeg-9999/html --mandir=/usr/share/man --enable-shared --cc=x86_64-pc-linux-gnu-gcc --cxx=x86_64-pc-linux-gnu-g++ --ar=x86_64-pc-linux-gnu-ar --optflags='-march=native -O2 -pipe' --disable-static --enable-avfilter --enable-avresample --disable-stripping --enable-version3 --disable-indev=oss --disable-indev=jack --disable-outdev=oss --enable-version3 --enable-version3 --enable-nonfree --enable-bzlib --disable-runtime-cpudetect --disable-debug --disable-gcrypt --enable-gnutls --enable-gmp --enable-gpl --enable-hardcoded-tables --enable-iconv --enable-lzma --enable-network --disable-openssl --enable-postproc --disable-libsmbclient --enable-ffplay --enable-sdl2 --disable-vaapi --disable-vdpau --enable-xlib --enable-libxcb --enable-libxcb-shm --enable-libxcb-xfixes --enable-zlib --disable-libcdio --disable-libiec61883 --disable-libdc1394 --enable-libcaca --enable-openal --disable-opengl --disable-libv4l2 --disable-libpulse --enable-libopencore-amrwb --enable-libopencore-amrnb --enable-libfdk-aac --enable-libopenjpeg --enable-libbluray --enable-libcelt --enable-libgme --enable-libgsm --disable-mmal --disable-libmodplug --enable-libopus --enable-libilbc --disable-librtmp --disable-libssh --enable-libschroedinger --enable-libspeex --enable-libvorbis --enable-libvpx --disable-libzvbi --enable-libbs2b --enable-chromaprint --disable-libflite --enable-frei0r --disable-libfribidi --enable-fontconfig --enable-ladspa --enable-libass --enable-libfreetype --enable-librubberband --disable-netcdf --disable-libzmq --enable-libzimg --enable-libsoxr --enable-pthreads --enable-libvo-amrwbenc --enable-libmp3lame --enable-libkvazaar --disable-nvenc --enable-libopenh264 --enable-libsnappy --enable-libtheora --enable-libtwolame --enable-libwavpack --enable-libwebp --enable-libx264 --enable-libx265 --enable-libxvid --disable-amd3dnow --disable-amd3dnowext --disable-fma4 --disable-xop --cpu=host --disable-doc --disable-htmlpages --enable-manpages
  swresample  configuration: --prefix=/usr --libdir=/usr/lib64 --shlibdir=/usr/lib64 --docdir=/usr/share/doc/ffmpeg-9999/html --mandir=/usr/share/man --enable-shared --cc=x86_64-pc-linux-gnu-gcc --cxx=x86_64-pc-linux-gnu-g++ --ar=x86_64-pc-linux-gnu-ar --optflags='-march=native -O2 -pipe' --disable-static --enable-avfilter --enable-avresample --disable-stripping --enable-version3 --disable-indev=oss --disable-indev=jack --disable-outdev=oss --enable-version3 --enable-version3 --enable-nonfree --enable-bzlib --disable-runtime-cpudetect --disable-debug --disable-gcrypt --enable-gnutls --enable-gmp --enable-gpl --enable-hardcoded-tables --enable-iconv --enable-lzma --enable-network --disable-openssl --enable-postproc --disable-libsmbclient --enable-ffplay --enable-sdl2 --disable-vaapi --disable-vdpau --enable-xlib --enable-libxcb --enable-libxcb-shm --enable-libxcb-xfixes --enable-zlib --disable-libcdio --disable-libiec61883 --disable-libdc1394 --enable-libcaca --enable-openal --disable-opengl --disable-libv4l2 --disable-libpulse --enable-libopencore-amrwb --enable-libopencore-amrnb --enable-libfdk-aac --enable-libopenjpeg --enable-libbluray --enable-libcelt --enable-libgme --enable-libgsm --disable-mmal --disable-libmodplug --enable-libopus --enable-libilbc --disable-librtmp --disable-libssh --enable-libschroedinger --enable-libspeex --enable-libvorbis --enable-libvpx --disable-libzvbi --enable-libbs2b --enable-chromaprint --disable-libflite --enable-frei0r --disable-libfribidi --enable-fontconfig --enable-ladspa --enable-libass --enable-libfreetype --enable-librubberband --disable-netcdf --disable-libzmq --enable-libzimg --enable-libsoxr --enable-pthreads --enable-libvo-amrwbenc --enable-libmp3lame --enable-libkvazaar --disable-nvenc --enable-libopenh264 --enable-libsnappy --enable-libtheora --enable-libtwolame --enable-libwavpack --enable-libwebp --enable-libx264 --enable-libx265 --enable-libxvid --disable-amd3dnow --disable-amd3dnowext --disable-fma4 --disable-xop --cpu=host --disable-doc --disable-htmlpages --enable-manpages
  postproc    configuration: --prefix=/usr --libdir=/usr/lib64 --shlibdir=/usr/lib64 --docdir=/usr/share/doc/ffmpeg-9999/html --mandir=/usr/share/man --enable-shared --cc=x86_64-pc-linux-gnu-gcc --cxx=x86_64-pc-linux-gnu-g++ --ar=x86_64-pc-linux-gnu-ar --optflags='-march=native -O2 -pipe' --disable-static --enable-avfilter --enable-avresample --disable-stripping --enable-version3 --disable-indev=oss --disable-indev=jack --disable-outdev=oss --enable-version3 --enable-version3 --enable-nonfree --enable-bzlib --disable-runtime-cpudetect --disable-debug --disable-gcrypt --enable-gnutls --enable-gmp --enable-gpl --enable-hardcoded-tables --enable-iconv --enable-lzma --enable-network --disable-openssl --enable-postproc --disable-libsmbclient --enable-ffplay --enable-sdl2 --disable-vaapi --disable-vdpau --enable-xlib --enable-libxcb --enable-libxcb-shm --enable-libxcb-xfixes --enable-zlib --disable-libcdio --disable-libiec61883 --disable-libdc1394 --enable-libcaca --enable-openal --disable-opengl --disable-libv4l2 --disable-libpulse --enable-libopencore-amrwb --enable-libopencore-amrnb --enable-libfdk-aac --enable-libopenjpeg --enable-libbluray --enable-libcelt --enable-libgme --enable-libgsm --disable-mmal --disable-libmodplug --enable-libopus --enable-libilbc --disable-librtmp --disable-libssh --enable-libschroedinger --enable-libspeex --enable-libvorbis --enable-libvpx --disable-libzvbi --enable-libbs2b --enable-chromaprint --disable-libflite --enable-frei0r --disable-libfribidi --enable-fontconfig --enable-ladspa --enable-libass --enable-libfreetype --enable-librubberband --disable-netcdf --disable-libzmq --enable-libzimg --enable-libsoxr --enable-pthreads --enable-libvo-amrwbenc --enable-libmp3lame --enable-libkvazaar --disable-nvenc --enable-libopenh264 --enable-libsnappy --enable-libtheora --enable-libtwolame --enable-libwavpack --enable-libwebp --enable-libx264 --enable-libx265 --enable-libxvid --disable-amd3dnow --disable-amd3dnowext --disable-fma4 --disable-xop --cpu=host --disable-doc --disable-htmlpages --enable-manpages
  libavutil      55. 48.100 / 55. 47.101
  libavcodec     57. 82.102 / 57. 82.100
  libavformat    57. 66.103 / 57. 66.103
  libavdevice    57.  3.100 / 57.  3.100
  libavfilter     6. 74.100 /  6. 74.100
  libavresample   3.  2.  0 /  3.  2.  0
  libswscale      4.  3.101 /  4.  3.101
  libswresample   2.  4.100 /  2.  4.100
  libpostproc    54.  2.100 / 54.  2.100
[Parsed_yuvtestsrc_0 @ 0x6b1380] size:640x360 rate:25/1 duration:10.000000 sar:1/1
Input #0, lavfi, from 'yuvtestsrc=s=640x360:r=25:d=10,rotate=PI*t':
  Duration: N/A, start: 0.000000, bitrate: N/A
    Stream #0:0: Video: rawvideo, 1 reference frame (444P / 0x50343434), yuv444p, 640x360 [SAR 1:1 DAR 16:9], 25 tbr, 25 tbn, 25 tbc
Input #1, lavfi, from 'sine=d=10':
  Duration: N/A, start: 0.000000, bitrate: 705 kb/s
    Stream #1:0: Audio: pcm_s16le, 44100 Hz, mono, s16, 705 kb/s
Stream mapping:
  Stream #0:0 -> #0:0 (rawvideo (native) -> h264 (libx264))
  Stream #1:0 -> #0:1 (pcm_s16le (native) -> aac (native))
Press [q] to stop, [?] for help
[graph 0 input from stream 0:0 @ 0x6d9e00] w:640 h:360 pixfmt:yuv444p tb:1/25 fr:25/1 sar:1/1 sws_param:flags=2
[auto_scaler_0 @ 0x6dbb60] w:iw h:ih flags:'bicubic' interl:0
[format @ 0x6dad60] auto-inserting filter 'auto_scaler_0' between the filter 'Parsed_null_0' and the filter 'format'
[auto_scaler_0 @ 0x6dbb60] w:640 h:360 fmt:yuv444p sar:1/1 -> w:640 h:360 fmt:yuv420p sar:1/1 flags:0x4
[libx264 @ 0x6cb620] using SAR=1/1
[libx264 @ 0x6cb620] using cpu capabilities: MMX2 SSE2Fast SSSE3 SSE4.2 AVX FMA3 AVX2 LZCNT BMI2
[libx264 @ 0x6cb620] profile High, level 3.0
[libx264 @ 0x6cb620] 264 - core 148 r2762 90a61ec - H.264/MPEG-4 AVC codec - Copyleft 2003-2017 - http://www.videolan.org/x264.html - options: cabac=1 ref=3 deblock=1:0:0 analyse=0x3:0x113 me=hex subme=7 psy=1 psy_rd=1.00:0.00 mixed_ref=1 me_range=16 chroma_me=1 trellis=1 8x8dct=1 cqm=0 deadzone=21,11 fast_pskip=1 chroma_qp_offset=-2 threads=11 lookahead_threads=1 sliced_threads=0 nr=0 decimate=1 interlaced=0 bluray_compat=0 constrained_intra=0 bframes=3 b_pyramid=2 b_adapt=1 b_bias=0 direct=1 weightb=1 open_gop=0 weightp=2 keyint=250 keyint_min=25 scenecut=40 intra_refresh=0 rc_lookahead=40 rc=crf mbtree=1 crf=23.0 qcomp=0.60 qpmin=0 qpmax=69 qpstep=4 ip_ratio=1.40 aq=1:1.00
[graph_1_in_1_0 @ 0xc7e4e0] tb:1/44100 samplefmt:s16 samplerate:44100 chlayout:0x4
[format_out_0_1 @ 0xc7ec80] auto-inserting filter 'auto_resampler_0' between the filter 'Parsed_anull_0' and the filter 'format_out_0_1'
[auto_resampler_0 @ 0xc81100] ch:1 chl:mono fmt:s16 r:44100Hz -> ch:1 chl:mono fmt:fltp r:44100Hz
Output #0, mp4, to 'test.mp4':
  Metadata:
    encoder         : Lavf57.66.103
    Stream #0:0: Video: h264 (libx264), 1 reference frame ([33][0][0][0] / 0x0021), yuv420p(progressive), 640x360 [SAR 1:1 DAR 16:9], q=-1--1, 25 fps, 12800 tbn, 25 tbc
    Metadata:
      encoder         : Lavc57.82.102 libx264
    Side data:
      cpb: bitrate max/min/avg: 0/0/0 buffer size: 0 vbv_delay: -1
    Stream #0:1: Audio: aac (LC) ([64][0][0][0] / 0x0040), 44100 Hz, mono, fltp, delay 1024, 69 kb/s
    Metadata:
      encoder         : Lavc57.82.102 aac
frame=  147 fps=0.0 q=25.0 size=     297kB time=00:00:03.57 bitrate= 681.3kbits/s speed=7.14x    
No more output streams to write to, finishing.
frame=  250 fps=241 q=-1.0 Lsize=     835kB time=00:00:10.00 bitrate= 683.2kbits/s speed=9.63x    
video:741kB audio:85kB subtitle:0kB other streams:0kB global headers:0kB muxing overhead: 1.094402%
Input file #0 (yuvtestsrc=s=640x360:r=25:d=10,rotate=PI*t):
  Input stream #0:0 (video): 250 packets read (172800000 bytes); 250 frames decoded; 
  Total: 250 packets (172800000 bytes) demuxed
Input file #1 (sine=d=10):
  Input stream #1:0 (audio): 431 packets read (882000 bytes); 431 frames decoded (441000 samples); 
  Total: 431 packets (882000 bytes) demuxed
Output file #0 (test.mp4):
  Output stream #0:0 (video): 250 frames encoded; 250 packets muxed (758615 bytes); 
  Output stream #0:1 (audio): 431 frames encoded (441000 samples); 432 packets muxed (86778 bytes); 
  Total: 682 packets (845393 bytes) muxed
[libx264 @ 0x6cb620] frame I:10    Avg QP:19.34  size:  3494
[libx264 @ 0x6cb620] frame P:101   Avg QP:24.50  size:  2807
[libx264 @ 0x6cb620] frame B:139   Avg QP:26.52  size:  3162
[libx264 @ 0x6cb620] consecutive B-frames: 16.4%  8.8% 58.8% 16.0%
[libx264 @ 0x6cb620] mb I  I16..4: 40.1% 51.2%  8.7%
[libx264 @ 0x6cb620] mb P  I16..4: 22.7% 39.2%  5.3%  P16..4:  7.6%  1.7%  0.7%  0.0%  0.0%    skip:22.7%
[libx264 @ 0x6cb620] mb B  I16..4:  1.3%  0.3%  0.8%  B16..8: 15.6%  5.5%  1.4%  direct:27.0%  skip:48.1%  L0:52.0% L1:44.1% BI: 3.9%
[libx264 @ 0x6cb620] 8x8 transform intra:55.6% inter:19.7%
[libx264 @ 0x6cb620] coded y,uvDC,uvAC intra: 6.7% 36.3% 13.1% inter: 2.8% 30.2% 8.7%
[libx264 @ 0x6cb620] i16 v,h,dc,p: 46%  5%  4% 45%
[libx264 @ 0x6cb620] i8 v,h,dc,ddl,ddr,vr,hd,vl,hu: 50% 16% 30%  1%  1%  0%  0%  1%  0%
[libx264 @ 0x6cb620] i4 v,h,dc,ddl,ddr,vr,hd,vl,hu: 28% 19% 36%  4%  3%  3%  3%  2%  2%
[libx264 @ 0x6cb620] i8c dc,h,v,p: 40%  9% 15% 36%
[libx264 @ 0x6cb620] Weighted P-Frames: Y:0.0% UV:0.0%
[libx264 @ 0x6cb620] ref P L0: 90.5%  3.6%  4.3%  1.6%
[libx264 @ 0x6cb620] ref B L0: 94.2%  5.4%  0.3%
[libx264 @ 0x6cb620] ref B L1: 99.7%  0.3%
[libx264 @ 0x6cb620] kb/s:606.34
[aac @ 0x6ccaa0] Qavg: 129.028


ffmpeg version N-83786-gf940492bb2 Copyright (c) 2000-2017 the FFmpeg developers
  built with gcc 5.4.0 (Gentoo 5.4.0-r3 p1.3, pie-0.6.5)
  configuration: --prefix=/usr/local --libdir=/usr/local/lib64 --shlibdir=/usr/local/lib64 --docdir=/usr/local/share/doc/ffmpeg-9999/html --mandir=/usr/local/share/man --enable-shared --cc=x86_64-pc-linux-gnu-gcc --cxx=x86_64-pc-linux-gnu-g++ --ar=x86_64-pc-linux-gnu-ar --optflags='-march=native -O2 -pipe' --disable-static --enable-avfilter --enable-avresample --disable-stripping --enable-version3 --disable-indev=oss --disable-indev=jack --disable-outdev=oss --enable-version3 --enable-version3 --enable-nonfree --enable-bzlib --disable-runtime-cpudetect --disable-debug --disable-gcrypt --enable-gnutls --enable-gmp --enable-gpl --enable-hardcoded-tables --enable-iconv --enable-lzma --enable-network --disable-openssl --enable-postproc --disable-libsmbclient --enable-ffplay --enable-sdl2 --disable-vaapi --disable-vdpau --enable-xlib --enable-libxcb --enable-libxcb-shm --enable-libxcb-xfixes --enable-zlib --disable-libcdio --disable-libiec61883 --disable-libdc1394 --enable-libcaca --enable-openal --disable-opengl --disable-libv4l2 --disable-libpulse --enable-libopencore-amrwb --enable-libopencore-amrnb --enable-libfdk-aac --enable-libopenjpeg --enable-libbluray --enable-libcelt --enable-libgme --enable-libgsm --disable-mmal --disable-libmodplug --enable-libopus --enable-libilbc --disable-librtmp --disable-libssh --enable-libschroedinger --enable-libspeex --enable-libvorbis --enable-libvpx --disable-libzvbi --enable-libbs2b --enable-chromaprint --disable-libflite --enable-frei0r --disable-libfribidi --enable-fontconfig --enable-ladspa --enable-libass --enable-libfreetype --enable-librubberband --disable-netcdf --disable-libzmq --enable-libzimg --enable-libsoxr --enable-pthreads --enable-libvo-amrwbenc --enable-libmp3lame --enable-libkvazaar --disable-nvenc --enable-libopenh264 --enable-libsnappy --enable-libtheora --enable-libtwolame --enable-libwavpack --enable-libwebp --enable-libx264 --enable-libx265 --enable-libxvid --disable-amd3dnow --disable-amd3dnowext --disable-fma4 --disable-xop --cpu=host --disable-doc --disable-htmlpages --enable-manpages
  WARNING: library configuration mismatch
  avutil      configuration: --prefix=/usr --libdir=/usr/lib64 --shlibdir=/usr/lib64 --docdir=/usr/share/doc/ffmpeg-9999/html --mandir=/usr/share/man --enable-shared --cc=x86_64-pc-linux-gnu-gcc --cxx=x86_64-pc-linux-gnu-g++ --ar=x86_64-pc-linux-gnu-ar --optflags='-march=native -O2 -pipe' --disable-static --enable-avfilter --enable-avresample --disable-stripping --enable-version3 --disable-indev=oss --disable-indev=jack --disable-outdev=oss --enable-version3 --enable-version3 --enable-nonfree --enable-bzlib --disable-runtime-cpudetect --disable-debug --disable-gcrypt --enable-gnutls --enable-gmp --enable-gpl --enable-hardcoded-tables --enable-iconv --enable-lzma --enable-network --disable-openssl --enable-postproc --disable-libsmbclient --enable-ffplay --enable-sdl2 --disable-vaapi --disable-vdpau --enable-xlib --enable-libxcb --enable-libxcb-shm --enable-libxcb-xfixes --enable-zlib --disable-libcdio --disable-libiec61883 --disable-libdc1394 --enable-libcaca --enable-openal --disable-opengl --disable-libv4l2 --disable-libpulse --enable-libopencore-amrwb --enable-libopencore-amrnb --enable-libfdk-aac --enable-libopenjpeg --enable-libbluray --enable-libcelt --enable-libgme --enable-libgsm --disable-mmal --disable-libmodplug --enable-libopus --enable-libilbc --disable-librtmp --disable-libssh --enable-libschroedinger --enable-libspeex --enable-libvorbis --enable-libvpx --disable-libzvbi --enable-libbs2b --enable-chromaprint --disable-libflite --enable-frei0r --disable-libfribidi --enable-fontconfig --enable-ladspa --enable-libass --enable-libfreetype --enable-librubberband --disable-netcdf --disable-libzmq --enable-libzimg --enable-libsoxr --enable-pthreads --enable-libvo-amrwbenc --enable-libmp3lame --enable-libkvazaar --disable-nvenc --enable-libopenh264 --enable-libsnappy --enable-libtheora --enable-libtwolame --enable-libwavpack --enable-libwebp --enable-libx264 --enable-libx265 --enable-libxvid --disable-amd3dnow --disable-amd3dnowext --disable-fma4 --disable-xop --cpu=host --disable-doc --disable-htmlpages --enable-manpages
  avcodec     configuration: --prefix=/usr --libdir=/usr/lib64 --shlibdir=/usr/lib64 --docdir=/usr/share/doc/ffmpeg-9999/html --mandir=/usr/share/man --enable-shared --cc=x86_64-pc-linux-gnu-gcc --cxx=x86_64-pc-linux-gnu-g++ --ar=x86_64-pc-linux-gnu-ar --optflags='-march=native -O2 -pipe' --disable-static --enable-avfilter --enable-avresample --disable-stripping --enable-version3 --disable-indev=oss --disable-indev=jack --disable-outdev=oss --enable-version3 --enable-version3 --enable-nonfree --enable-bzlib --disable-runtime-cpudetect --disable-debug --disable-gcrypt --enable-gnutls --enable-gmp --enable-gpl --enable-hardcoded-tables --enable-iconv --enable-lzma --enable-network --disable-openssl --enable-postproc --disable-libsmbclient --enable-ffplay --enable-sdl2 --disable-vaapi --disable-vdpau --enable-xlib --enable-libxcb --enable-libxcb-shm --enable-libxcb-xfixes --enable-zlib --disable-libcdio --disable-libiec61883 --disable-libdc1394 --enable-libcaca --enable-openal --disable-opengl --disable-libv4l2 --disable-libpulse --enable-libopencore-amrwb --enable-libopencore-amrnb --enable-libfdk-aac --enable-libopenjpeg --enable-libbluray --enable-libcelt --enable-libgme --enable-libgsm --disable-mmal --disable-libmodplug --enable-libopus --enable-libilbc --disable-librtmp --disable-libssh --enable-libschroedinger --enable-libspeex --enable-libvorbis --enable-libvpx --disable-libzvbi --enable-libbs2b --enable-chromaprint --disable-libflite --enable-frei0r --disable-libfribidi --enable-fontconfig --enable-ladspa --enable-libass --enable-libfreetype --enable-librubberband --disable-netcdf --disable-libzmq --enable-libzimg --enable-libsoxr --enable-pthreads --enable-libvo-amrwbenc --enable-libmp3lame --enable-libkvazaar --disable-nvenc --enable-libopenh264 --enable-libsnappy --enable-libtheora --enable-libtwolame --enable-libwavpack --enable-libwebp --enable-libx264 --enable-libx265 --enable-libxvid --disable-amd3dnow --disable-amd3dnowext --disable-fma4 --disable-xop --cpu=host --disable-doc --disable-htmlpages --enable-manpages
  avformat    configuration: --prefix=/usr --libdir=/usr/lib64 --shlibdir=/usr/lib64 --docdir=/usr/share/doc/ffmpeg-9999/html --mandir=/usr/share/man --enable-shared --cc=x86_64-pc-linux-gnu-gcc --cxx=x86_64-pc-linux-gnu-g++ --ar=x86_64-pc-linux-gnu-ar --optflags='-march=native -O2 -pipe' --disable-static --enable-avfilter --enable-avresample --disable-stripping --enable-version3 --disable-indev=oss --disable-indev=jack --disable-outdev=oss --enable-version3 --enable-version3 --enable-nonfree --enable-bzlib --disable-runtime-cpudetect --disable-debug --disable-gcrypt --enable-gnutls --enable-gmp --enable-gpl --enable-hardcoded-tables --enable-iconv --enable-lzma --enable-network --disable-openssl --enable-postproc --disable-libsmbclient --enable-ffplay --enable-sdl2 --disable-vaapi --disable-vdpau --enable-xlib --enable-libxcb --enable-libxcb-shm --enable-libxcb-xfixes --enable-zlib --disable-libcdio --disable-libiec61883 --disable-libdc1394 --enable-libcaca --enable-openal --disable-opengl --disable-libv4l2 --disable-libpulse --enable-libopencore-amrwb --enable-libopencore-amrnb --enable-libfdk-aac --enable-libopenjpeg --enable-libbluray --enable-libcelt --enable-libgme --enable-libgsm --disable-mmal --disable-libmodplug --enable-libopus --enable-libilbc --disable-librtmp --disable-libssh --enable-libschroedinger --enable-libspeex --enable-libvorbis --enable-libvpx --disable-libzvbi --enable-libbs2b --enable-chromaprint --disable-libflite --enable-frei0r --disable-libfribidi --enable-fontconfig --enable-ladspa --enable-libass --enable-libfreetype --enable-librubberband --disable-netcdf --disable-libzmq --enable-libzimg --enable-libsoxr --enable-pthreads --enable-libvo-amrwbenc --enable-libmp3lame --enable-libkvazaar --disable-nvenc --enable-libopenh264 --enable-libsnappy --enable-libtheora --enable-libtwolame --enable-libwavpack --enable-libwebp --enable-libx264 --enable-libx265 --enable-libxvid --disable-amd3dnow --disable-amd3dnowext --disable-fma4 --disable-xop --cpu=host --disable-doc --disable-htmlpages --enable-manpages
  avdevice    configuration: --prefix=/usr --libdir=/usr/lib64 --shlibdir=/usr/lib64 --docdir=/usr/share/doc/ffmpeg-9999/html --mandir=/usr/share/man --enable-shared --cc=x86_64-pc-linux-gnu-gcc --cxx=x86_64-pc-linux-gnu-g++ --ar=x86_64-pc-linux-gnu-ar --optflags='-march=native -O2 -pipe' --disable-static --enable-avfilter --enable-avresample --disable-stripping --enable-version3 --disable-indev=oss --disable-indev=jack --disable-outdev=oss --enable-version3 --enable-version3 --enable-nonfree --enable-bzlib --disable-runtime-cpudetect --disable-debug --disable-gcrypt --enable-gnutls --enable-gmp --enable-gpl --enable-hardcoded-tables --enable-iconv --enable-lzma --enable-network --disable-openssl --enable-postproc --disable-libsmbclient --enable-ffplay --enable-sdl2 --disable-vaapi --disable-vdpau --enable-xlib --enable-libxcb --enable-libxcb-shm --enable-libxcb-xfixes --enable-zlib --disable-libcdio --disable-libiec61883 --disable-libdc1394 --enable-libcaca --enable-openal --disable-opengl --disable-libv4l2 --disable-libpulse --enable-libopencore-amrwb --enable-libopencore-amrnb --enable-libfdk-aac --enable-libopenjpeg --enable-libbluray --enable-libcelt --enable-libgme --enable-libgsm --disable-mmal --disable-libmodplug --enable-libopus --enable-libilbc --disable-librtmp --disable-libssh --enable-libschroedinger --enable-libspeex --enable-libvorbis --enable-libvpx --disable-libzvbi --enable-libbs2b --enable-chromaprint --disable-libflite --enable-frei0r --disable-libfribidi --enable-fontconfig --enable-ladspa --enable-libass --enable-libfreetype --enable-librubberband --disable-netcdf --disable-libzmq --enable-libzimg --enable-libsoxr --enable-pthreads --enable-libvo-amrwbenc --enable-libmp3lame --enable-libkvazaar --disable-nvenc --enable-libopenh264 --enable-libsnappy --enable-libtheora --enable-libtwolame --enable-libwavpack --enable-libwebp --enable-libx264 --enable-libx265 --enable-libxvid --disable-amd3dnow --disable-amd3dnowext --disable-fma4 --disable-xop --cpu=host --disable-doc --disable-htmlpages --enable-manpages
  avfilter    configuration: --prefix=/usr --libdir=/usr/lib64 --shlibdir=/usr/lib64 --docdir=/usr/share/doc/ffmpeg-9999/html --mandir=/usr/share/man --enable-shared --cc=x86_64-pc-linux-gnu-gcc --cxx=x86_64-pc-linux-gnu-g++ --ar=x86_64-pc-linux-gnu-ar --optflags='-march=native -O2 -pipe' --disable-static --enable-avfilter --enable-avresample --disable-stripping --enable-version3 --disable-indev=oss --disable-indev=jack --disable-outdev=oss --enable-version3 --enable-version3 --enable-nonfree --enable-bzlib --disable-runtime-cpudetect --disable-debug --disable-gcrypt --enable-gnutls --enable-gmp --enable-gpl --enable-hardcoded-tables --enable-iconv --enable-lzma --enable-network --disable-openssl --enable-postproc --disable-libsmbclient --enable-ffplay --enable-sdl2 --disable-vaapi --disable-vdpau --enable-xlib --enable-libxcb --enable-libxcb-shm --enable-libxcb-xfixes --enable-zlib --disable-libcdio --disable-libiec61883 --disable-libdc1394 --enable-libcaca --enable-openal --disable-opengl --disable-libv4l2 --disable-libpulse --enable-libopencore-amrwb --enable-libopencore-amrnb --enable-libfdk-aac --enable-libopenjpeg --enable-libbluray --enable-libcelt --enable-libgme --enable-libgsm --disable-mmal --disable-libmodplug --enable-libopus --enable-libilbc --disable-librtmp --disable-libssh --enable-libschroedinger --enable-libspeex --enable-libvorbis --enable-libvpx --disable-libzvbi --enable-libbs2b --enable-chromaprint --disable-libflite --enable-frei0r --disable-libfribidi --enable-fontconfig --enable-ladspa --enable-libass --enable-libfreetype --enable-librubberband --disable-netcdf --disable-libzmq --enable-libzimg --enable-libsoxr --enable-pthreads --enable-libvo-amrwbenc --enable-libmp3lame --enable-libkvazaar --disable-nvenc --enable-libopenh264 --enable-libsnappy --enable-libtheora --enable-libtwolame --enable-libwavpack --enable-libwebp --enable-libx264 --enable-libx265 --enable-libxvid --disable-amd3dnow --disable-amd3dnowext --disable-fma4 --disable-xop --cpu=host --disable-doc --disable-htmlpages --enable-manpages
  avresample  configuration: --prefix=/usr --libdir=/usr/lib64 --shlibdir=/usr/lib64 --docdir=/usr/share/doc/ffmpeg-9999/html --mandir=/usr/share/man --enable-shared --cc=x86_64-pc-linux-gnu-gcc --cxx=x86_64-pc-linux-gnu-g++ --ar=x86_64-pc-linux-gnu-ar --optflags='-march=native -O2 -pipe' --disable-static --enable-avfilter --enable-avresample --disable-stripping --enable-version3 --disable-indev=oss --disable-indev=jack --disable-outdev=oss --enable-version3 --enable-version3 --enable-nonfree --enable-bzlib --disable-runtime-cpudetect --disable-debug --disable-gcrypt --enable-gnutls --enable-gmp --enable-gpl --enable-hardcoded-tables --enable-iconv --enable-lzma --enable-network --disable-openssl --enable-postproc --disable-libsmbclient --enable-ffplay --enable-sdl2 --disable-vaapi --disable-vdpau --enable-xlib --enable-libxcb --enable-libxcb-shm --enable-libxcb-xfixes --enable-zlib --disable-libcdio --disable-libiec61883 --disable-libdc1394 --enable-libcaca --enable-openal --disable-opengl --disable-libv4l2 --disable-libpulse --enable-libopencore-amrwb --enable-libopencore-amrnb --enable-libfdk-aac --enable-libopenjpeg --enable-libbluray --enable-libcelt --enable-libgme --enable-libgsm --disable-mmal --disable-libmodplug --enable-libopus --enable-libilbc --disable-librtmp --disable-libssh --enable-libschroedinger --enable-libspeex --enable-libvorbis --enable-libvpx --disable-libzvbi --enable-libbs2b --enable-chromaprint --disable-libflite --enable-frei0r --disable-libfribidi --enable-fontconfig --enable-ladspa --enable-libass --enable-libfreetype --enable-librubberband --disable-netcdf --disable-libzmq --enable-libzimg --enable-libsoxr --enable-pthreads --enable-libvo-amrwbenc --enable-libmp3lame --enable-libkvazaar --disable-nvenc --enable-libopenh264 --enable-libsnappy --enable-libtheora --enable-libtwolame --enable-libwavpack --enable-libwebp --enable-libx264 --enable-libx265 --enable-libxvid --disable-amd3dnow --disable-amd3dnowext --disable-fma4 --disable-xop --cpu=host --disable-doc --disable-htmlpages --enable-manpages
  swscale     configuration: --prefix=/usr --libdir=/usr/lib64 --shlibdir=/usr/lib64 --docdir=/usr/share/doc/ffmpeg-9999/html --mandir=/usr/share/man --enable-shared --cc=x86_64-pc-linux-gnu-gcc --cxx=x86_64-pc-linux-gnu-g++ --ar=x86_64-pc-linux-gnu-ar --optflags='-march=native -O2 -pipe' --disable-static --enable-avfilter --enable-avresample --disable-stripping --enable-version3 --disable-indev=oss --disable-indev=jack --disable-outdev=oss --enable-version3 --enable-version3 --enable-nonfree --enable-bzlib --disable-runtime-cpudetect --disable-debug --disable-gcrypt --enable-gnutls --enable-gmp --enable-gpl --enable-hardcoded-tables --enable-iconv --enable-lzma --enable-network --disable-openssl --enable-postproc --disable-libsmbclient --enable-ffplay --enable-sdl2 --disable-vaapi --disable-vdpau --enable-xlib --enable-libxcb --enable-libxcb-shm --enable-libxcb-xfixes --enable-zlib --disable-libcdio --disable-libiec61883 --disable-libdc1394 --enable-libcaca --enable-openal --disable-opengl --disable-libv4l2 --disable-libpulse --enable-libopencore-amrwb --enable-libopencore-amrnb --enable-libfdk-aac --enable-libopenjpeg --enable-libbluray --enable-libcelt --enable-libgme --enable-libgsm --disable-mmal --disable-libmodplug --enable-libopus --enable-libilbc --disable-librtmp --disable-libssh --enable-libschroedinger --enable-libspeex --enable-libvorbis --enable-libvpx --disable-libzvbi --enable-libbs2b --enable-chromaprint --disable-libflite --enable-frei0r --disable-libfribidi --enable-fontconfig --enable-ladspa --enable-libass --enable-libfreetype --enable-librubberband --disable-netcdf --disable-libzmq --enable-libzimg --enable-libsoxr --enable-pthreads --enable-libvo-amrwbenc --enable-libmp3lame --enable-libkvazaar --disable-nvenc --enable-libopenh264 --enable-libsnappy --enable-libtheora --enable-libtwolame --enable-libwavpack --enable-libwebp --enable-libx264 --enable-libx265 --enable-libxvid --disable-amd3dnow --disable-amd3dnowext --disable-fma4 --disable-xop --cpu=host --disable-doc --disable-htmlpages --enable-manpages
  swresample  configuration: --prefix=/usr --libdir=/usr/lib64 --shlibdir=/usr/lib64 --docdir=/usr/share/doc/ffmpeg-9999/html --mandir=/usr/share/man --enable-shared --cc=x86_64-pc-linux-gnu-gcc --cxx=x86_64-pc-linux-gnu-g++ --ar=x86_64-pc-linux-gnu-ar --optflags='-march=native -O2 -pipe' --disable-static --enable-avfilter --enable-avresample --disable-stripping --enable-version3 --disable-indev=oss --disable-indev=jack --disable-outdev=oss --enable-version3 --enable-version3 --enable-nonfree --enable-bzlib --disable-runtime-cpudetect --disable-debug --disable-gcrypt --enable-gnutls --enable-gmp --enable-gpl --enable-hardcoded-tables --enable-iconv --enable-lzma --enable-network --disable-openssl --enable-postproc --disable-libsmbclient --enable-ffplay --enable-sdl2 --disable-vaapi --disable-vdpau --enable-xlib --enable-libxcb --enable-libxcb-shm --enable-libxcb-xfixes --enable-zlib --disable-libcdio --disable-libiec61883 --disable-libdc1394 --enable-libcaca --enable-openal --disable-opengl --disable-libv4l2 --disable-libpulse --enable-libopencore-amrwb --enable-libopencore-amrnb --enable-libfdk-aac --enable-libopenjpeg --enable-libbluray --enable-libcelt --enable-libgme --enable-libgsm --disable-mmal --disable-libmodplug --enable-libopus --enable-libilbc --disable-librtmp --disable-libssh --enable-libschroedinger --enable-libspeex --enable-libvorbis --enable-libvpx --disable-libzvbi --enable-libbs2b --enable-chromaprint --disable-libflite --enable-frei0r --disable-libfribidi --enable-fontconfig --enable-ladspa --enable-libass --enable-libfreetype --enable-librubberband --disable-netcdf --disable-libzmq --enable-libzimg --enable-libsoxr --enable-pthreads --enable-libvo-amrwbenc --enable-libmp3lame --enable-libkvazaar --disable-nvenc --enable-libopenh264 --enable-libsnappy --enable-libtheora --enable-libtwolame --enable-libwavpack --enable-libwebp --enable-libx264 --enable-libx265 --enable-libxvid --disable-amd3dnow --disable-amd3dnowext --disable-fma4 --disable-xop --cpu=host --disable-doc --disable-htmlpages --enable-manpages
  postproc    configuration: --prefix=/usr --libdir=/usr/lib64 --shlibdir=/usr/lib64 --docdir=/usr/share/doc/ffmpeg-9999/html --mandir=/usr/share/man --enable-shared --cc=x86_64-pc-linux-gnu-gcc --cxx=x86_64-pc-linux-gnu-g++ --ar=x86_64-pc-linux-gnu-ar --optflags='-march=native -O2 -pipe' --disable-static --enable-avfilter --enable-avresample --disable-stripping --enable-version3 --disable-indev=oss --disable-indev=jack --disable-outdev=oss --enable-version3 --enable-version3 --enable-nonfree --enable-bzlib --disable-runtime-cpudetect --disable-debug --disable-gcrypt --enable-gnutls --enable-gmp --enable-gpl --enable-hardcoded-tables --enable-iconv --enable-lzma --enable-network --disable-openssl --enable-postproc --disable-libsmbclient --enable-ffplay --enable-sdl2 --disable-vaapi --disable-vdpau --enable-xlib --enable-libxcb --enable-libxcb-shm --enable-libxcb-xfixes --enable-zlib --disable-libcdio --disable-libiec61883 --disable-libdc1394 --enable-libcaca --enable-openal --disable-opengl --disable-libv4l2 --disable-libpulse --enable-libopencore-amrwb --enable-libopencore-amrnb --enable-libfdk-aac --enable-libopenjpeg --enable-libbluray --enable-libcelt --enable-libgme --enable-libgsm --disable-mmal --disable-libmodplug --enable-libopus --enable-libilbc --disable-librtmp --disable-libssh --enable-libschroedinger --enable-libspeex --enable-libvorbis --enable-libvpx --disable-libzvbi --enable-libbs2b --enable-chromaprint --disable-libflite --enable-frei0r --disable-libfribidi --enable-fontconfig --enable-ladspa --enable-libass --enable-libfreetype --enable-librubberband --disable-netcdf --disable-libzmq --enable-libzimg --enable-libsoxr --enable-pthreads --enable-libvo-amrwbenc --enable-libmp3lame --enable-libkvazaar --disable-nvenc --enable-libopenh264 --enable-libsnappy --enable-libtheora --enable-libtwolame --enable-libwavpack --enable-libwebp --enable-libx264 --enable-libx265 --enable-libxvid --disable-amd3dnow --disable-amd3dnowext --disable-fma4 --disable-xop --cpu=host --disable-doc --disable-htmlpages --enable-manpages
  libavutil      55. 48.100 / 55. 47.101
  libavcodec     57. 82.102 / 57. 82.100
  libavformat    57. 66.103 / 57. 66.103
  libavdevice    57.  3.100 / 57.  3.100
  libavfilter     6. 74.100 /  6. 74.100
  libavresample   3.  2.  0 /  3.  2.  0
  libswscale      4.  3.101 /  4.  3.101
  libswresample   2.  4.100 /  2.  4.100
  libpostproc    54.  2.100 / 54.  2.100
[h264 @ 0x1241dc0] Reinit context to 640x368, pix_fmt: yuv420p
Input #0, mov,mp4,m4a,3gp,3g2,mj2, from 'test.mp4':
  Metadata:
    major_brand     : isom
    minor_version   : 512
    compatible_brands: isomiso2avc1mp41
    encoder         : Lavf57.66.103
  Duration: 00:00:10.02, start: 0.000000, bitrate: 682 kb/s
    Stream #0:0(und): Video: h264 (High), 1 reference frame (avc1 / 0x31637661), yuv420p(left), 640x360 (640x368) [SAR 1:1 DAR 16:9], 606 kb/s, 25 fps, 25 tbr, 12800 tbn, 50 tbc (default)
    Metadata:
      handler_name    : VideoHandler
    Stream #0:1(und): Audio: aac (LC) (mp4a / 0x6134706D), 44100 Hz, mono, fltp, 69 kb/s (default)
    Metadata:
      handler_name    : SoundHandler
Output #0, mp4, to 'testcopy.mp4':
  Metadata:
    major_brand     : isom
    minor_version   : 512
    compatible_brands: isomiso2avc1mp41
    encoder         : Lavf57.66.103
    Stream #0:0(und): Video: h264 (High), 1 reference frame ([33][0][0][0] / 0x0021), yuv420p(left), 640x360 (0x0) [SAR 1:1 DAR 16:9], q=2-31, 606 kb/s, 25 fps, 25 tbr, 12800 tbn, 12800 tbc (default)
    Metadata:
      handler_name    : VideoHandler
    Stream #0:1(und): Audio: aac (LC) ([64][0][0][0] / 0x0040), 44100 Hz, mono, fltp, 69 kb/s (default)
    Metadata:
      handler_name    : SoundHandler
Stream mapping:
  Stream #0:0 -> #0:0 (copy)
  Stream #0:1 -> #0:1 (copy)
Press [q] to stop, [?] for help
No more output streams to write to, finishing.
frame=  250 fps=0.0 q=-1.0 Lsize=     835kB time=00:00:09.98 bitrate= 684.8kbits/s speed=4.08e+03x    
video:741kB audio:85kB subtitle:0kB other streams:0kB global headers:0kB muxing overhead: 1.091532%
Input file #0 (test.mp4):
  Input stream #0:0 (video): 250 packets read (758616 bytes); 
  Input stream #0:1 (audio): 432 packets read (86801 bytes); 
  Total: 682 packets (845417 bytes) demuxed
Output file #0 (testcopy.mp4):
  Output stream #0:0 (video): 250 packets muxed (758616 bytes); 
  Output stream #0:1 (audio): 432 packets muxed (86801 bytes); 
  Total: 682 packets (845417 bytes) muxed


ffmpeg version N-83786-gf940492bb2 Copyright (c) 2000-2017 the FFmpeg developers
  built with gcc 5.4.0 (Gentoo 5.4.0-r3 p1.3, pie-0.6.5)
  configuration: --prefix=/usr/local --libdir=/usr/local/lib64 --shlibdir=/usr/local/lib64 --docdir=/usr/local/share/doc/ffmpeg-9999/html --mandir=/usr/local/share/man --enable-shared --cc=x86_64-pc-linux-gnu-gcc --cxx=x86_64-pc-linux-gnu-g++ --ar=x86_64-pc-linux-gnu-ar --optflags='-march=native -O2 -pipe' --disable-static --enable-avfilter --enable-avresample --disable-stripping --enable-version3 --disable-indev=oss --disable-indev=jack --disable-outdev=oss --enable-version3 --enable-version3 --enable-nonfree --enable-bzlib --disable-runtime-cpudetect --disable-debug --disable-gcrypt --enable-gnutls --enable-gmp --enable-gpl --enable-hardcoded-tables --enable-iconv --enable-lzma --enable-network --disable-openssl --enable-postproc --disable-libsmbclient --enable-ffplay --enable-sdl2 --disable-vaapi --disable-vdpau --enable-xlib --enable-libxcb --enable-libxcb-shm --enable-libxcb-xfixes --enable-zlib --disable-libcdio --disable-libiec61883 --disable-libdc1394 --enable-libcaca --enable-openal --disable-opengl --disable-libv4l2 --disable-libpulse --enable-libopencore-amrwb --enable-libopencore-amrnb --enable-libfdk-aac --enable-libopenjpeg --enable-libbluray --enable-libcelt --enable-libgme --enable-libgsm --disable-mmal --disable-libmodplug --enable-libopus --enable-libilbc --disable-librtmp --disable-libssh --enable-libschroedinger --enable-libspeex --enable-libvorbis --enable-libvpx --disable-libzvbi --enable-libbs2b --enable-chromaprint --disable-libflite --enable-frei0r --disable-libfribidi --enable-fontconfig --enable-ladspa --enable-libass --enable-libfreetype --enable-librubberband --disable-netcdf --disable-libzmq --enable-libzimg --enable-libsoxr --enable-pthreads --enable-libvo-amrwbenc --enable-libmp3lame --enable-libkvazaar --disable-nvenc --enable-libopenh264 --enable-libsnappy --enable-libtheora --enable-libtwolame --enable-libwavpack --enable-libwebp --enable-libx264 --enable-libx265 --enable-libxvid --disable-amd3dnow --disable-amd3dnowext --disable-fma4 --disable-xop --cpu=host --disable-doc --disable-htmlpages --enable-manpages
  WARNING: library configuration mismatch
  avutil      configuration: --prefix=/usr --libdir=/usr/lib64 --shlibdir=/usr/lib64 --docdir=/usr/share/doc/ffmpeg-9999/html --mandir=/usr/share/man --enable-shared --cc=x86_64-pc-linux-gnu-gcc --cxx=x86_64-pc-linux-gnu-g++ --ar=x86_64-pc-linux-gnu-ar --optflags='-march=native -O2 -pipe' --disable-static --enable-avfilter --enable-avresample --disable-stripping --enable-version3 --disable-indev=oss --disable-indev=jack --disable-outdev=oss --enable-version3 --enable-version3 --enable-nonfree --enable-bzlib --disable-runtime-cpudetect --disable-debug --disable-gcrypt --enable-gnutls --enable-gmp --enable-gpl --enable-hardcoded-tables --enable-iconv --enable-lzma --enable-network --disable-openssl --enable-postproc --disable-libsmbclient --enable-ffplay --enable-sdl2 --disable-vaapi --disable-vdpau --enable-xlib --enable-libxcb --enable-libxcb-shm --enable-libxcb-xfixes --enable-zlib --disable-libcdio --disable-libiec61883 --disable-libdc1394 --enable-libcaca --enable-openal --disable-opengl --disable-libv4l2 --disable-libpulse --enable-libopencore-amrwb --enable-libopencore-amrnb --enable-libfdk-aac --enable-libopenjpeg --enable-libbluray --enable-libcelt --enable-libgme --enable-libgsm --disable-mmal --disable-libmodplug --enable-libopus --enable-libilbc --disable-librtmp --disable-libssh --enable-libschroedinger --enable-libspeex --enable-libvorbis --enable-libvpx --disable-libzvbi --enable-libbs2b --enable-chromaprint --disable-libflite --enable-frei0r --disable-libfribidi --enable-fontconfig --enable-ladspa --enable-libass --enable-libfreetype --enable-librubberband --disable-netcdf --disable-libzmq --enable-libzimg --enable-libsoxr --enable-pthreads --enable-libvo-amrwbenc --enable-libmp3lame --enable-libkvazaar --disable-nvenc --enable-libopenh264 --enable-libsnappy --enable-libtheora --enable-libtwolame --enable-libwavpack --enable-libwebp --enable-libx264 --enable-libx265 --enable-libxvid --disable-amd3dnow --disable-amd3dnowext --disable-fma4 --disable-xop --cpu=host --disable-doc --disable-htmlpages --enable-manpages
  avcodec     configuration: --prefix=/usr --libdir=/usr/lib64 --shlibdir=/usr/lib64 --docdir=/usr/share/doc/ffmpeg-9999/html --mandir=/usr/share/man --enable-shared --cc=x86_64-pc-linux-gnu-gcc --cxx=x86_64-pc-linux-gnu-g++ --ar=x86_64-pc-linux-gnu-ar --optflags='-march=native -O2 -pipe' --disable-static --enable-avfilter --enable-avresample --disable-stripping --enable-version3 --disable-indev=oss --disable-indev=jack --disable-outdev=oss --enable-version3 --enable-version3 --enable-nonfree --enable-bzlib --disable-runtime-cpudetect --disable-debug --disable-gcrypt --enable-gnutls --enable-gmp --enable-gpl --enable-hardcoded-tables --enable-iconv --enable-lzma --enable-network --disable-openssl --enable-postproc --disable-libsmbclient --enable-ffplay --enable-sdl2 --disable-vaapi --disable-vdpau --enable-xlib --enable-libxcb --enable-libxcb-shm --enable-libxcb-xfixes --enable-zlib --disable-libcdio --disable-libiec61883 --disable-libdc1394 --enable-libcaca --enable-openal --disable-opengl --disable-libv4l2 --disable-libpulse --enable-libopencore-amrwb --enable-libopencore-amrnb --enable-libfdk-aac --enable-libopenjpeg --enable-libbluray --enable-libcelt --enable-libgme --enable-libgsm --disable-mmal --disable-libmodplug --enable-libopus --enable-libilbc --disable-librtmp --disable-libssh --enable-libschroedinger --enable-libspeex --enable-libvorbis --enable-libvpx --disable-libzvbi --enable-libbs2b --enable-chromaprint --disable-libflite --enable-frei0r --disable-libfribidi --enable-fontconfig --enable-ladspa --enable-libass --enable-libfreetype --enable-librubberband --disable-netcdf --disable-libzmq --enable-libzimg --enable-libsoxr --enable-pthreads --enable-libvo-amrwbenc --enable-libmp3lame --enable-libkvazaar --disable-nvenc --enable-libopenh264 --enable-libsnappy --enable-libtheora --enable-libtwolame --enable-libwavpack --enable-libwebp --enable-libx264 --enable-libx265 --enable-libxvid --disable-amd3dnow --disable-amd3dnowext --disable-fma4 --disable-xop --cpu=host --disable-doc --disable-htmlpages --enable-manpages
  avformat    configuration: --prefix=/usr --libdir=/usr/lib64 --shlibdir=/usr/lib64 --docdir=/usr/share/doc/ffmpeg-9999/html --mandir=/usr/share/man --enable-shared --cc=x86_64-pc-linux-gnu-gcc --cxx=x86_64-pc-linux-gnu-g++ --ar=x86_64-pc-linux-gnu-ar --optflags='-march=native -O2 -pipe' --disable-static --enable-avfilter --enable-avresample --disable-stripping --enable-version3 --disable-indev=oss --disable-indev=jack --disable-outdev=oss --enable-version3 --enable-version3 --enable-nonfree --enable-bzlib --disable-runtime-cpudetect --disable-debug --disable-gcrypt --enable-gnutls --enable-gmp --enable-gpl --enable-hardcoded-tables --enable-iconv --enable-lzma --enable-network --disable-openssl --enable-postproc --disable-libsmbclient --enable-ffplay --enable-sdl2 --disable-vaapi --disable-vdpau --enable-xlib --enable-libxcb --enable-libxcb-shm --enable-libxcb-xfixes --enable-zlib --disable-libcdio --disable-libiec61883 --disable-libdc1394 --enable-libcaca --enable-openal --disable-opengl --disable-libv4l2 --disable-libpulse --enable-libopencore-amrwb --enable-libopencore-amrnb --enable-libfdk-aac --enable-libopenjpeg --enable-libbluray --enable-libcelt --enable-libgme --enable-libgsm --disable-mmal --disable-libmodplug --enable-libopus --enable-libilbc --disable-librtmp --disable-libssh --enable-libschroedinger --enable-libspeex --enable-libvorbis --enable-libvpx --disable-libzvbi --enable-libbs2b --enable-chromaprint --disable-libflite --enable-frei0r --disable-libfribidi --enable-fontconfig --enable-ladspa --enable-libass --enable-libfreetype --enable-librubberband --disable-netcdf --disable-libzmq --enable-libzimg --enable-libsoxr --enable-pthreads --enable-libvo-amrwbenc --enable-libmp3lame --enable-libkvazaar --disable-nvenc --enable-libopenh264 --enable-libsnappy --enable-libtheora --enable-libtwolame --enable-libwavpack --enable-libwebp --enable-libx264 --enable-libx265 --enable-libxvid --disable-amd3dnow --disable-amd3dnowext --disable-fma4 --disable-xop --cpu=host --disable-doc --disable-htmlpages --enable-manpages
  avdevice    configuration: --prefix=/usr --libdir=/usr/lib64 --shlibdir=/usr/lib64 --docdir=/usr/share/doc/ffmpeg-9999/html --mandir=/usr/share/man --enable-shared --cc=x86_64-pc-linux-gnu-gcc --cxx=x86_64-pc-linux-gnu-g++ --ar=x86_64-pc-linux-gnu-ar --optflags='-march=native -O2 -pipe' --disable-static --enable-avfilter --enable-avresample --disable-stripping --enable-version3 --disable-indev=oss --disable-indev=jack --disable-outdev=oss --enable-version3 --enable-version3 --enable-nonfree --enable-bzlib --disable-runtime-cpudetect --disable-debug --disable-gcrypt --enable-gnutls --enable-gmp --enable-gpl --enable-hardcoded-tables --enable-iconv --enable-lzma --enable-network --disable-openssl --enable-postproc --disable-libsmbclient --enable-ffplay --enable-sdl2 --disable-vaapi --disable-vdpau --enable-xlib --enable-libxcb --enable-libxcb-shm --enable-libxcb-xfixes --enable-zlib --disable-libcdio --disable-libiec61883 --disable-libdc1394 --enable-libcaca --enable-openal --disable-opengl --disable-libv4l2 --disable-libpulse --enable-libopencore-amrwb --enable-libopencore-amrnb --enable-libfdk-aac --enable-libopenjpeg --enable-libbluray --enable-libcelt --enable-libgme --enable-libgsm --disable-mmal --disable-libmodplug --enable-libopus --enable-libilbc --disable-librtmp --disable-libssh --enable-libschroedinger --enable-libspeex --enable-libvorbis --enable-libvpx --disable-libzvbi --enable-libbs2b --enable-chromaprint --disable-libflite --enable-frei0r --disable-libfribidi --enable-fontconfig --enable-ladspa --enable-libass --enable-libfreetype --enable-librubberband --disable-netcdf --disable-libzmq --enable-libzimg --enable-libsoxr --enable-pthreads --enable-libvo-amrwbenc --enable-libmp3lame --enable-libkvazaar --disable-nvenc --enable-libopenh264 --enable-libsnappy --enable-libtheora --enable-libtwolame --enable-libwavpack --enable-libwebp --enable-libx264 --enable-libx265 --enable-libxvid --disable-amd3dnow --disable-amd3dnowext --disable-fma4 --disable-xop --cpu=host --disable-doc --disable-htmlpages --enable-manpages
  avfilter    configuration: --prefix=/usr --libdir=/usr/lib64 --shlibdir=/usr/lib64 --docdir=/usr/share/doc/ffmpeg-9999/html --mandir=/usr/share/man --enable-shared --cc=x86_64-pc-linux-gnu-gcc --cxx=x86_64-pc-linux-gnu-g++ --ar=x86_64-pc-linux-gnu-ar --optflags='-march=native -O2 -pipe' --disable-static --enable-avfilter --enable-avresample --disable-stripping --enable-version3 --disable-indev=oss --disable-indev=jack --disable-outdev=oss --enable-version3 --enable-version3 --enable-nonfree --enable-bzlib --disable-runtime-cpudetect --disable-debug --disable-gcrypt --enable-gnutls --enable-gmp --enable-gpl --enable-hardcoded-tables --enable-iconv --enable-lzma --enable-network --disable-openssl --enable-postproc --disable-libsmbclient --enable-ffplay --enable-sdl2 --disable-vaapi --disable-vdpau --enable-xlib --enable-libxcb --enable-libxcb-shm --enable-libxcb-xfixes --enable-zlib --disable-libcdio --disable-libiec61883 --disable-libdc1394 --enable-libcaca --enable-openal --disable-opengl --disable-libv4l2 --disable-libpulse --enable-libopencore-amrwb --enable-libopencore-amrnb --enable-libfdk-aac --enable-libopenjpeg --enable-libbluray --enable-libcelt --enable-libgme --enable-libgsm --disable-mmal --disable-libmodplug --enable-libopus --enable-libilbc --disable-librtmp --disable-libssh --enable-libschroedinger --enable-libspeex --enable-libvorbis --enable-libvpx --disable-libzvbi --enable-libbs2b --enable-chromaprint --disable-libflite --enable-frei0r --disable-libfribidi --enable-fontconfig --enable-ladspa --enable-libass --enable-libfreetype --enable-librubberband --disable-netcdf --disable-libzmq --enable-libzimg --enable-libsoxr --enable-pthreads --enable-libvo-amrwbenc --enable-libmp3lame --enable-libkvazaar --disable-nvenc --enable-libopenh264 --enable-libsnappy --enable-libtheora --enable-libtwolame --enable-libwavpack --enable-libwebp --enable-libx264 --enable-libx265 --enable-libxvid --disable-amd3dnow --disable-amd3dnowext --disable-fma4 --disable-xop --cpu=host --disable-doc --disable-htmlpages --enable-manpages
  avresample  configuration: --prefix=/usr --libdir=/usr/lib64 --shlibdir=/usr/lib64 --docdir=/usr/share/doc/ffmpeg-9999/html --mandir=/usr/share/man --enable-shared --cc=x86_64-pc-linux-gnu-gcc --cxx=x86_64-pc-linux-gnu-g++ --ar=x86_64-pc-linux-gnu-ar --optflags='-march=native -O2 -pipe' --disable-static --enable-avfilter --enable-avresample --disable-stripping --enable-version3 --disable-indev=oss --disable-indev=jack --disable-outdev=oss --enable-version3 --enable-version3 --enable-nonfree --enable-bzlib --disable-runtime-cpudetect --disable-debug --disable-gcrypt --enable-gnutls --enable-gmp --enable-gpl --enable-hardcoded-tables --enable-iconv --enable-lzma --enable-network --disable-openssl --enable-postproc --disable-libsmbclient --enable-ffplay --enable-sdl2 --disable-vaapi --disable-vdpau --enable-xlib --enable-libxcb --enable-libxcb-shm --enable-libxcb-xfixes --enable-zlib --disable-libcdio --disable-libiec61883 --disable-libdc1394 --enable-libcaca --enable-openal --disable-opengl --disable-libv4l2 --disable-libpulse --enable-libopencore-amrwb --enable-libopencore-amrnb --enable-libfdk-aac --enable-libopenjpeg --enable-libbluray --enable-libcelt --enable-libgme --enable-libgsm --disable-mmal --disable-libmodplug --enable-libopus --enable-libilbc --disable-librtmp --disable-libssh --enable-libschroedinger --enable-libspeex --enable-libvorbis --enable-libvpx --disable-libzvbi --enable-libbs2b --enable-chromaprint --disable-libflite --enable-frei0r --disable-libfribidi --enable-fontconfig --enable-ladspa --enable-libass --enable-libfreetype --enable-librubberband --disable-netcdf --disable-libzmq --enable-libzimg --enable-libsoxr --enable-pthreads --enable-libvo-amrwbenc --enable-libmp3lame --enable-libkvazaar --disable-nvenc --enable-libopenh264 --enable-libsnappy --enable-libtheora --enable-libtwolame --enable-libwavpack --enable-libwebp --enable-libx264 --enable-libx265 --enable-libxvid --disable-amd3dnow --disable-amd3dnowext --disable-fma4 --disable-xop --cpu=host --disable-doc --disable-htmlpages --enable-manpages
  swscale     configuration: --prefix=/usr --libdir=/usr/lib64 --shlibdir=/usr/lib64 --docdir=/usr/share/doc/ffmpeg-9999/html --mandir=/usr/share/man --enable-shared --cc=x86_64-pc-linux-gnu-gcc --cxx=x86_64-pc-linux-gnu-g++ --ar=x86_64-pc-linux-gnu-ar --optflags='-march=native -O2 -pipe' --disable-static --enable-avfilter --enable-avresample --disable-stripping --enable-version3 --disable-indev=oss --disable-indev=jack --disable-outdev=oss --enable-version3 --enable-version3 --enable-nonfree --enable-bzlib --disable-runtime-cpudetect --disable-debug --disable-gcrypt --enable-gnutls --enable-gmp --enable-gpl --enable-hardcoded-tables --enable-iconv --enable-lzma --enable-network --disable-openssl --enable-postproc --disable-libsmbclient --enable-ffplay --enable-sdl2 --disable-vaapi --disable-vdpau --enable-xlib --enable-libxcb --enable-libxcb-shm --enable-libxcb-xfixes --enable-zlib --disable-libcdio --disable-libiec61883 --disable-libdc1394 --enable-libcaca --enable-openal --disable-opengl --disable-libv4l2 --disable-libpulse --enable-libopencore-amrwb --enable-libopencore-amrnb --enable-libfdk-aac --enable-libopenjpeg --enable-libbluray --enable-libcelt --enable-libgme --enable-libgsm --disable-mmal --disable-libmodplug --enable-libopus --enable-libilbc --disable-librtmp --disable-libssh --enable-libschroedinger --enable-libspeex --enable-libvorbis --enable-libvpx --disable-libzvbi --enable-libbs2b --enable-chromaprint --disable-libflite --enable-frei0r --disable-libfribidi --enable-fontconfig --enable-ladspa --enable-libass --enable-libfreetype --enable-librubberband --disable-netcdf --disable-libzmq --enable-libzimg --enable-libsoxr --enable-pthreads --enable-libvo-amrwbenc --enable-libmp3lame --enable-libkvazaar --disable-nvenc --enable-libopenh264 --enable-libsnappy --enable-libtheora --enable-libtwolame --enable-libwavpack --enable-libwebp --enable-libx264 --enable-libx265 --enable-libxvid --disable-amd3dnow --disable-amd3dnowext --disable-fma4 --disable-xop --cpu=host --disable-doc --disable-htmlpages --enable-manpages
  swresample  configuration: --prefix=/usr --libdir=/usr/lib64 --shlibdir=/usr/lib64 --docdir=/usr/share/doc/ffmpeg-9999/html --mandir=/usr/share/man --enable-shared --cc=x86_64-pc-linux-gnu-gcc --cxx=x86_64-pc-linux-gnu-g++ --ar=x86_64-pc-linux-gnu-ar --optflags='-march=native -O2 -pipe' --disable-static --enable-avfilter --enable-avresample --disable-stripping --enable-version3 --disable-indev=oss --disable-indev=jack --disable-outdev=oss --enable-version3 --enable-version3 --enable-nonfree --enable-bzlib --disable-runtime-cpudetect --disable-debug --disable-gcrypt --enable-gnutls --enable-gmp --enable-gpl --enable-hardcoded-tables --enable-iconv --enable-lzma --enable-network --disable-openssl --enable-postproc --disable-libsmbclient --enable-ffplay --enable-sdl2 --disable-vaapi --disable-vdpau --enable-xlib --enable-libxcb --enable-libxcb-shm --enable-libxcb-xfixes --enable-zlib --disable-libcdio --disable-libiec61883 --disable-libdc1394 --enable-libcaca --enable-openal --disable-opengl --disable-libv4l2 --disable-libpulse --enable-libopencore-amrwb --enable-libopencore-amrnb --enable-libfdk-aac --enable-libopenjpeg --enable-libbluray --enable-libcelt --enable-libgme --enable-libgsm --disable-mmal --disable-libmodplug --enable-libopus --enable-libilbc --disable-librtmp --disable-libssh --enable-libschroedinger --enable-libspeex --enable-libvorbis --enable-libvpx --disable-libzvbi --enable-libbs2b --enable-chromaprint --disable-libflite --enable-frei0r --disable-libfribidi --enable-fontconfig --enable-ladspa --enable-libass --enable-libfreetype --enable-librubberband --disable-netcdf --disable-libzmq --enable-libzimg --enable-libsoxr --enable-pthreads --enable-libvo-amrwbenc --enable-libmp3lame --enable-libkvazaar --disable-nvenc --enable-libopenh264 --enable-libsnappy --enable-libtheora --enable-libtwolame --enable-libwavpack --enable-libwebp --enable-libx264 --enable-libx265 --enable-libxvid --disable-amd3dnow --disable-amd3dnowext --disable-fma4 --disable-xop --cpu=host --disable-doc --disable-htmlpages --enable-manpages
  postproc    configuration: --prefix=/usr --libdir=/usr/lib64 --shlibdir=/usr/lib64 --docdir=/usr/share/doc/ffmpeg-9999/html --mandir=/usr/share/man --enable-shared --cc=x86_64-pc-linux-gnu-gcc --cxx=x86_64-pc-linux-gnu-g++ --ar=x86_64-pc-linux-gnu-ar --optflags='-march=native -O2 -pipe' --disable-static --enable-avfilter --enable-avresample --disable-stripping --enable-version3 --disable-indev=oss --disable-indev=jack --disable-outdev=oss --enable-version3 --enable-version3 --enable-nonfree --enable-bzlib --disable-runtime-cpudetect --disable-debug --disable-gcrypt --enable-gnutls --enable-gmp --enable-gpl --enable-hardcoded-tables --enable-iconv --enable-lzma --enable-network --disable-openssl --enable-postproc --disable-libsmbclient --enable-ffplay --enable-sdl2 --disable-vaapi --disable-vdpau --enable-xlib --enable-libxcb --enable-libxcb-shm --enable-libxcb-xfixes --enable-zlib --disable-libcdio --disable-libiec61883 --disable-libdc1394 --enable-libcaca --enable-openal --disable-opengl --disable-libv4l2 --disable-libpulse --enable-libopencore-amrwb --enable-libopencore-amrnb --enable-libfdk-aac --enable-libopenjpeg --enable-libbluray --enable-libcelt --enable-libgme --enable-libgsm --disable-mmal --disable-libmodplug --enable-libopus --enable-libilbc --disable-librtmp --disable-libssh --enable-libschroedinger --enable-libspeex --enable-libvorbis --enable-libvpx --disable-libzvbi --enable-libbs2b --enable-chromaprint --disable-libflite --enable-frei0r --disable-libfribidi --enable-fontconfig --enable-ladspa --enable-libass --enable-libfreetype --enable-librubberband --disable-netcdf --disable-libzmq --enable-libzimg --enable-libsoxr --enable-pthreads --enable-libvo-amrwbenc --enable-libmp3lame --enable-libkvazaar --disable-nvenc --enable-libopenh264 --enable-libsnappy --enable-libtheora --enable-libtwolame --enable-libwavpack --enable-libwebp --enable-libx264 --enable-libx265 --enable-libxvid --disable-amd3dnow --disable-amd3dnowext --disable-fma4 --disable-xop --cpu=host --disable-doc --disable-htmlpages --enable-manpages
  libavutil      55. 48.100 / 55. 47.101
  libavcodec     57. 82.102 / 57. 82.100
  libavformat    57. 66.103 / 57. 66.103
  libavdevice    57.  3.100 / 57.  3.100
  libavfilter     6. 74.100 /  6. 74.100
  libavresample   3.  2.  0 /  3.  2.  0
  libswscale      4.  3.101 /  4.  3.101
  libswresample   2.  4.100 /  2.  4.100
  libpostproc    54.  2.100 / 54.  2.100
[h264 @ 0x1689dc0] Reinit context to 640x368, pix_fmt: yuv420p
Input #0, mov,mp4,m4a,3gp,3g2,mj2, from 'test.mp4':
  Metadata:
    major_brand     : isom
    minor_version   : 512
    compatible_brands: isomiso2avc1mp41
    encoder         : Lavf57.66.103
  Duration: 00:00:10.02, start: 0.000000, bitrate: 682 kb/s
    Stream #0:0(und): Video: h264 (High), 1 reference frame (avc1 / 0x31637661), yuv420p(left), 640x360 (640x368) [SAR 1:1 DAR 16:9], 606 kb/s, 25 fps, 25 tbr, 12800 tbn, 50 tbc (default)
    Metadata:
      handler_name    : VideoHandler
    Stream #0:1(und): Audio: aac (LC) (mp4a / 0x6134706D), 44100 Hz, mono, fltp, 69 kb/s (default)
    Metadata:
      handler_name    : SoundHandler
Stream mapping:
  Stream #0:0 -> #0:0 (copy)
  Stream #0:1 -> #0:1 (aac (native) -> aac (native))
Press [q] to stop, [?] for help
[graph_0_in_0_1 @ 0x16b68e0] tb:1/44100 samplefmt:fltp samplerate:44100 chlayout:0x4
Output #0, mp4, to 'testaac.mp4':
  Metadata:
    major_brand     : isom
    minor_version   : 512
    compatible_brands: isomiso2avc1mp41
    encoder         : Lavf57.66.103
    Stream #0:0(und): Video: h264 (High), 1 reference frame ([33][0][0][0] / 0x0021), yuv420p(left), 640x360 (0x0) [SAR 1:1 DAR 16:9], q=2-31, 606 kb/s, 25 fps, 25 tbr, 12800 tbn, 12800 tbc (default)
    Metadata:
      handler_name    : VideoHandler
    Stream #0:1(und): Audio: aac (LC) ([64][0][0][0] / 0x0040), 44100 Hz, mono, fltp, delay 1024, 69 kb/s (default)
    Metadata:
      handler_name    : SoundHandler
      encoder         : Lavc57.82.102 aac
No more output streams to write to, finishing.
frame=  248 fps=0.0 q=-1.0 Lsize=     828kB time=00:00:10.00 bitrate= 677.6kbits/s speed=75.9x    
video:734kB audio:85kB subtitle:0kB other streams:0kB global headers:0kB muxing overhead: 1.099030%
Input file #0 (test.mp4):
  Input stream #0:0 (video): 250 packets read (758616 bytes); 
  Input stream #0:1 (audio): 432 packets read (86801 bytes); 431 frames decoded (441344 samples); 
  Total: 682 packets (845417 bytes) demuxed
Output file #0 (testaac.mp4):
  Output stream #0:0 (video): 248 packets muxed (751642 bytes); 
  Output stream #0:1 (audio): 431 frames encoded (441344 samples); 432 packets muxed (86825 bytes); 
  Total: 680 packets (838467 bytes) muxed
[aac @ 0x168c500] Qavg: 121.808

Note that with -c:v copy -c:a copy that all 682 packets are written to output, including 250 video stream packets.

When using -c:v copy -c:a aac however only 680 packets are written. 2 video stream packets go missing.

Playback of the broken file shows distortion from the start of the video, suggesting that the packets are missing at the start of the video stream.

Change History (2)

comment:1 Changed 3 weeks ago by cehoyos

  • Keywords regression added
  • Priority changed from normal to important
  • Version changed from unspecified to git-master

comment:2 Changed 3 weeks ago by cehoyos

  • Reproduced by developer set
  • Status changed from new to open
Note: See TracTickets for help on using tickets.