Opened 3 years ago

#4276 new defect

stream from Dreambox to udp (http -> udp)

Reported by: almarciga Owned by:
Priority: normal Component: undetermined
Version: unspecified Keywords:
Cc: Blocked By:
Blocking: Reproduced by developer: no
Analyzed by developer: no

Description

Hi, I try to streaming from to device I try with Moi Pro and Dreambox, but two options is the same error, but i don´t know what is the problem if the output is a file is perfect only change output to udp or rtmp and I have the same problem that i explain here:

Ffmpeg line

angel@ubuntu:~/lib/fdk-aac$ ffmpeg -i http://192.168.1.36:8001/1:0:1:76C0:40E:1:C00000:0:0:0: -s 720x576 -r 25 -c:v libx264 -b:v 650K -bufsize 2M -maxrate 650K -preset faster -g 50 -vsync 1 -f mpegts udp://239.100.100.1:3001

ffmpeg version 1.2.6-7:1.2.6-1~trusty1 Copyright (c) 2000-2014 the FFmpeg developers

built on Apr 26 2014 18:52:58 with gcc 4.8 (Ubuntu 4.8.2-19ubuntu1)
configuration: --arch=amd64 --disable-stripping --enable-avresample --enable-pthreads --enable-runtime-cpudetect --extra-version='7:1.2.6-1~trusty1' --libdir=/usr/lib/x86_64-linux-gnu --prefix=/usr --enable-bzlib --enable-libdc1394 --enable-libfreetype --enable-frei0r --enable-gnutls --enable-libgsm --enable-libmp3lame --enable-librtmp --enable-libopencv --enable-libopenjpeg --enable-libopus --enable-libpulse --enable-libschroedinger --enable-libspeex --enable-libtheora --enable-vaapi --enable-vdpau --enable-libvorbis --enable-libvpx --enable-zlib --enable-gpl --enable-postproc --enable-libcdio --enable-x11grab --enable-libx264 --shlibdir=/usr/lib/x86_64-linux-gnu --enable-shared --disable-static
libavutil 52. 18.100 / 52. 18.100
libavcodec 54. 92.100 / 54. 92.100
libavformat 54. 63.104 / 54. 63.104
libavdevice 53. 5.103 / 53. 5.103
libavfilter 3. 42.103 / 3. 42.103
libswscale 2. 2.100 / 2. 2.100
libswresample 0. 17.102 / 0. 17.102
libpostproc 52. 2.100 / 52. 2.100

[mpeg2video @ 0x18fc340] 0x0 is invalid

Last message repeated 2 times

[mpegts @ 0x18cda40] max_analyze_duration 5000000 reached at 5016000 microseconds
[mpegts @ 0x18cda40] Could not find codec parameters for stream 5 (Unknown: none ([192][0][0][0] / 0x00C0)): unknown codec
Consider increasing the value for the 'analyzeduration' and 'probesize' options
[mpegts @ 0x18cda40] Could not find codec parameters for stream 6 (Unknown: none ([192][0][0][0] / 0x00C0)): unknown codec
Consider increasing the value for the 'analyzeduration' and 'probesize' options
[mpegts @ 0x18cda40] Could not find codec parameters for stream 7 (Unknown: none ([193][0][0][0] / 0x00C1)): unknown codec
Consider increasing the value for the 'analyzeduration' and 'probesize' options
[mpegts @ 0x18cda40] Could not find codec parameters for stream 8 (Unknown: none ([193][0][0][0] / 0x00C1)): unknown codec
Consider increasing the value for the 'analyzeduration' and 'probesize' options
[mpegts @ 0x18cda40] Could not find codec parameters for stream 9 (Unknown: none ([193][0][0][0] / 0x00C1)): unknown codec
Consider increasing the value for the 'analyzeduration' and 'probesize' options
[mpegts @ 0x18cda40] Could not find codec parameters for stream 10 (Unknown: none ([193][0][0][0] / 0x00C1)): unknown codec
Consider increasing the value for the 'analyzeduration' and 'probesize' options
[mpegts @ 0x18cda40] Could not find codec parameters for stream 11 (Unknown: none ([193][0][0][0] / 0x00C1)): unknown codec
Consider increasing the value for the 'analyzeduration' and 'probesize' options
[mpegts @ 0x18cda40] Could not find codec parameters for stream 12 (Unknown: none ([193][0][0][0] / 0x00C1)): unknown codec
Consider increasing the value for the 'analyzeduration' and 'probesize' options
[mpegts @ 0x18cda40] Could not find codec parameters for stream 13 (Unknown: none ([192][0][0][0] / 0x00C0)): unknown codec
Consider increasing the value for the 'analyzeduration' and 'probesize' options
[mpegts @ 0x18cda40] Could not find codec parameters for stream 14 (Unknown: none ([193][0][0][0] / 0x00C1)): unknown codec
Consider increasing the value for the 'analyzeduration' and 'probesize' options
[mpegts @ 0x18cda40] Could not find codec parameters for stream 15 (Unknown: none ([193][0][0][0] / 0x00C1)): unknown codec
Consider increasing the value for the 'analyzeduration' and 'probesize' options
[mpegts @ 0x18cda40] Estimating duration from bitrate, this may be inaccurate
Input #0, mpegts, from 'http://192.168.1.36:8001/1:0:1:76C0:40E:1:C00000:0:0:0:':

Duration: N/A, start: 141.075578, bitrate: 384 kb/s
Program 30400

Stream #0:0[0xa0]: Video: mpeg2video (Main) ([2][0][0][0] / 0x0002), yuv420p, 720x576 [SAR 64:45 DAR 16:9], 25 fps, 25 tbr, 90k tbn, 50 tbc
Stream #0:1[0x50](spa): Audio: mp2 ([4][0][0][0] / 0x0004), 48000 Hz, stereo, s16p, 160 kb/s (clean effects)
Stream #0:2[0x51](dos): Audio: mp2 ([4][0][0][0] / 0x0004), 48000 Hz, stereo, s16p, 128 kb/s (clean effects)
Stream #0:3[0x52](tre): Audio: mp2 ([4][0][0][0] / 0x0004), 48000 Hz, mono, s16p, 96 kb/s (clean effects)
Stream #0:4[0x20](esl): Subtitle: dvb_teletext ([6][0][0][0] / 0x0006)
Stream #0:5[0xd0]: Unknown: none ([192][0][0][0] / 0x00C0)
Stream #0:6[0xde]: Unknown: none ([192][0][0][0] / 0x00C0)
Stream #0:7[0xd5]: Unknown: none ([193][0][0][0] / 0x00C1)
Stream #0:8[0xfd]: Unknown: none ([193][0][0][0] / 0x00C1)
Stream #0:9[0x133]: Unknown: none ([193][0][0][0] / 0x00C1)
Stream #0:10[0x164]: Unknown: none ([193][0][0][0] / 0x00C1)
Stream #0:11[0x188]: Unknown: none ([193][0][0][0] / 0x00C1)
Stream #0:12[0x2fb]: Unknown: none ([193][0][0][0] / 0x00C1)
Stream #0:13[0x135]: Unknown: none ([192][0][0][0] / 0x00C0)
Stream #0:14[0x271]: Unknown: none ([193][0][0][0] / 0x00C1)
Stream #0:15[0x378]: Unknown: none ([193][0][0][0] / 0x00C1)

Program 30403
Program 30404
Program 30405
Program 30406
Program 30407
Program 30408
Program 30409
Program 30410
Program 30412
Program 30413
Program 30414

[libx264 @ 0x190cbc0] using SAR=64/45
[libx264 @ 0x190cbc0] using cpu capabilities: MMX2 SSE2Fast SSSE3 Cache64
[libx264 @ 0x190cbc0] profile High, level 3.0
Output #0, mpegts, to 'udp://239.100.100.1:3001':

Metadata:

encoder : Lavf54.63.104
Stream #0:0: Video: h264, yuv420p, 720x576 [SAR 64:45 DAR 16:9], q=-1--1, 650 kb/s, 90k tbn, 25 tbc
Stream #0:1(spa): Audio: mp2, 48000 Hz, stereo, s16, 128 kb/s (clean effects)

Stream mapping:

Stream #0:0 -> #0:0 (mpeg2video -> libx264)
Stream #0:1 -> #0:1 (mp2 -> mp2)

Press [q] to stop, ? for help
[mpeg2video @ 0x18fc340] warning: first frame is no keyframe
ac-tex damaged at 31 241.0 size= 607kB time=00:00:05.36 bitrate= 926.6kbits/s dup=12 drop=0
[mpeg2video @ 0x18fc340] ac-tex damaged at 0 15
[mpeg2video @ 0x18fc340] ac-tex damaged at 0 16
[mpeg2video @ 0x18fc340] ac-tex damaged at 0 17
[mpeg2video @ 0x18fc340] ac-tex damaged at 0 18
[mpeg2video @ 0x18fc340] ac-tex damaged at 0 19
[mpeg2video @ 0x18fc340] ac-tex damaged at 0 20
[mpeg2video @ 0x18fc340] ac-tex damaged at 0 21
[mpeg2video @ 0x18fc340] invalid mb type in I Frame at 0 22
[mpeg2video @ 0x18fc340] ac-tex damaged at 0 23
[mpeg2video @ 0x18fc340] ac-tex damaged at 0 24
[mpeg2video @ 0x18fc340] ac-tex damaged at 0 25
[mpeg2video @ 0x18fc340] ac-tex damaged at 0 26
[mpeg2video @ 0x18fc340] ac-tex damaged at 0 27
[mpeg2video @ 0x18fc340] ac-tex damaged at 0 28
[mpeg2video @ 0x18fc340] ac-tex damaged at 0 29
[mpeg2video @ 0x18fc340] ac-tex damaged at 0 30
[mpeg2video @ 0x18fc340] ac-tex damaged at 0 31
[mpeg2video @ 0x18fc340] invalid mb type in I Frame at 0 32
[mpeg2video @ 0x18fc340] invalid mb type in I Frame at 0 33
[mpeg2video @ 0x18fc340] invalid mb type in I Frame at 0 34
[mpeg2video @ 0x18fc340] invalid mb type in I Frame at 0 35
[mpeg2video @ 0x18fc340] Warning MVs not available
[mpeg2video @ 0x18fc340] concealing 945 DC, 945 AC, 945 MV errors in I frame
[mpegts @ 0x18cda40] PES packet size mismatch
[mp2 @ 0x18fd9c0] Header missing
Error while decoding stream #0:1: Invalid data found when processing input
00 motion_type at 14 190.0 size= 1395kB time=00:00:14.00 bitrate= 815.7kbits/s dup=177 drop=0
[mpeg2video @ 0x18fc340] 00 motion_type at 0 29
[mpeg2video @ 0x18fc340] 00 motion_type at 0 30
[mpeg2video @ 0x18fc340] 00 motion_type at 0 31
[mpeg2video @ 0x18fc340] 00 motion_type at 4 32
[mpeg2video @ 0x18fc340] 00 motion_type at 28 33
[mpeg2video @ 0x18fc340] skip with previntra

Last message repeated 1 times

[mpeg2video @ 0x18fc340] Warning MVs not available
[mpeg2video @ 0x18fc340] concealing 765 DC, 765 AC, 765 MV errors in B frame
PES packet size mismatch.0 size= 2056kB time=00:00:21.10 bitrate= 797.8kbits/s dup=301 drop=0
[mp2 @ 0x18fd9c0] Header missing
Error while decoding stream #0:1: Invalid data found when processing input
[mpeg2video @ 0x18fc340] ac-tex damaged at 33 5
[mpeg2video @ 0x18fc340] ac-tex damaged at 0 18
[mpeg2video @ 0x18fc340] ac-tex damaged at 0 19
[mpeg2video @ 0x18fc340] ac-tex damaged at 0 20
[mpeg2video @ 0x18fc340] ac-tex damaged at 0 21
[mpeg2video @ 0x18fc340] invalid mb type in I Frame at 1 22
[mpeg2video @ 0x18fc340] ac-tex damaged at 0 23
[mpeg2video @ 0x18fc340] ac-tex damaged at 0 24
[mpeg2video @ 0x18fc340] ac-tex damaged at 2 25
[mpeg2video @ 0x18fc340] ac-tex damaged at 0 26
[mpeg2video @ 0x18fc340] ac-tex damaged at 0 27
[mpeg2video @ 0x18fc340] ac-tex damaged at 0 28
[mpeg2video @ 0x18fc340] invalid mb type in I Frame at 0 29
[mpeg2video @ 0x18fc340] invalid mb type in I Frame at 0 30
[mpeg2video @ 0x18fc340] invalid mb type in I Frame at 0 31
[mpeg2video @ 0x18fc340] invalid mb type in I Frame at 0 32
[mpeg2video @ 0x18fc340] invalid mb type in I Frame at 0 33
[mpeg2video @ 0x18fc340] invalid mb type in I Frame at 0 34
[mpeg2video @ 0x18fc340] invalid mb type in I Frame at 0 35
[mpeg2video @ 0x18fc340] concealing 1395 DC, 1395 AC, 1395 MV errors in I frame
00 motion_type at 13 202.0 size= 2622kB time=00:00:27.44 bitrate= 782.6kbits/s dup=405 drop=0
[mpeg2video @ 0x18fc340] 00 motion_type at 0 19
[mpeg2video @ 0x18fc340] 00 motion_type at 3 20
[mpeg2video @ 0x18fc340] invalid mb type in P Frame at 2 22
[mpeg2video @ 0x18fc340] ac-tex damaged at 7 22
[mpeg2video @ 0x18fc340] ac-tex damaged at 6 23
[mpeg2video @ 0x18fc340] ac-tex damaged at 1 24
[mpeg2video @ 0x18fc340] 00 motion_type at 1 25
[mpeg2video @ 0x18fc340] slice mismatch
[mpeg2video @ 0x18fc340] 00 motion_type at 2 27
[mpeg2video @ 0x18fc340] 00 motion_type at 4 28
[mpeg2video @ 0x18fc340] 00 motion_type at 11 29
[mpeg2video @ 0x18fc340] 00 motion_type at 3 30
[mpeg2video @ 0x18fc340] 00 motion_type at 10 31
[mpeg2video @ 0x18fc340] ac-tex damaged at 0 32
[mpeg2video @ 0x18fc340] ac-tex damaged at 0 33
[mpeg2video @ 0x18fc340] ac-tex damaged at 0 34
[mpeg2video @ 0x18fc340] ac-tex damaged at 0 35
[mpeg2video @ 0x18fc340] concealing 765 DC, 765 AC, 765 MV errors in P frame
[mpegts @ 0x18cda40] PES packet size mismatch
[mp2 @ 0x18fd9c0] Header missing
Error while decoding stream #0:1: Invalid data found when processing input
frame= 824 fps= 28 q=8.0 Lsize= 3079kB time=00:00:32.88 bitrate= 767.0kbits/s dup=523 drop=0
video:2553kB audio:186kB subtitle:0 global headers:0kB muxing overhead 12.432885%
[libx264 @ 0x190cbc0] frame I:20 Avg QP:15.04 size: 51794
[libx264 @ 0x190cbc0] frame P:264 Avg QP:17.59 size: 4813
[libx264 @ 0x190cbc0] frame B:540 Avg QP:14.31 size: 569
[libx264 @ 0x190cbc0] consecutive B-frames: 6.8% 13.8% 10.9% 68.4%
[libx264 @ 0x190cbc0] mb I I16..4: 27.1% 17.7% 55.2%
[libx264 @ 0x190cbc0] mb P I16..4: 1.6% 4.3% 1.3% P16..4: 19.4% 6.2% 2.8% 0.0% 0.0% skip:64.4%
[libx264 @ 0x190cbc0] mb B I16..4: 0.2% 0.4% 0.1% B16..8: 7.2% 1.4% 0.1% direct: 1.4% skip:89.3% L0:35.3% L1:51.8% BI:12.8%
[libx264 @ 0x190cbc0] 8x8 transform intra:39.9% inter:55.9%
[libx264 @ 0x190cbc0] coded y,uvDC,uvAC intra: 63.4% 52.8% 24.6% inter: 5.1% 3.2% 0.6%
[libx264 @ 0x190cbc0] i16 v,h,dc,p: 69% 16% 10% 5%
[libx264 @ 0x190cbc0] i8 v,h,dc,ddl,ddr,vr,hd,vl,hu: 43% 15% 23% 2% 3% 5% 2% 4% 3%
[libx264 @ 0x190cbc0] i4 v,h,dc,ddl,ddr,vr,hd,vl,hu: 38% 14% 10% 4% 6% 9% 5% 8% 5%
[libx264 @ 0x190cbc0] i8c dc,h,v,p: 50% 16% 29% 5%
[libx264 @ 0x190cbc0] Weighted P-Frames: Y:0.0% UV:0.0%
[libx264 @ 0x190cbc0] ref P L0: 80.5% 19.5%
[libx264 @ 0x190cbc0] ref B L0: 83.8% 16.2%
[libx264 @ 0x190cbc0] ref B L1: 93.3% 6.7%
[libx264 @ 0x190cbc0] kb/s:634.44
Received signal 2: terminating.

I stoped with Ctrl+c

If the same the output is a file no problem

ffmpeg -i http://192.168.1.36:8001/1:0:1:76C0:40E:1:C00000:0:0:0: -s 720x576 -r 25 -c:v libx264 -b:v 650K -bufsize 2M -maxrate 650K -preset faster -g 50 -vsync 1 film.mpg

I don´t How is posible! Thanks

Change History (0)

Note: See TracTickets for help on using tickets.