Opened 5 years ago

Closed 5 years ago

Last modified 5 years ago

#525 closed enhancement (fixed)

Avid 1:1 10-bit RGB Packer not supported

Reported by: cehoyos Owned by:
Priority: wish Component: undetermined
Version: git-master Keywords: avrp
Cc: Blocked By:
Blocking: Reproduced by developer: yes
Analyzed by developer: no

Description

http://www.datafilehost.com/download-c74055aa.html

$ ffmpeg -i Avid11RGB_cut.mov
ffmpeg version N-33192-gfe70c1f, Copyright (c) 2000-2011 the FFmpeg developers
  built on Oct  1 2011 12:36:37 with gcc 4.3.2 [gcc-4_3-branch revision 141291]
  configuration: --enable-libopenjpeg
  libavutil    51. 18. 0 / 51. 18. 0
  libavcodec   53. 19. 0 / 53. 19. 0
  libavformat  53. 13. 0 / 53. 13. 0
  libavdevice  53.  4. 0 / 53.  4. 0
  libavfilter   2. 43. 6 /  2. 43. 6
  libswscale    2.  1. 0 /  2.  1. 0

Seems stream 0 codec frame rate differs from container frame rate: 29970.00 (29970/1) -> 29.97 (2997/100)
Input #0, mov,mp4,m4a,3gp,3g2,mj2, from 'Avid11RGB_cut.mov':
  Metadata:
    major_brand     : qt
    minor_version   : 537199360
    compatible_brands: qt
    creation_time   : 2011-09-29 15:16:51
  Duration: 00:00:03.93, start: 0.000000, bitrate: 106528 kb/s
    Stream #0:0(eng): Video: none (AVrp / 0x70725641), 1920x1080, 1988665 kb/s, 29.97 fps, 29.97 tbr, 29970 tbn, 29970 tbc
    Metadata:
      creation_time   : 2011-09-29 15:16:51
    Stream #0:1(eng): Audio: pcm_s16be (twos / 0x736F7774), 48000 Hz, 2 channels, s16, 1536 kb/s
    Metadata:
      creation_time   : 2011-09-29 15:16:51
    Stream #0:2(eng): Data: none (tmcd / 0x64636D74)
    Metadata:
      creation_time   : 2011-09-29 15:17:08
At least one output file must be specified

Change History (3)

comment:1 Changed 5 years ago by llogan

  • Reproduced by developer set
  • Status changed from new to open

comment:2 Changed 5 years ago by cehoyos

  • Resolution set to fixed
  • Status changed from open to closed

comment:3 Changed 5 years ago by cehoyos

  • Keywords avrp added
Note: See TracTickets for help on using tickets.