Opened 2 years ago

Last modified 2 years ago

#5533 open defect

Unable to decode some H.264 stream on seeking

Reported by: Aleksoid1978 Owned by:
Priority: normal Component: avcodec
Version: git-master Keywords: H264 seek
Cc: Blocked By:
Blocking: Reproduced by developer: yes
Analyzed by developer: no

Description

Link to file - ​https://yadi.sk/i/SwTnylRerayJL
Summary of the bug: Unable decoding if seeking after opening file.
How to reproduce:

ffplay.exe CSI.Cyber.S02E12.720p.HDTV.HamsterStudio.org.mkv
ffplay version N-79883-g38eeb85 Copyright (c) 2003-2016 the FFmpeg developers
  built with gcc 5.3.0 (GCC)
  configuration: --enable-gpl --enable-version3 --disable-w32threads --enable-avisynth --enable-bzlib --enable-fontconfig --enable-frei0r --enable-gnutls --enable-iconv --enable-libass --enable-libbluray --enable-libbs2b --enable-libcaca --enable-libfreetype --enable-libgme --enable-libgsm --enable-libilbc --enable-libmodplug --enable-libmfx --enable-libmp3lame --enable-libopencore-amrnb --enable-libopencore-amrwb --enable-libopenjpeg --enable-libopus --enable-librtmp --enable-libschroedinger --enable-libsnappy --enable-libsoxr --enable-libspeex --enable-libtheora --enable-libtwolame --enable-libvidstab --enable-libvo-amrwbenc --enable-libvorbis --enable-libvpx --enable-libwavpack --enable-libwebp --enable-libx264 --enable-libx265 --enable-libxavs --enable-libxvid --enable-libzimg --enable-lzma --enable-decklink --enable-zlib
  libavutil      55. 24.100 / 55. 24.100
  libavcodec     57. 40.100 / 57. 40.100
  libavformat    57. 36.100 / 57. 36.100
  libavdevice    57.  0.101 / 57.  0.101
  libavfilter     6. 45.100 /  6. 45.100
  libswscale      4.  1.100 /  4.  1.100
  libswresample   2.  0.101 /  2.  0.101
  libpostproc    54.  0.100 / 54.  0.100
Input #0, matroska,webm, from 'CSI.Cyber.S02E12.720p.HDTV.HamsterStudio.org.mkv':
  Metadata:
    encoder         : libebml v1.3.1 + libmatroska v1.4.2
    creation_time   : 2016-02-22 17:09:39
  Duration: 00:41:58.75, start: 0.000000, bitrate: 4666 kb/s
    Stream #0:0: Video: h264 (Main), yuv420p(tv), 1280x720 [SAR 1:1 DAR 16:9], 23.98 fps, 23.98 tbr, 1k tbn (default)
    Metadata:
      BPS             : 3896559
      BPS-eng         : 3896559
      DURATION        : 00:41:58.641000000
      DURATION-eng    : 00:41:58.641000000
      NUMBER_OF_FRAMES: 60387    nan    :  0.000 fd=   0 aq=    0KB vq=    0KB sq=    0B f=0/0
      NUMBER_OF_FRAMES-eng: 60387
      NUMBER_OF_BYTES : 1226754179
      NUMBER_OF_BYTES-eng: 1226754179
      _STATISTICS_WRITING_APP: mkvmerge v7.8.0 ('River Man') 64bit built on Mar 27 2015 16:31:37
      _STATISTICS_WRITING_APP-eng: mkvmerge v7.8.0 ('River Man') 64bit built on Mar 27 2015 16:31:37
      _STATISTICS_WRITING_DATE_UTC: 2016-02-22 17:09:39
      _STATISTICS_WRITING_DATE_UTC-eng: 2016-02-22 17:09:39
      _STATISTICS_TAGS: BPS DURATION NUMBER_OF_FRAMES NUMBER_OF_BYTES
      _STATISTICS_TAGS-eng: BPS DURATION NUMBER_OF_FRAMES NUMBER_OF_BYTES
    Stream #0:1: Subtitle: ass (default) (forced)
    Metadata:
      BPS             : 2
      BPS-eng         : 2
      DURATION        : 00:40:39.000000000
      DURATION-eng    : 00:40:39.000000000
      NUMBER_OF_FRAMES: 3
      NUMBER_OF_FRAMES-eng: 3
      NUMBER_OF_BYTES : 645
      NUMBER_OF_BYTES-eng: 645
      _STATISTICS_WRITING_APP: mkvmerge v7.8.0 ('River Man') 64bit built on Mar 27 2015 16:31:37
      _STATISTICS_WRITING_APP-eng: mkvmerge v7.8.0 ('River Man') 64bit built on Mar 27 2015 16:31:37
      _STATISTICS_WRITING_DATE_UTC: 2016-02-22 17:09:39
      _STATISTICS_WRITING_DATE_UTC-eng: 2016-02-22 17:09:39
      _STATISTICS_TAGS: BPS DURATION NUMBER_OF_FRAMES NUMBER_OF_BYTES
      _STATISTICS_TAGS-eng: BPS DURATION NUMBER_OF_FRAMES NUMBER_OF_BYTES
    Stream #0:2(rus): Audio: ac3, 48000 Hz, 5.1(side), fltp, 384 kb/s (default) (forced)
    Metadata:
      title           : HamsterStudio.org
      BPS             : 384000
      BPS-eng         : 384000
      DURATION        : 00:41:58.752000000
      DURATION-eng    : 00:41:58.752000000
      NUMBER_OF_FRAMES: 78711
      NUMBER_OF_FRAMES-eng: 78711
      NUMBER_OF_BYTES : 120900096
      NUMBER_OF_BYTES-eng: 120900096
      _STATISTICS_WRITING_APP: mkvmerge v7.8.0 ('River Man') 64bit built on Mar 27 2015 16:31:37
      _STATISTICS_WRITING_APP-eng: mkvmerge v7.8.0 ('River Man') 64bit built on Mar 27 2015 16:31:37
      _STATISTICS_WRITING_DATE_UTC: 2016-02-22 17:09:39
      _STATISTICS_WRITING_DATE_UTC-eng: 2016-02-22 17:09:39
      _STATISTICS_TAGS: BPS DURATION NUMBER_OF_FRAMES NUMBER_OF_BYTES
      _STATISTICS_TAGS-eng: BPS DURATION NUMBER_OF_FRAMES NUMBER_OF_BYTES
    Stream #0:3(eng): Audio: ac3, 48000 Hz, 5.1(side), fltp, 384 kb/s
    Metadata:
      BPS             : 384000
      BPS-eng         : 384000
      DURATION        : 00:41:58.752000000
      DURATION-eng    : 00:41:58.752000000
      NUMBER_OF_FRAMES: 78711
      NUMBER_OF_FRAMES-eng: 78711
      NUMBER_OF_BYTES : 120900096
      NUMBER_OF_BYTES-eng: 120900096
      _STATISTICS_WRITING_APP: mkvmerge v7.8.0 ('River Man') 64bit built on Mar 27 2015 16:31:37
      _STATISTICS_WRITING_APP-eng: mkvmerge v7.8.0 ('River Man') 64bit built on Mar 27 2015 16:31:37
      _STATISTICS_WRITING_DATE_UTC: 2016-02-22 17:09:39
      _STATISTICS_WRITING_DATE_UTC-eng: 2016-02-22 17:09:39
      _STATISTICS_TAGS: BPS DURATION NUMBER_OF_FRAMES NUMBER_OF_BYTES
      _STATISTICS_TAGS-eng: BPS DURATION NUMBER_OF_FRAMES NUMBER_OF_BYTES
SDL_OpenAudio (6 channels, 48000 Hz): DirectSound CreateSoundBuffer: Invalid parameter
SDL_OpenAudio (4 channels, 48000 Hz): DirectSound CreateSoundBuffer: Invalid parameter
Seek to 37% ( 0:15:32) of total duration ( 0:41:58)       B f=0/0
[h264 @ 05e32c60] deblocking_filter_idc 19 out of range  0B f=0/0
[h264 @ 05e32c60] decode_slice_header error
[h264 @ 058130e0] number of reference frames (1+3) exceeds max (3; probably corrupt input), discarding one
[h264 @ 058130e0] illegal modification_of_pic_nums_idc 6
[h264 @ 058130e0] decode_slice_header error
[h264 @ 058134e0] mmco: unref short failure2939KB sq=    0B f=0/0
[h264 @ 058134e0] number of reference frames (1+3) exceeds max (3; probably corrupt input), discarding one
[h264 @ 058134e0] illegal modification_of_pic_nums_idc 31
[h264 @ 058134e0] decode_slice_header error
[h264 @ 0580c5a0] mmco: unref short failure
[h264 @ 0580c5a0] number of reference frames (1+3) exceeds max (3; probably corrupt input), discarding one
[h264 @ 0580c5a0] co located POCs unavailable
[h264 @ 0580c5a0] Reference 3 >= 3
[h264 @ 0580c5a0] error while decoding MB 48 1, bytestream 21219
[h264 @ 0580c5a0] concealing 3521 DC, 3521 AC, 3521 MV errors in B frame
[h264 @ 0580c9c0] Missing reference picture, default is 65568
    Last message repeated 4 times
[h264 @ 0580c9c0] co located POCs unavailable77KB sq=    0B f=0/0
[h264 @ 0580c9c0] concealing 3580 DC, 3580 AC, 3580 MV errors in B frame
[h264 @ 055cf9e0] illegal modification_of_pic_nums_idc 4
[h264 @ 055cf9e0] decode_slice_header error
[h264 @ 058b0220] illegal modification_of_pic_nums_idc 5
[h264 @ 058b0220] decode_slice_header error
[h264 @ 055dcea0] reference picture missing during reorder
    Last message repeated 1 times
[h264 @ 055dcea0] reference count overflow
[h264 @ 055dcea0] decode_slice_header error
[h264 @ 055dbe80] mmco: unref short failure2775KB sq=    0B f=0/0
[h264 @ 055dbe80] number of reference frames (0+4) exceeds max (3; probably corrupt input), discarding one
[h264 @ 055dbe80] reference picture missing during reorder
    Last message repeated 1 times
[h264 @ 055dbe80] reference count overflow
[h264 @ 055dbe80] decode_slice_header error
[h264 @ 05e32c60] mmco: unref short failure
[h264 @ 05e32c60] number of reference frames (0+4) exceeds max (3; probably corrupt input), discarding one
[h264 @ 05e32c60] illegal modification_of_pic_nums_idc 8
[h264 @ 05e32c60] decode_slice_header error
[h264 @ 058130e0] mmco: unref short failure4159KB sq=    0B f=0/0
[h264 @ 058130e0] number of reference frames (0+4) exceeds max (3; probably corrupt input), discarding one
[h264 @ 058130e0] illegal modification_of_pic_nums_idc 8
[h264 @ 058130e0] decode_slice_header error
[h264 @ 058134e0] illegal memory management control operation 32
[h264 @ 058134e0] deblocking_filter_idc 4 out of range
[h264 @ 058134e0] decode_slice_header error
[h264 @ 0580c5a0] mmco: unref short failure
[h264 @ 0580c5a0] number of reference frames (0+4) exceeds max (3; probably corrupt input), discarding one
[h264 @ 0580c5a0] Missing reference picture, default is 65365
    Last message repeated 5 times
[h264 @ 0580c5a0] co located POCs unavailable
[h264 @ 0580c9c0] number of reference frames (0+4) exceeds max (3; probably corrupt input), discarding one
[h264 @ 0580c5a0] concealing 3538 DC, 3538 AC, 3538 MV errors in B frame
[h264 @ 0580c9c0] reference picture missing during reorder
    Last message repeated 3 times
[h264 @ 0580c9c0] reference count overflow
[h264 @ 0580c9c0] decode_slice_header error
[h264 @ 055cf9e0] reference picture missing during reorderB f=0/0
    Last message repeated 2 times
[h264 @ 055cf9e0] reference count overflow
[h264 @ 055cf9e0] decode_slice_header error
[h264 @ 058b0220] mmco: unref short failure4109KB sq=    0B f=0/0
[h264 @ 058b0220] number of reference frames (0+4) exceeds max (3; probably corrupt input), discarding one
[h264 @ 058b0220] illegal long ref in memory management control operation 4
[h264 @ 058b0220] co located POCs unavailable
[h264 @ 058b0220] Reference 3 >= 3
[h264 @ 058b0220] error while decoding MB 12 0, bytestream 100676
[h264 @ 055dcea0] mmco: unref short failure
[h264 @ 058b0220] concealing 3600 DC, 3600 AC, 3600 MV errors in B frame
[h264 @ 055dcea0] number of reference frames (0+4) exceeds max (3; probably corrupt input), discarding one
[h264 @ 055dcea0] illegal modification_of_pic_nums_idc 8
[h264 @ 055dcea0] decode_slice_header error
[h264 @ 055dbe80] illegal modification_of_pic_nums_idc 7 0B f=0/0
[h264 @ 055dbe80] decode_slice_header error
[h264 @ 05e32c60] reference picture missing during reorder
    Last message repeated 2 times
[h264 @ 05e32c60] reference count overflow
[h264 @ 05e32c60] decode_slice_header error
[h264 @ 058130e0] illegal modification_of_pic_nums_idc 31
[h264 @ 058130e0] decode_slice_header error
[h264 @ 058134e0] mmco: unref short failure
[h264 @ 058134e0] number of reference frames (0+4) exceeds max (3; probably corrupt input), discarding one
[h264 @ 058134e0] reference picture missing during reorder
[h264 @ 058134e0] reference count overflow
[h264 @ 058134e0] decode_slice_header error
[h264 @ 0580c5a0] mmco: unref short failure
[h264 @ 0580c5a0] number of reference frames (0+4) exceeds max (3; probably corrupt input), discarding one
[h264 @ 0580c5a0] illegal modification_of_pic_nums_idc 8 0B f=0/0
[h264 @ 0580c5a0] decode_slice_header error
[h264 @ 0580c9c0] reference picture missing during reorder
    Last message repeated 2 times
[h264 @ 0580c9c0] reference count overflow
[h264 @ 0580c9c0] decode_slice_header error
[h264 @ 055cf9e0] mmco: unref short failure
[h264 @ 055cf9e0] number of reference frames (0+4) exceeds max (3; probably corrupt input), discarding one
[h264 @ 055cf9e0] reference count overflow
[h264 @ 055cf9e0] decode_slice_header error
[h264 @ 058b0220] reference picture missing during reorder
    Last message repeated 2 times
[h264 @ 058b0220] reference count overflow
[h264 @ 058b0220] decode_slice_header error
[h264 @ 055dcea0] mmco: unref short failure4017KB sq=    0B f=0/0
[h264 @ 055dcea0] number of reference frames (0+4) exceeds max (3; probably corrupt input), discarding one
[h264 @ 055dcea0] illegal modification_of_pic_nums_idc 4
[h264 @ 055dcea0] decode_slice_header error
[h264 @ 055dbe80] reference picture missing during reorder
    Last message repeated 2 times
[h264 @ 055dbe80] reference count overflow
[h264 @ 055dbe80] decode_slice_header error
[h264 @ 05e32c60] mmco: unref short failure
[h264 @ 05e32c60] number of reference frames (0+4) exceeds max (3; probably corrupt input), discarding one
[h264 @ 05e32c60] reference picture missing during reorder
[h264 @ 05e32c60] reference count overflow
[h264 @ 05e32c60] decode_slice_header error
[h264 @ 058130e0] mmco: unref short failure3949KB sq=    0B f=0/0
[h264 @ 058130e0] number of reference frames (0+4) exceeds max (3; probably corrupt input), discarding one
[h264 @ 058130e0] illegal long ref in memory management control operation 4
[h264 @ 058130e0] co located POCs unavailable
[h264 @ 058134e0] mmco: unref short failure
[h264 @ 058134e0] number of reference frames (0+4) exceeds max (3; probably corrupt input), discarding one
[h264 @ 058130e0] Reference 4 >= 3
[h264 @ 058130e0] error while decoding MB 50 0, bytestream 41419
[h264 @ 058134e0] illegal modification_of_pic_nums_idc 130B f=0/0
[h264 @ 058134e0] decode_slice_header error
[h264 @ 058130e0] concealing 3599 DC, 3599 AC, 3599 MV errors in B frame
[h264 @ 0580c5a0] illegal modification_of_pic_nums_idc 4
[h264 @ 0580c5a0] decode_slice_header error
[h264 @ 0580c9c0] illegal modification_of_pic_nums_idc 31
[h264 @ 0580c9c0] decode_slice_header error
[h264 @ 055cf9e0] number of reference frames (0+4) exceeds max (3; probably corrupt input), discarding one
[h264 @ 055cf9e0] illegal memory management control operation 7
[h264 @ 055cf9e0] co located POCs unavailable
[h264 @ 058b0220] mmco: unref short failure
[h264 @ 058b0220] number of reference frames (0+4) exceeds max (3; probably corrupt input), discarding one
[h264 @ 055cf9e0] concealing 3564 DC, 3564 AC, 3564 MV errors in B frame
[h264 @ 058b0220] reference picture missing during reorder
    Last message repeated 3 times
[h264 @ 058b0220] reference count overflow
[h264 @ 058b0220] decode_slice_header error
[h264 @ 055dcea0] reference picture missing during reorder
    Last message repeated 2 times
[h264 @ 055dcea0] reference count overflow
[h264 @ 055dcea0] decode_slice_header error
[h264 @ 055dbe80] number of reference frames (0+4) exceeds max (3; probably corrupt input), discarding one
[h264 @ 055dbe80] illegal memory management control operation 7
[h264 @ 055dbe80] co located POCs unavailable
[h264 @ 05e32c60] mmco: unref short failure3783KB sq=    0B f=0/0
[h264 @ 055dbe80] concealing 3595 DC, 3595 AC, 3595 MV errors in B frame
[h264 @ 05e32c60] number of reference frames (0+4) exceeds max (3; probably corrupt input), discarding one
[h264 @ 05e32c60] reference picture missing during reorder
    Last message repeated 3 times
[h264 @ 05e32c60] reference count overflow
[h264 @ 05e32c60] decode_slice_header error
[h264 @ 058130e0] reference picture missing during reorder
    Last message repeated 1 times
[h264 @ 058130e0] reference count overflow
[h264 @ 058130e0] decode_slice_header error
[h264 @ 058134e0] mmco: unref short failure3789KB sq=    0B f=0/0
[h264 @ 058134e0] number of reference frames (0+4) exceeds max (3; probably corrupt input), discarding one
[h264 @ 058134e0] reference picture missing during reorder
[h264 @ 058134e0] reference count overflow
[h264 @ 058134e0] decode_slice_header error
[h264 @ 0580c5a0] mmco: unref short failure
[h264 @ 0580c5a0] number of reference frames (0+4) exceeds max (3; probably corrupt input), discarding one
[h264 @ 0580c5a0] reference picture missing during reorder
[h264 @ 0580c5a0] reference count overflow
[h264 @ 0580c5a0] decode_slice_header error
[h264 @ 0580c9c0] mmco: unref short failure3832KB sq=    0B f=0/0
[h264 @ 0580c9c0] number of reference frames (0+4) exceeds max (3; probably corrupt input), discarding one
[h264 @ 0580c9c0] reference picture missing during reorder
    Last message repeated 2 times
[h264 @ 0580c9c0] reference count overflow
[h264 @ 0580c9c0] decode_slice_header error
[h264 @ 055cf9e0] mmco: unref short failure
[h264 @ 055cf9e0] number of reference frames (0+4) exceeds max (3; probably corrupt input), discarding one
[h264 @ 055cf9e0] illegal long ref in memory management control operation 4
[h264 @ 055cf9e0] co located POCs unavailable
[h264 @ 058b0220] mmco: unref short failure3803KB sq=    0B f=0/0
[h264 @ 058b0220] number of reference frames (0+4) exceeds max (3; probably corrupt input), discarding one
[h264 @ 055cf9e0] Reference 4 >= 3
[h264 @ 055cf9e0] error while decoding MB 24 0, bytestream 63783
[h264 @ 058b0220] illegal modification_of_pic_nums_idc 8
[h264 @ 058b0220] decode_slice_header error
[h264 @ 055cf9e0] concealing 3600 DC, 3600 AC, 3600 MV errors in B frame
[h264 @ 055dcea0] reference count overflow
[h264 @ 055dcea0] decode_slice_header error
[h264 @ 055dbe80] illegal modification_of_pic_nums_idc 31
[h264 @ 055dbe80] decode_slice_header error
[h264 @ 05e32c60] mmco: unref short failure
[h264 @ 05e32c60] number of reference frames (0+4) exceeds max (3; probably corrupt input), discarding one
[h264 @ 05e32c60] illegal long ref in memory management control operation 4
[h264 @ 05e32c60] co located POCs unavailable
[h264 @ 05e32c60] top block unavailable for requested intra mode
[h264 @ 05e32c60] error while decoding MB 8 0, bytestream 171920
[h264 @ 058130e0] mmco: unref short failure
[h264 @ 058130e0] number of reference frames (0+4) exceeds max (3; probably corrupt input), discarding one
[h264 @ 05e32c60] concealing 3600 DC, 3600 AC, 3600 MV errors in B frame
[h264 @ 058130e0] illegal modification_of_pic_nums_idc 8 0B f=0/0
[h264 @ 058130e0] decode_slice_header error
[h264 @ 058134e0] illegal modification_of_pic_nums_idc 9
[h264 @ 058134e0] decode_slice_header error
[h264 @ 0580c5a0] illegal modification_of_pic_nums_idc 8
[h264 @ 0580c5a0] decode_slice_header error
[h264 @ 0580c9c0] illegal modification_of_pic_nums_idc 31
[h264 @ 0580c9c0] decode_slice_header error
[h264 @ 055cf9e0] mmco: unref short failure
[h264 @ 055cf9e0] number of reference frames (0+4) exceeds max (3; probably corrupt input), discarding one
[h264 @ 055cf9e0] reference picture missing during reorder
    Last message repeated 2 times
[h264 @ 055cf9e0] reference count overflow
[h264 @ 055cf9e0] decode_slice_header error
[h264 @ 058b0220] mmco: unref short failure3712KB sq=    0B f=0/0
[h264 @ 058b0220] number of reference frames (0+4) exceeds max (3; probably corrupt input), discarding one
[h264 @ 058b0220] reference picture missing during reorder
    Last message repeated 2 times
[h264 @ 058b0220] reference count overflow
[h264 @ 058b0220] decode_slice_header error
[h264 @ 055dcea0] mmco: unref short failure
[h264 @ 055dcea0] number of reference frames (0+4) exceeds max (3; probably corrupt input), discarding one
[h264 @ 055dcea0] reference picture missing during reorderB f=0/0
    Last message repeated 2 times
[h264 @ 055dcea0] reference count overflow
[h264 @ 055dcea0] decode_slice_header error
[h264 @ 055dbe80] mmco: unref short failure
[h264 @ 055dbe80] number of reference frames (0+4) exceeds max (3; probably corrupt input), discarding one
[h264 @ 055dbe80] reference picture missing during reorder
    Last message repeated 2 times
[h264 @ 055dbe80] reference count overflow
[h264 @ 055dbe80] decode_slice_header error
[h264 @ 05e32c60] mmco: unref short failure
[h264 @ 05e32c60] number of reference frames (0+4) exceeds max (3; probably corrupt input), discarding one
[h264 @ 05e32c60] reference picture missing during reorder
    Last message repeated 2 times
[h264 @ 05e32c60] reference count overflow
[h264 @ 05e32c60] decode_slice_header error
[h264 @ 058130e0] mmco: unref short failure3692KB sq=    0B f=0/0
[h264 @ 058130e0] number of reference frames (0+4) exceeds max (3; probably corrupt input), discarding one
[h264 @ 058130e0] illegal modification_of_pic_nums_idc 4
[h264 @ 058130e0] decode_slice_header error
[h264 @ 058134e0] top block unavailable for requested intra mode -1
[h264 @ 058134e0] error while decoding MB 0 0, bytestream 132421
[h264 @ 0580c5a0] illegal long ref in memory management control operation 3
[h264 @ 058134e0] concealing 3600 DC, 3600 AC, 3600 MV errors in I frame
[h264 @ 0580c9c0] mmco: unref short failure
[h264 @ 0580c9c0] number of reference frames (1+3) exceeds max (3; probably corrupt input), discarding one
[h264 @ 0580c5a0] top block unavailable for requested intra mode
[h264 @ 0580c9c0] illegal modification_of_pic_nums_idc 4
[h264 @ 0580c9c0] decode_slice_header error
[h264 @ 0580c5a0] error while decoding MB 16 0, bytestream 42174
[h264 @ 055cf9e0] mmco: unref short failure
[h264 @ 055cf9e0] number of reference frames (1+3) exceeds max (3; probably corrupt input), discarding one
[h264 @ 0580c5a0] concealing 3600 DC, 3600 AC, 3600 MV errors in P frame
[h264 @ 055cf9e0] illegal modification_of_pic_nums_idc 4
[h264 @ 055cf9e0] decode_slice_header error
[h264 @ 058b0220] illegal modification_of_pic_nums_idc 4 0B f=0/0
[h264 @ 058b0220] decode_slice_header error
[h264 @ 055dcea0] reference picture missing during reorder
[h264 @ 055dcea0] illegal modification_of_pic_nums_idc 4
[h264 @ 055dcea0] decode_slice_header error
[h264 @ 055dbe80] reference picture missing during reorder
[h264 @ 055dbe80] illegal modification_of_pic_nums_idc 4
[h264 @ 055dbe80] decode_slice_header error
[h264 @ 05e32c60] reference picture missing during reorder
    Last message repeated 2 times
[h264 @ 05e32c60] reference count overflow
[h264 @ 05e32c60] decode_slice_header error
[h264 @ 058130e0] mmco: unref short failure3652KB sq=    0B f=0/0
[h264 @ 058130e0] number of reference frames (1+3) exceeds max (3; probably corrupt input), discarding one
[h264 @ 058130e0] illegal memory management control operation 12
[h264 @ 058130e0] co located POCs unavailable
[h264 @ 058130e0] deblocking_filter_idc 4 out of range
[h264 @ 058130e0] decode_slice_header error
[h264 @ 058134e0] mmco: unref short failure
[h264 @ 058134e0] number of reference frames (1+3) exceeds max (3; probably corrupt input), discarding one
[h264 @ 058134e0] reference picture missing during reorder
[h264 @ 058134e0] illegal modification_of_pic_nums_idc 4
[h264 @ 058134e0] decode_slice_header error
[h264 @ 0580c5a0] reference picture missing during reorderB f=0/0
    Last message repeated 1 times
[h264 @ 0580c5a0] reference count overflow
[h264 @ 0580c5a0] decode_slice_header error
[h264 @ 0580c9c0] mmco: unref short failure
[h264 @ 0580c9c0] number of reference frames (1+3) exceeds max (3; probably corrupt input), discarding one
[h264 @ 0580c9c0] reference picture missing during reorder
[h264 @ 0580c9c0] illegal modification_of_pic_nums_idc 4
[h264 @ 0580c9c0] decode_slice_header error
[h264 @ 055cf9e0] reference count overflow
[h264 @ 055cf9e0] decode_slice_header error
[h264 @ 058b0220] mmco: unref short failure
[h264 @ 058b0220] number of reference frames (1+3) exceeds max (3; probably corrupt input), discarding one
[h264 @ 058b0220] illegal modification_of_pic_nums_idc 7
[h264 @ 058b0220] decode_slice_header error
[h264 @ 055dcea0] mmco: unref short failure
[h264 @ 055dcea0] number of reference frames (1+3) exceeds max (3; probably corrupt input), discarding one
[h264 @ 055dcea0] illegal modification_of_pic_nums_idc 7 0B f=0/0
[h264 @ 055dcea0] decode_slice_header error
[h264 @ 055dbe80] illegal modification_of_pic_nums_idc 7
[h264 @ 055dbe80] decode_slice_header error
[h264 @ 05e32c60] reference picture missing during reorder
[h264 @ 05e32c60] illegal modification_of_pic_nums_idc 4
[h264 @ 05e32c60] decode_slice_header error
[h264 @ 058130e0] illegal modification_of_pic_nums_idc 4
[h264 @ 058130e0] decode_slice_header error
[h264 @ 058134e0] illegal modification_of_pic_nums_idc 31
[h264 @ 058134e0] decode_slice_header error
[h264 @ 0580c5a0] mmco: unref short failure3609KB sq=    0B f=0/0
[h264 @ 0580c5a0] number of reference frames (1+3) exceeds max (3; probably corrupt input), discarding one
[h264 @ 0580c5a0] reference picture missing during reorder
[h264 @ 0580c5a0] illegal modification_of_pic_nums_idc 4
[h264 @ 0580c5a0] decode_slice_header error
[h264 @ 0580c9c0] cabac_init_idc 4 overflow
[h264 @ 0580c9c0] decode_slice_header error
[h264 @ 055cf9e0] number of reference frames (1+3) exceeds max (3; probably corrupt input), discarding one
[h264 @ 055cf9e0] reference picture missing during reorder
    Last message repeated 1 times
[h264 @ 055cf9e0] reference count overflow
[h264 @ 055cf9e0] decode_slice_header error
[h264 @ 058b0220] mmco: unref short failure3491KB sq=    0B f=0/0
[h264 @ 058b0220] number of reference frames (1+3) exceeds max (3; probably corrupt input), discarding one
[h264 @ 058b0220] reference picture missing during reorder
    Last message repeated 1 times
[h264 @ 058b0220] reference count overflow
[h264 @ 058b0220] decode_slice_header error
[h264 @ 055dcea0] mmco: unref short failure
[h264 @ 055dcea0] number of reference frames (1+3) exceeds max (3; probably corrupt input), discarding one
[h264 @ 055dcea0] reference picture missing during reorder
    Last message repeated 1 times
[h264 @ 055dcea0] reference count overflow
[h264 @ 055dcea0] decode_slice_header error
[h264 @ 055dbe80] mmco: unref short failure3501KB sq=    0B f=0/0
[h264 @ 055dbe80] number of reference frames (1+3) exceeds max (3; probably corrupt input), discarding one
[h264 @ 055dbe80] reference picture missing during reorder
    Last message repeated 1 times
[h264 @ 055dbe80] reference count overflow
[h264 @ 055dbe80] decode_slice_header error
[h264 @ 05e32c60] mmco: unref short failure
[h264 @ 05e32c60] number of reference frames (1+3) exceeds max (3; probably corrupt input), discarding one
[h264 @ 05e32c60] reference picture missing during reorderB f=0/0
[h264 @ 05e32c60] illegal modification_of_pic_nums_idc 4
[h264 @ 05e32c60] decode_slice_header error
[h264 @ 058130e0] illegal memory management control operation 32
[h264 @ 058130e0] cabac_init_idc 6 overflow
[h264 @ 058130e0] decode_slice_header error
[h264 @ 058134e0] mmco: unref short failure
[h264 @ 058134e0] number of reference frames (1+3) exceeds max (3; probably corrupt input), discarding one
[h264 @ 058134e0] reference picture missing during reorder
    Last message repeated 3 times
[h264 @ 058134e0] reference count overflow
[h264 @ 058134e0] decode_slice_header error
[h264 @ 0580c5a0] cabac_init_idc 32 overflow539KB sq=    0B f=0/0
[h264 @ 0580c5a0] decode_slice_header error
[h264 @ 0580c9c0] reference picture missing during reorder
    Last message repeated 1 times
[h264 @ 0580c9c0] reference count overflow
[h264 @ 0580c9c0] decode_slice_header error
[h264 @ 055cf9e0] mmco: unref short failure
[h264 @ 055cf9e0] number of reference frames (1+3) exceeds max (3; probably corrupt input), discarding one
[h264 @ 055cf9e0] Missing reference picture, default is 66199
[h264 @ 055cf9e0] co located POCs unavailable
[h264 @ 055cf9e0] deblocking_filter_idc 4 out of range
[h264 @ 055cf9e0] decode_slice_header error
[h264 @ 058b0220] top block unavailable for requested intra mode -1
[h264 @ 058b0220] error while decoding MB 0 0, bytestream 125232
[h264 @ 055dcea0] number of reference frames (1+3) exceeds max (3; probably corrupt input), discarding one
[h264 @ 058b0220] concealing 3600 DC, 3600 AC, 3600 MV errors in I frame
[h264 @ 055dcea0] top block unavailable for requested intra mode -1
[h264 @ 055dbe80] illegal modification_of_pic_nums_idc 8
[h264 @ 055dbe80] decode_slice_header error
[h264 @ 055dcea0] error while decoding MB 5 0, bytestream 60140
[h264 @ 05e32c60] mmco: unref short failure
[h264 @ 05e32c60] number of reference frames (1+3) exceeds max (3; probably corrupt input), discarding one
[h264 @ 055dcea0] Cannot use next picture in error concealment
[h264 @ 05e32c60] illegal modification_of_pic_nums_idc 6
[h264 @ 05e32c60] decode_slice_header error
[h264 @ 055dcea0] concealing 3600 DC, 3600 AC, 3600 MV errors in P frame
[h264 @ 058130e0] illegal modification_of_pic_nums_idc 6 0B f=0/0
[h264 @ 058130e0] decode_slice_header error
[h264 @ 058134e0] reference picture missing during reorder
    Last message repeated 2 times
[h264 @ 058134e0] reference count overflow
[h264 @ 058134e0] decode_slice_header error
[h264 @ 0580c5a0] mmco: unref short failure
[h264 @ 0580c5a0] number of reference frames (1+3) exceeds max (3; probably corrupt input), discarding one
[h264 @ 0580c5a0] co located POCs unavailable
[h264 @ 0580c5a0] deblocking filter parameters -66 -6 out of range
[h264 @ 0580c5a0] decode_slice_header error
[h264 @ 0580c9c0] reference picture missing during reorder
[h264 @ 0580c9c0] illegal modification_of_pic_nums_idc 4
[h264 @ 0580c9c0] decode_slice_header error
[h264 @ 055cf9e0] reference picture missing during reorder
[h264 @ 055cf9e0] illegal modification_of_pic_nums_idc 4
[h264 @ 055cf9e0] decode_slice_header error
[h264 @ 058b0220] reference picture missing during reorderB f=0/0
    Last message repeated 2 times
[h264 @ 058b0220] reference count overflow
[h264 @ 058b0220] decode_slice_header error
[h264 @ 055dcea0] mmco: unref short failure
[h264 @ 055dcea0] number of reference frames (1+3) exceeds max (3; probably corrupt input), discarding one
[h264 @ 055dcea0] illegal modification_of_pic_nums_idc 5
[h264 @ 055dcea0] decode_slice_header error
[h264 @ 055dbe80] mmco: unref short failure
[h264 @ 055dbe80] number of reference frames (1+3) exceeds max (3; probably corrupt input), discarding one
[h264 @ 055dbe80] illegal modification_of_pic_nums_idc 5
[h264 @ 055dbe80] decode_slice_header error
[h264 @ 05e32c60] illegal modification_of_pic_nums_idc 5
[h264 @ 05e32c60] decode_slice_header error
[h264 @ 058130e0] co located POCs unavailable
[h264 @ 058134e0] cabac_init_idc 32 overflow
[h264 @ 058134e0] decode_slice_header error
[h264 @ 058130e0] Reference 3 >= 3
[h264 @ 058130e0] error while decoding MB 32 2, bytestream 12023
[h264 @ 0580c5a0] Missing reference picture, default is 65175
    Last message repeated 1 times
[h264 @ 058130e0] concealing 3457 DC, 3457 AC, 3457 MV errors in B frame
[h264 @ 0580c5a0] co located POCs unavailable
[h264 @ 0580c5a0] deblocking_filter_idc 4 out of range
[h264 @ 0580c5a0] decode_slice_header error
[h264 @ 0580c9c0] illegal modification_of_pic_nums_idc 7
[h264 @ 0580c9c0] decode_slice_header error
[h264 @ 055cf9e0] illegal modification_of_pic_nums_idc 7
[h264 @ 055cf9e0] decode_slice_header error
[h264 @ 058b0220] illegal modification_of_pic_nums_idc 4
[h264 @ 058b0220] decode_slice_header error
[h264 @ 055dcea0] illegal modification_of_pic_nums_idc 31
[h264 @ 055dcea0] decode_slice_header error
[h264 @ 055dbe80] mmco: unref short failure
[h264 @ 055dbe80] number of reference frames (1+3) exceeds max (3; probably corrupt input), discarding one
[h264 @ 055dbe80] co located POCs unavailable
[h264 @ 055dbe80] cabac_init_idc 18 overflow
[h264 @ 055dbe80] decode_slice_header error
[h264 @ 05e32c60] number of reference frames (1+3) exceeds max (3; probably corrupt input), discarding one
[h264 @ 05e32c60] illegal modification_of_pic_nums_idc 7
[h264 @ 05e32c60] decode_slice_header error
[h264 @ 058130e0] illegal modification_of_pic_nums_idc 7
[h264 @ 058130e0] decode_slice_header error
[h264 @ 058134e0] illegal modification_of_pic_nums_idc 4
[h264 @ 058134e0] decode_slice_header error
[h264 @ 0580c5a0] illegal modification_of_pic_nums_idc 31
[h264 @ 0580c5a0] decode_slice_header error
[h264 @ 0580c9c0] mmco: unref short failure
[h264 @ 0580c9c0] number of reference frames (1+3) exceeds max (3; probably corrupt input), discarding one
[h264 @ 0580c9c0] co located POCs unavailable
[h264 @ 0580c9c0] cabac_init_idc 18 overflow
[h264 @ 0580c9c0] decode_slice_header error
[h264 @ 055cf9e0] number of reference frames (1+3) exceeds max (3; probably corrupt input), discarding one
[h264 @ 055cf9e0] illegal modification_of_pic_nums_idc 7
[h264 @ 055cf9e0] decode_slice_header error
[h264 @ 058b0220] illegal modification_of_pic_nums_idc 7
[h264 @ 058b0220] decode_slice_header error
[h264 @ 055dcea0] illegal modification_of_pic_nums_idc 4
[h264 @ 055dcea0] decode_slice_header error
[h264 @ 055dbe80] illegal modification_of_pic_nums_idc 31
[h264 @ 055dbe80] decode_slice_header error
[h264 @ 05e32c60] mmco: unref short failure
[h264 @ 05e32c60] number of reference frames (1+3) exceeds max (3; probably corrupt input), discarding one
[h264 @ 05e32c60] reference picture missing during reorder
    Last message repeated 1 times
[h264 @ 05e32c60] reference count overflow
[h264 @ 05e32c60] decode_slice_header error
[h264 @ 058130e0] mmco: unref short failure
[h264 @ 058130e0] number of reference frames (1+3) exceeds max (3; probably corrupt input), discarding one
[h264 @ 058130e0] reference picture missing during reorder
    Last message repeated 1 times
[h264 @ 058130e0] reference count overflow
[h264 @ 058130e0] decode_slice_header error
[h264 @ 058134e0] mmco: unref short failure
[h264 @ 058134e0] number of reference frames (1+3) exceeds max (3; probably corrupt input), discarding one
[h264 @ 058134e0] reference picture missing during reorder
    Last message repeated 1 times
[h264 @ 058134e0] reference count overflow
[h264 @ 058134e0] decode_slice_header error
[h264 @ 0580c5a0] mmco: unref short failure
[h264 @ 0580c5a0] number of reference frames (1+3) exceeds max (3; probably corrupt input), discarding one
[h264 @ 0580c5a0] reference picture missing during reorder
    Last message repeated 1 times
[h264 @ 0580c5a0] reference count overflow
[h264 @ 0580c5a0] decode_slice_header error
[h264 @ 0580c9c0] mmco: unref short failure
[h264 @ 0580c9c0] number of reference frames (1+3) exceeds max (3; probably corrupt input), discarding one
[h264 @ 0580c9c0] reference picture missing during reorder
    Last message repeated 1 times
[h264 @ 0580c9c0] reference count overflow
[h264 @ 0580c9c0] decode_slice_header error
[h264 @ 055cf9e0] mmco: unref short failure
[h264 @ 055cf9e0] number of reference frames (1+3) exceeds max (3; probably corrupt input), discarding one
[h264 @ 055cf9e0] reference picture missing during reorder
    Last message repeated 1 times
[h264 @ 055cf9e0] reference count overflow
[h264 @ 055cf9e0] decode_slice_header error
[h264 @ 058b0220] mmco: unref short failure
[h264 @ 058b0220] number of reference frames (1+3) exceeds max (3; probably corrupt input), discarding one
[h264 @ 058b0220] reference count overflow
[h264 @ 058b0220] decode_slice_header error
[h264 @ 055dcea0] cabac_init_idc 32 overflow
[h264 @ 055dcea0] decode_slice_header error
[h264 @ 055dbe80] illegal memory management control operation 8
[h264 @ 055dbe80] co located POCs unavailable
[h264 @ 055dbe80] cabac_init_idc 3 overflow
[h264 @ 055dbe80] decode_slice_header error
[h264 @ 05e32c60] mmco: unref short failure
[h264 @ 05e32c60] number of reference frames (1+3) exceeds max (3; probably corrupt input), discarding one
[h264 @ 05e32c60] illegal modification_of_pic_nums_idc 8
[h264 @ 05e32c60] decode_slice_header error
[h264 @ 058130e0] reference picture missing during reorder
    Last message repeated 2 times
[h264 @ 058130e0] reference count overflow
[h264 @ 058130e0] decode_slice_header error
[h264 @ 058134e0] mmco: unref short failure
[h264 @ 058134e0] number of reference frames (1+3) exceeds max (3; probably corrupt input), discarding one
[h264 @ 058134e0] illegal memory management control operation 8
[h264 @ 058134e0] co located POCs unavailable
[h264 @ 058134e0] Reference 3 >= 3
[h264 @ 058134e0] error while decoding MB 69 0, bytestream 9138
[h264 @ 0580c5a0] mmco: unref short failure
[h264 @ 0580c5a0] number of reference frames (1+3) exceeds max (3; probably corrupt input), discarding one
[h264 @ 058134e0] concealing 3580 DC, 3580 AC, 3580 MV errors in B frame
[h264 @ 0580c5a0] reference picture missing during reorder
    Last message repeated 2 times
[h264 @ 0580c5a0] reference count overflow
[h264 @ 0580c5a0] decode_slice_header error
[h264 @ 0580c9c0] reference picture missing during reorder
    Last message repeated 2 times
[h264 @ 0580c9c0] reference count overflow
[h264 @ 0580c9c0] decode_slice_header error
[h264 @ 055cf9e0] mmco: unref short failure
[h264 @ 055cf9e0] number of reference frames (1+3) exceeds max (3; probably corrupt input), discarding one
[h264 @ 055cf9e0] reference picture missing during reorder
[h264 @ 055cf9e0] illegal modification_of_pic_nums_idc 4
[h264 @ 055cf9e0] decode_slice_header error
[h264 @ 058b0220] cabac_init_idc 4 overflow
[h264 @ 058b0220] decode_slice_header error
[h264 @ 055dcea0] number of reference frames (1+3) exceeds max (3; probably corrupt input), discarding one
[h264 @ 055dcea0] illegal memory management control operation 8
[h264 @ 055dcea0] co located POCs unavailable
[h264 @ 055dcea0] top block unavailable for requested intra mode -1
[h264 @ 055dcea0] error while decoding MB 0 0, bytestream 11197
[h264 @ 055dbe80] mmco: unref short failure
[h264 @ 055dbe80] number of reference frames (1+3) exceeds max (3; probably corrupt input), discarding one
[h264 @ 055dcea0] concealing 3600 DC, 3600 AC, 3600 MV errors in B frame
[h264 @ 055dbe80] reference count overflow
[h264 @ 055dbe80] decode_slice_header error
[h264 @ 05e32c60] reference picture missing during reorder
    Last message repeated 2 times
[h264 @ 05e32c60] reference count overflow
[h264 @ 05e32c60] decode_slice_header error
[h264 @ 058130e0] mmco: unref short failure
[h264 @ 058130e0] number of reference frames (1+3) exceeds max (3; probably corrupt input), discarding one
[h264 @ 058130e0] illegal memory management control operation 13
[h264 @ 058130e0] co located POCs unavailable
[h264 @ 058130e0] deblocking_filter_idc 4 out of range
[h264 @ 058130e0] decode_slice_header error
[h264 @ 058134e0] mmco: unref short failure
[h264 @ 058134e0] number of reference frames (1+3) exceeds max (3; probably corrupt input), discarding one
[h264 @ 058134e0] Missing reference picture, default is 64606
    Last message repeated 3 times
[h264 @ 058134e0] co located POCs unavailable
[h264 @ 058134e0] Reference 7 >= 7
[h264 @ 058134e0] error while decoding MB 1 0, bytestream 12336
[h264 @ 0580c5a0] reference picture missing during reorder
    Last message repeated 2 times
[h264 @ 0580c5a0] reference count overflow
[h264 @ 0580c5a0] decode_slice_header error
[h264 @ 058134e0] concealing 3600 DC, 3600 AC, 3600 MV errors in B frame
[h264 @ 0580c9c0] mmco: unref short failure
[h264 @ 0580c9c0] number of reference frames (1+3) exceeds max (3; probably corrupt input), discarding one
[h264 @ 0580c9c0] illegal long ref in memory management control operation 4
[h264 @ 0580c9c0] co located POCs unavailable
[h264 @ 0580c9c0] top block unavailable for requested intra mode -1
[h264 @ 0580c9c0] error while decoding MB 7 0, bytestream 15864
[h264 @ 055cf9e0] mmco: unref short failure
[h264 @ 055cf9e0] number of reference frames (1+3) exceeds max (3; probably corrupt input), discarding one
[h264 @ 0580c9c0] concealing 3600 DC, 3600 AC, 3600 MV errors in B frame
[h264 @ 055cf9e0] illegal modification_of_pic_nums_idc 10
[h264 @ 055cf9e0] decode_slice_header error
[h264 @ 058b0220] Missing reference picture, default is 64540
    Last message repeated 3 times
[h264 @ 058b0220] co located POCs unavailable
[h264 @ 058b0220] concealing 3600 DC, 3600 AC, 3600 MV errors in B frame
[h264 @ 055dcea0] illegal modification_of_pic_nums_idc 31
[h264 @ 055dcea0] decode_slice_header error
[h264 @ 055dbe80] mmco: unref short failure
[h264 @ 055dbe80] number of reference frames (1+3) exceeds max (3; probably corrupt input), discarding one
[h264 @ 055dbe80] illegal memory management control operation 13
[h264 @ 055dbe80] co located POCs unavailable
[h264 @ 055dbe80] deblocking_filter_idc 4 out of range
[h264 @ 055dbe80] decode_slice_header error
[h264 @ 05e32c60] mmco: unref short failure
[h264 @ 05e32c60] number of reference frames (1+3) exceeds max (3; probably corrupt input), discarding one
[h264 @ 05e32c60] Missing reference picture, default is 64542
    Last message repeated 3 times
[h264 @ 05e32c60] co located POCs unavailable
[h264 @ 05e32c60] concealing 3440 DC, 3440 AC, 3440 MV errors in B frame
[h264 @ 058130e0] reference picture missing during reorder
    Last message repeated 2 times

But if skip reklama block - seeking/playback is normal.

Change History (4)

comment:1 Changed 2 years ago by Aleksoid1978

Wronk link in the first message, here is right - https://yadi.sk/d/qr1TT-Zzrb8td

comment:2 Changed 2 years ago by cehoyos

  • Reproduced by developer set
  • Status changed from new to open

Not a regression afaict and I don't know if this can be fixed, note the Reinit message.

$ ffmpeg -i CSI.Cyber.S02E12.720p.HDTV.HamsterStudio.org_cut.mkv -f null -
ffmpeg version N-79889-g9486de5 Copyright (c) 2000-2016 the FFmpeg developers
  built with gcc 4.7 (SUSE Linux)
  configuration: --enable-gpl
  libavutil      55. 24.100 / 55. 24.100
  libavcodec     57. 40.100 / 57. 40.100
  libavformat    57. 36.100 / 57. 36.100
  libavdevice    57.  0.101 / 57.  0.101
  libavfilter     6. 45.100 /  6. 45.100
  libswscale      4.  1.100 /  4.  1.100
  libswresample   2.  0.101 /  2.  0.101
  libpostproc    54.  0.100 / 54.  0.100
Input #0, matroska,webm, from 'CSI.Cyber.S02E12.720p.HDTV.HamsterStudio.org_cut.mkv':
  Metadata:
    encoder         : libebml v1.2.3 + libmatroska v1.3.0
    creation_time   : 2016-05-10 12:07:46
  Duration: 00:00:30.32, start: 0.000000, bitrate: 6044 kb/s
    Stream #0:0: Video: h264 (Main), yuv420p(tv), 1280x720 [SAR 1:1 DAR 16:9], 23.98 fps, 23.98 tbr, 1k tbn (default)
[null @ 0x3023040] Using AVStream.codec to pass codec parameters to muxers is deprecated, use AVStream.codecpar instead.
Output #0, null, to 'pipe:':
  Metadata:
    encoder         : Lavf57.36.100
    Stream #0:0: Video: wrapped_avframe, yuv420p, 1280x720 [SAR 1:1 DAR 16:9], q=2-31, 200 kb/s, 23.98 fps, 23.98 tbn (default)
    Metadata:
      encoder         : Lavc57.40.100 wrapped_avframe
Stream mapping:
  Stream #0:0 -> #0:0 (h264 (native) -> wrapped_avframe (native))
Press [q] to stop, [?] for help
[h264 @ 0x31e1320] Reinit context to 1280x720, pix_fmt: yuv420p
frame=  727 fps=0.0 q=-0.0 Lsize=N/A time=00:00:30.32 bitrate=N/A speed=35.1x
video:346kB audio:0kB subtitle:0kB other streams:0kB global headers:0kB muxing overhead: unknown

comment:3 Changed 2 years ago by cehoyos

  • Keywords seek added

comment:4 Changed 2 years ago by Aleksoid1978

Work fine with Microsoft DTV-DVD Video Decoder/PotPlayer?.

Note: See TracTickets for help on using tickets.