Opened 3 years ago

Last modified 2 years ago

#5147 open defect

mov: wrong output after remuxing

Reported by: ami_stuff Owned by:
Priority: normal Component: undetermined
Version: git-master Keywords: avid
Cc: Blocked By:
Blocking: Reproduced by developer: yes
Analyzed by developer: no

Description

AV1x and AVup remuxes into 2vuy

http://www.datafilehost.com/d/34caee1b

C:\>ffmpeg -i avid11x.mov -vcodec copy -t 1 out.mov
ffmpeg version N-77380-g2dba040 Copyright (c) 2000-2015 the FFmpeg developers
  built with gcc 5.2.0 (GCC)
  configuration: --enable-gpl --enable-version3 --disable-w32threads --enable-av
isynth --enable-bzlib --enable-fontconfig --enable-frei0r --enable-gnutls --enab
le-iconv --enable-libass --enable-libbluray --enable-libbs2b --enable-libcaca --
enable-libdcadec --enable-libfreetype --enable-libgme --enable-libgsm --enable-l
ibilbc --enable-libmodplug --enable-libmp3lame --enable-libopencore-amrnb --enab
le-libopencore-amrwb --enable-libopenjpeg --enable-libopus --enable-librtmp --en
able-libschroedinger --enable-libsoxr --enable-libspeex --enable-libtheora --ena
ble-libtwolame --enable-libvidstab --enable-libvo-aacenc --enable-libvo-amrwbenc
 --enable-libvorbis --enable-libvpx --enable-libwavpack --enable-libwebp --enabl
e-libx264 --enable-libx265 --enable-libxavs --enable-libxvid --enable-libzimg --
enable-lzma --enable-decklink --enable-zlib
  libavutil      55. 11.100 / 55. 11.100
  libavcodec     57. 18.100 / 57. 18.100
  libavformat    57. 20.100 / 57. 20.100
  libavdevice    57.  0.100 / 57.  0.100
  libavfilter     6. 21.100 /  6. 21.100
  libswscale      4.  0.100 /  4.  0.100
  libswresample   2.  0.101 /  2.  0.101
  libpostproc    54.  0.100 / 54.  0.100
Input #0, mov,mp4,m4a,3gp,3g2,mj2, from 'avid11x.mov':
  Metadata:
    major_brand     : qt
    minor_version   : 537199360
    compatible_brands: qt
    creation_time   : 2012-04-19 21:58:49
  Duration: 00:00:12.64, start: 0.000000, bitrate: 164956 kb/s
    Stream #0:0(eng): Video: rawvideo (AV1x / 0x78315641), uyvy422(tv), 720x576,
 164954 kb/s, SAR 16:15 DAR 4:3, 23.97 fps, 23.97 tbr, 1000k tbn, 1000k tbc (def
ault)
    Metadata:
      creation_time   : 2012-04-19 21:58:49
      handler_name    : Procedura obs│ugi skrˇtˇw danych Apple
      encoder         : Avid 1:1x
[mov @ 038015a0] Codec for stream 0 does not use global headers but container fo
rmat requires global headers
[mov @ 038015a0] WARNING codec timebase is very high. If duration is too long,
file may not be playable by quicktime. Specify a shorter timebase
or choose different container.
Output #0, mov, to 'out.mov':
  Metadata:
    major_brand     : qt
    minor_version   : 537199360
    compatible_brands: qt
    encoder         : Lavf57.20.100
    Stream #0:0(eng): Video: rawvideo (AV1x / 0x78315641), uyvy422, 720x576 [SAR
 16:15 DAR 4:3], q=2-31, 164954 kb/s, 23.97 fps, 23.97 tbr, 1000k tbn, 1000k tbc
 (default)
    Metadata:
      creation_time   : 2012-04-19 21:58:49
      handler_name    : Procedura obs│ugi skrˇtˇw danych Apple
      encoder         : Avid 1:1x
Stream mapping:
  Stream #0:0 -> #0:0 (copy)
Press [q] to stop, [?] for help
frame=   24 fps=0.0 q=-1.0 Lsize=   20161kB time=00:00:00.95 bitrate=172126.7kbi
ts/s speed=20.5x
video:20160kB audio:0kB subtitle:0kB other streams:0kB global headers:0kB muxing
 overhead: 0.004476%
C:\>ffmpeg -i out.mov
ffmpeg version N-77380-g2dba040 Copyright (c) 2000-2015 the FFmpeg developers
  built with gcc 5.2.0 (GCC)
  configuration: --enable-gpl --enable-version3 --disable-w32threads --enable-av
isynth --enable-bzlib --enable-fontconfig --enable-frei0r --enable-gnutls --enab
le-iconv --enable-libass --enable-libbluray --enable-libbs2b --enable-libcaca --
enable-libdcadec --enable-libfreetype --enable-libgme --enable-libgsm --enable-l
ibilbc --enable-libmodplug --enable-libmp3lame --enable-libopencore-amrnb --enab
le-libopencore-amrwb --enable-libopenjpeg --enable-libopus --enable-librtmp --en
able-libschroedinger --enable-libsoxr --enable-libspeex --enable-libtheora --ena
ble-libtwolame --enable-libvidstab --enable-libvo-aacenc --enable-libvo-amrwbenc
 --enable-libvorbis --enable-libvpx --enable-libwavpack --enable-libwebp --enabl
e-libx264 --enable-libx265 --enable-libxavs --enable-libxvid --enable-libzimg --
enable-lzma --enable-decklink --enable-zlib
  libavutil      55. 11.100 / 55. 11.100
  libavcodec     57. 18.100 / 57. 18.100
  libavformat    57. 20.100 / 57. 20.100
  libavdevice    57.  0.100 / 57.  0.100
  libavfilter     6. 21.100 /  6. 21.100
  libswscale      4.  0.100 /  4.  0.100
  libswresample   2.  0.101 /  2.  0.101
  libpostproc    54.  0.100 / 54.  0.100
Input #0, mov,mp4,m4a,3gp,3g2,mj2, from 'out.mov':
  Metadata:
    major_brand     : qt
    minor_version   : 512
    compatible_brands: qt
    encoder         : Lavf57.20.100
  Duration: 00:00:01.00, start: 0.000000, bitrate: 164828 kb/s
    Stream #0:0(eng): Video: rawvideo (2vuy / 0x79757632), uyvy422, 720x576, 164
947 kb/s, SAR 16:15 DAR 4:3, 23.97 fps, 23.97 tbr, 1000k tbn, 1000k tbc (default
)
    Metadata:
      handler_name    : DataHandler
      encoder         : Avid 1:1x
At least one output file must be specified

Attachments (2)

avid11x.MOV (841.0 KB) - added by ami_stuff 2 years ago.
avidpacked.MOV (1.0 MB) - added by ami_stuff 2 years ago.

Download all attachments as: .zip

Change History (5)

comment:1 Changed 2 years ago by cehoyos

  • Keywords avid added

Please provide the samples again.

Changed 2 years ago by ami_stuff

Changed 2 years ago by ami_stuff

comment:2 Changed 2 years ago by ami_stuff

attached

comment:3 Changed 2 years ago by cehoyos

  • Reproduced by developer set
  • Status changed from new to open
  • Version changed from unspecified to git-master
Note: See TracTickets for help on using tickets.