Opened 4 years ago

Closed 4 years ago

#1126 closed defect (fixed)

qt raw: fail to decode (regression)

Reported by: ami_stuff Owned by:
Priority: important Component: avcodec
Version: git-master Keywords: regression
Cc: Blocked By:
Blocking: Reproduced by developer: yes
Analyzed by developer: no

Description

http://www.datafilehost.com/download-7f1c7c8d.html

C:\>ffmpeg -i none_16colors.mov out.bmp
ffmpeg version N-38622-g1eabd71 Copyright (c) 2000-2012 the FFmpeg developers
  built on Mar  7 2012 00:18:03 with gcc 4.6.2
  configuration: --enable-gpl --enable-version3 --disable-w32threads --enable-ru
ntime-cpudetect --enable-avisynth --enable-bzlib --enable-frei0r --enable-libope
ncore-amrnb --enable-libopencore-amrwb --enable-libfreetype --enable-libgsm --en
able-libmp3lame --enable-libopenjpeg --enable-librtmp --enable-libschroedinger -
-enable-libspeex --enable-libtheora --enable-libvo-aacenc --enable-libvo-amrwben
c --enable-libvorbis --enable-libvpx --enable-libx264 --enable-libxavs --enable-
libxvid --enable-zlib
  libavutil      51. 42.100 / 51. 42.100
  libavcodec     54. 10.100 / 54. 10.100
  libavformat    54.  2.100 / 54.  2.100
  libavdevice    53.  4.100 / 53.  4.100
  libavfilter     2. 63.100 /  2. 63.100
  libswscale      2.  1.100 /  2.  1.100
  libswresample   0.  7.100 /  0.  7.100
  libpostproc    52.  0.100 / 52.  0.100
Input #0, mov,mp4,m4a,3gp,3g2,mj2, from 'none_16colors.mov':
  Metadata:
    major_brand     : qt
    minor_version   : 537199360
    compatible_brands: qt
    creation_time   : 2012-03-24 22:49:13
  Duration: 00:00:00.06, start: 0.000000, bitrate: 959854 kb/s
    Stream #0:0(eng): Video: rawvideo (raw  / 0x20776172), pal8, 3999x3999, 9597
60 kb/s, 15 fps, 15 tbr, 600 tbn, 600 tbc
    Metadata:
      creation_time   : 2012-03-24 22:49:13
      handler_name    : &Procedura obs│ugi skrˇtˇw danych Apple
[buffer @ 02162200] w:3999 h:3999 pixfmt:pal8 tb:1/1000000 sar:0/1 sws_param:
Output #0, image2, to 'out.bmp':
  Metadata:
    major_brand     : qt
    minor_version   : 537199360
    compatible_brands: qt
    creation_time   : 2012-03-24 22:49:13
    encoder         : Lavf54.2.100
    Stream #0:0(eng): Video: bmp, pal8, 3999x3999, q=2-31, 200 kb/s, 90k tbn, 15
 tbc
    Metadata:
      creation_time   : 2012-03-24 22:49:13
      handler_name    : &Procedura obs│ugi skrˇtˇw danych Apple
Stream mapping:
  Stream #0:0 -> #0:0 (rawvideo -> bmp)
Press [q] to stop, [?] for help
frame=    1 fps=  0 q=0.0 Lsize=       0kB time=00:00:00.06 bitrate=   0.0kbits/
s
video:15622kB audio:0kB global headers:0kB muxing overhead -100.000000%
C:\>ffmpeg -i none_16colors.mov out.bmp
ffmpeg version N-38797-g9e2ee46 Copyright (c) 2000-2012 the FFmpeg developers
  built on Mar 15 2012 02:21:48 with gcc 4.5.0 20100414 (Fedora MinGW 4.5.0-1.fc
14)
  configuration: --prefix=/var/www/users/research/ffmpeg/snapshots/build --arch=
x86 --target-os=mingw32 --cross-prefix=i686-pc-mingw32- --cc='ccache i686-pc-min
gw32-gcc' --enable-w32threads --enable-memalign-hack --enable-runtime-cpudetect
--enable-cross-compile --enable-static --disable-shared --extra-libs='-lws2_32 -
lwinmm' --extra-cflags='--static -I/var/www/users/research/ffmpeg/snapshots/buil
d/include' --extra-ldflags='-static -L/var/www/users/research/ffmpeg/snapshots/b
uild/lib' --enable-bzlib --enable-zlib --enable-gpl --enable-version3 --enable-n
onfree --enable-libx264 --enable-libspeex --enable-libtheora --enable-libvorbis
--enable-libfaac --enable-libxvid --enable-libopencore-amrnb --enable-libopencor
e-amrwb --enable-libmp3lame --enable-libvpx --disable-decoder=libvpx
  libavutil      51. 42.100 / 51. 42.100
  libavcodec     54. 10.100 / 54. 10.100
  libavformat    54.  2.100 / 54.  2.100
  libavdevice    53.  4.100 / 53.  4.100
  libavfilter     2. 64.101 /  2. 64.101
  libswscale      2.  1.100 /  2.  1.100
  libswresample   0.  7.100 /  0.  7.100
  libpostproc    52.  0.100 / 52.  0.100
Input #0, mov,mp4,m4a,3gp,3g2,mj2, from 'none_16colors.mov':
  Metadata:
    major_brand     : qt
    minor_version   : 537199360
    compatible_brands: qt
    creation_time   : 2012-03-24 22:49:13
  Duration: 00:00:00.06, start: 0.000000, bitrate: 959854 kb/s
    Stream #0:0(eng): Video: rawvideo (raw  / 0x20776172), pal8, 3999x3999, 9597
60 kb/s, 15 fps, 15 tbr, 600 tbn, 600 tbc
    Metadata:
      creation_time   : 2012-03-24 22:49:13
      handler_name    : &Procedura obs│ugi skrˇtˇw danych Apple
[buffer @ 0x1d92120] w:3999 h:3999 pixfmt:pal8 tb:1/1000000 sar:0/1 sws_param:
Output #0, image2, to 'out.bmp':
  Metadata:
    major_brand     : qt
    minor_version   : 537199360
    compatible_brands: qt
    creation_time   : 2012-03-24 22:49:13
    encoder         : Lavf54.2.100
    Stream #0:0(eng): Video: bmp, pal8, 3999x3999, q=2-31, 200 kb/s, 90k tbn, 15
 tbc
    Metadata:
      creation_time   : 2012-03-24 22:49:13
      handler_name    : &Procedura obs│ugi skrˇtˇw danych Apple
Stream mapping:
  Stream #0:0 -> #0:0 (rawvideo -> bmp)
Press [q] to stop, [?] for help
Error while decoding stream #0:0
frame=    0 fps=0.0 q=0.0 Lsize=       0kB time=00:00:00.00 bitrate=   0.0kbits/
s
video:0kB audio:0kB global headers:0kB muxing overhead nan%
Output file is empty, nothing was encoded (check -ss / -t / -frames parameters i
f used)

Attachments (1)

4bpp.mov (1.7 MB) - added by ami_stuff 4 years ago.

Download all attachments as: .zip

Change History (4)

comment:1 Changed 4 years ago by ami_stuff

Also reproducible with even width.

Changed 4 years ago by ami_stuff

comment:2 Changed 4 years ago by cehoyos

  • Keywords regression added
  • Priority changed from normal to important
  • Reproduced by developer set
  • Status changed from new to open
  • Version changed from unspecified to git-master

Regression since cc5dd6.

comment:3 Changed 4 years ago by cehoyos

  • Component changed from undetermined to avcodec
  • Resolution set to fixed
  • Status changed from open to closed

Fixed by Michael.

Note: See TracTickets for help on using tickets.