Opened 7 months ago

Closed 7 months ago

Last modified 7 months ago

#6988 closed defect (invalid)

I would like to know what setting to use in ffmpeg to have this result.

Reported by: afbargon Owned by:
Priority: normal Component: undetermined
Version: unspecified Keywords:
Cc: Blocked By:
Blocking: Reproduced by developer: no
Analyzed by developer: no

Description

Format : MPEG-4
Format profile : Base Media
Codec ID : isom (isom/iso2/avc1/mp41)
File size : 202 MiB
Duration : 22 min 9 s
Overall bit rate : 1 278 kb/s
Writing application : Lavf57.2.100

Video
ID : 1
Format : AVC
Format/Info? : Advanced Video Codec
Format profile : High@L4
Format settings : CABAC / 3 Ref Frames
Format settings, CABAC : Yes
Format settings, ReFrames? : 3 frames
Codec ID : avc1
Codec ID/Info : Advanced Video Coding
Duration : 22 min 8 s
Bit rate : 1 146 kb/s
Width : 1 920 pixels
Height : 1 080 pixels
Display aspect ratio : 16:9
Frame rate mode : Variable
Frame rate : 23.976 (24000/1001) FPS
Minimum frame rate : 23.974 FPS
Maximum frame rate : 23.981 FPS
Color space : YUV
Chroma subsampling : 4:2:0
Bit depth : 8 bits
Scan type : Progressive
Bits/(Pixel*Frame) : 0.023
Stream size : 182 MiB (90%)
Color range : Limited
Color primaries : BT.709
Transfer characteristics : BT.709
Matrix coefficients : BT.709

Audio
ID : 2
Format : AAC
Format/Info? : Advanced Audio Codec
Format profile : LC
Codec ID : mp4a-40-2
Duration : 22 min 9 s
Bit rate mode : Constant
Bit rate : 126 kb/s
Channel(s) : 2 channels
Channel positions : Front: L R
Sampling rate : 44.1 kHz
Frame rate : 43.066 FPS (1024 SPF)
Compression mode : Lossy
Stream size : 19.9 MiB (10%)
Language : Portuguese
Default : Yes
Alternate group : 1

Change History (3)

comment:1 follow-up: Changed 7 months ago by llogan

  • Component changed from ffmpeg to undetermined
  • Priority changed from important to normal
  • Resolution set to invalid
  • Status changed from new to closed
  • Type changed from art to defect

This is only for reporting bugs, not for help requests. Official help resources include the #ffmpeg IRC channel and the ffmpeg-user mailing list.

comment:2 in reply to: ↑ 1 Changed 7 months ago by afbargon

where can i ask for help, i'm new and i do not speak english, i use google translate

comment:3 Changed 7 months ago by llogan

  1. Send email to "ffmpeg-user AT ffmpeg.org". Wait up to 24 hours for your email to be approved.
  1. Check for replies in the archives: https://lists.ffmpeg.org/pipermail/ffmpeg-user/
  1. In the archives you can reply to messages by clicking the author's email link. It is the first link in each message.

If you subscribe to the mailing list then you will not have to wait for your messages to be approved, and you will receive all messages to the mailing list. You can subscribe here: https://ffmpeg.org/mailman/listinfo/ffmpeg-user

If the mailing list is too complicated you may prefer to use Super User instead, but Super User is not an official FFmpeg help resource.

Note: See TracTickets for help on using tickets.