Opened 3 weeks ago

#6784 new enhancement

Encoder for pcm_dvd is missing

Reported by: cehoyos Owned by:
Priority: wish Component: avcodec
Version: git-master Keywords: pcm_dvd
Cc: Blocked By:
Blocking: Reproduced by developer: no
Analyzed by developer: no

Description

$ ffmpeg -i fate-suite/pcm-dvd/coolitnow-partial.vob -acodec pcm_dvd out.vob
ffmpeg version N-88204-g7f9de7b Copyright (c) 2000-2017 the FFmpeg developers
  built with gcc 6.3.0 (GCC)
  configuration: --enable-gpl --cc=/usr/local/gcc-6.3.0/bin/gcc
  libavutil      56.  0.100 / 56.  0.100
  libavcodec     58.  0.101 / 58.  0.101
  libavformat    58.  0.101 / 58.  0.101
  libavdevice    58.  0.100 / 58.  0.100
  libavfilter     7.  0.100 /  7.  0.100
  libswscale      5.  0.100 /  5.  0.100
  libswresample   3.  0.100 /  3.  0.100
  libpostproc    55.  0.100 / 55.  0.100
[mpeg2video @ 0x3567c60] Invalid frame dimensions 0x0.
    Last message repeated 8 times
Guessed Channel Layout for Input Stream #0.1 : stereo
Input #0, mpeg, from 'fate-suite/pcm-dvd/coolitnow-partial.vob':
  Duration: 00:00:00.94, start: 138.868633, bitrate: 8945 kb/s
    Stream #0:0[0x1e0]: Video: mpeg2video (Main), yuv420p(tv, smpte170m, top first), 720x480 [SAR 8:9 DAR 4:3], 29.97 fps, 29.97 tbr, 90k tbn, 59.94 tbc
    Stream #0:1[0xa0]: Audio: pcm_dvd, 48000 Hz, stereo, s32 (24 bit), 2304 kb/s
    Stream #0:2[0x1bf]: Data: dvd_nav_packet
Unknown encoder 'pcm_dvd'

Change History (0)

Note: See TracTickets for help on using tickets.