Opened 3 years ago

Closed 3 weeks ago

#4447 closed enhancement (fixed)

Support MPEG-4 Studio Profile

Reported by: cehoyos Owned by:
Priority: wish Component: avcodec
Version: git-master Keywords: sstp
Cc: kierank Blocked By:
Blocking: Reproduced by developer: no
Analyzed by developer: no

Description

http://ffmpeg.org/pipermail/libav-user/2015-February/007875.html
A user provided three MPEG-4 Simple Studio Profile files that are not supported by FFmpeg.

23.98p SR Lite (4:2:2 @ 220 Mbps)

$ ffmpeg -i A003C002_SR_Lite_23.98p.mxf
ffmpeg version N-71321-g6fd300a Copyright (c) 2000-2015 the FFmpeg developers
  built with gcc 4.7 (SUSE Linux)
  configuration: --enable-gpl
  libavutil      54. 22.100 / 54. 22.100
  libavcodec     56. 34.100 / 56. 34.100
  libavformat    56. 30.100 / 56. 30.100
  libavdevice    56.  4.100 / 56.  4.100
  libavfilter     5. 13.101 /  5. 13.101
  libswscale      3.  1.101 /  3.  1.101
  libswresample   1.  1.100 /  1.  1.100
  libpostproc    53.  3.100 / 53.  3.100
[mpeg4 @ 0x24b77e0] only rectangular vol supported
[mpeg4 @ 0x24b77e0] Invalid Complexity estimation method 2
Marker bit missing before time_increment
[mpeg4 @ 0x24b77e0] hmm, seems the headers are not complete, trying to guess time_increment_bits
[mpeg4 @ 0x24b77e0] my guess is 16 bits ;)
Marker bit missing before vop_coded
[mpeg4 @ 0x24b77e0] only rectangular vol supported
[mpeg4 @ 0x24b77e0] Invalid Complexity estimation method 2
[mpeg4 @ 0x24b77e0] only rectangular vol supported
[mpeg4 @ 0x24b77e0] Invalid Complexity estimation method 2
Marker bit missing before time_increment
[mpeg4 @ 0x24b77e0] hmm, seems the headers are not complete, trying to guess time_increment_bits
[mpeg4 @ 0x24b77e0] my guess is 16 bits ;)
Marker bit missing before vop_coded
[mpeg4 @ 0x24b77e0] only rectangular vol supported
[mpeg4 @ 0x24b77e0] Invalid Complexity estimation method 2
[mpeg4 @ 0x24b77e0] header damaged
[mpeg4 @ 0x24b77e0] only rectangular vol supported
[mpeg4 @ 0x24b77e0] Invalid Complexity estimation method 2
Marker bit missing before time_increment
[mpeg4 @ 0x24b77e0] hmm, seems the headers are not complete, trying to guess time_increment_bits
[mpeg4 @ 0x24b77e0] my guess is 16 bits ;)
Marker bit missing before vop_coded
[mpeg4 @ 0x24b77e0] only rectangular vol supported
[mpeg4 @ 0x24b77e0] Invalid Complexity estimation method 2
[mpeg4 @ 0x24b77e0] only rectangular vol supported
[mpeg4 @ 0x24b77e0] Invalid Complexity estimation method 2
Marker bit missing before time_increment
[mpeg4 @ 0x24b77e0] hmm, seems the headers are not complete, trying to guess time_increment_bits
[mpeg4 @ 0x24b77e0] my guess is 16 bits ;)
Marker bit missing before vop_coded
[mpeg4 @ 0x24b77e0] only rectangular vol supported
[mpeg4 @ 0x24b77e0] Invalid Complexity estimation method 2
[mpeg4 @ 0x24b77e0] header damaged
[mpeg4 @ 0x24b77e0] only rectangular vol supported
[mpeg4 @ 0x24b77e0] Invalid Complexity estimation method 2
Marker bit missing before time_increment
[mpeg4 @ 0x24b77e0] hmm, seems the headers are not complete, trying to guess time_increment_bits
[mpeg4 @ 0x24b77e0] my guess is 16 bits ;)
Marker bit missing before vop_coded
[mpeg4 @ 0x24b77e0] only rectangular vol supported
[mpeg4 @ 0x24b77e0] Invalid Complexity estimation method 2
[mpeg4 @ 0x24b77e0] only rectangular vol supported
[mpeg4 @ 0x24b77e0] Invalid Complexity estimation method 2
Marker bit missing before time_increment
[mpeg4 @ 0x24b77e0] hmm, seems the headers are not complete, trying to guess time_increment_bits
[mpeg4 @ 0x24b77e0] my guess is 16 bits ;)
Marker bit missing before vop_coded
[mpeg4 @ 0x24b77e0] only rectangular vol supported
[mpeg4 @ 0x24b77e0] Invalid Complexity estimation method 2
[mpeg4 @ 0x24b77e0] header damaged
[mpeg4 @ 0x24b77e0] only rectangular vol supported
[mpeg4 @ 0x24b77e0] Invalid Complexity estimation method 2
Marker bit missing before time_increment
[mpeg4 @ 0x24b77e0] hmm, seems the headers are not complete, trying to guess time_increment_bits
[mpeg4 @ 0x24b77e0] my guess is 16 bits ;)
Marker bit missing before vop_coded
[mpeg4 @ 0x24b77e0] only rectangular vol supported
[mpeg4 @ 0x24b77e0] Invalid Complexity estimation method 2
[mpeg4 @ 0x24b77e0] only rectangular vol supported
[mpeg4 @ 0x24b77e0] Invalid Complexity estimation method 2
Marker bit missing before time_increment
[mpeg4 @ 0x24b77e0] hmm, seems the headers are not complete, trying to guess time_increment_bits
[mpeg4 @ 0x24b77e0] my guess is 16 bits ;)
Marker bit missing before vop_coded
[mpeg4 @ 0x24b77e0] only rectangular vol supported
[mpeg4 @ 0x24b77e0] Invalid Complexity estimation method 2
[mpeg4 @ 0x24b77e0] header damaged
[mpeg4 @ 0x24b77e0] only rectangular vol supported
[mpeg4 @ 0x24b77e0] Invalid Complexity estimation method 2
Marker bit missing before time_increment
[mpeg4 @ 0x24b77e0] hmm, seems the headers are not complete, trying to guess time_increment_bits
[mpeg4 @ 0x24b77e0] my guess is 16 bits ;)
Marker bit missing before vop_coded
[mpeg4 @ 0x24b77e0] only rectangular vol supported
[mpeg4 @ 0x24b77e0] Invalid Complexity estimation method 2
[mpeg4 @ 0x24b77e0] only rectangular vol supported
[mpeg4 @ 0x24b77e0] Invalid Complexity estimation method 2
Marker bit missing before time_increment
[mpeg4 @ 0x24b77e0] hmm, seems the headers are not complete, trying to guess time_increment_bits
[mpeg4 @ 0x24b77e0] my guess is 16 bits ;)
Marker bit missing before vop_coded
[mpeg4 @ 0x24b77e0] only rectangular vol supported
[mpeg4 @ 0x24b77e0] Invalid Complexity estimation method 2
[mpeg4 @ 0x24b77e0] header damaged
[mpeg4 @ 0x24b77e0] only rectangular vol supported
[mpeg4 @ 0x24b77e0] Invalid Complexity estimation method 2
Marker bit missing before time_increment
[mpeg4 @ 0x24b77e0] hmm, seems the headers are not complete, trying to guess time_increment_bits
[mpeg4 @ 0x24b77e0] my guess is 16 bits ;)
Marker bit missing before vop_coded
[mpeg4 @ 0x24b77e0] only rectangular vol supported
[mpeg4 @ 0x24b77e0] Invalid Complexity estimation method 2
[mpeg4 @ 0x24b77e0] only rectangular vol supported
[mpeg4 @ 0x24b77e0] Invalid Complexity estimation method 2
Marker bit missing before time_increment
[mpeg4 @ 0x24b77e0] hmm, seems the headers are not complete, trying to guess time_increment_bits
[mpeg4 @ 0x24b77e0] my guess is 16 bits ;)
Marker bit missing before vop_coded
[mpeg4 @ 0x24b77e0] only rectangular vol supported
[mpeg4 @ 0x24b77e0] Invalid Complexity estimation method 2
[mpeg4 @ 0x24b77e0] header damaged
[mxf @ 0x24a53a0] decoding for stream 0 failed
[mxf @ 0x24a53a0] Could not find codec parameters for stream 0 (Video: mpeg4 (Simple Studio Profile), none, 1920x1088): unspecified pixel format
Consider increasing the value for the 'analyzeduration' and 'probesize' options
Guessed Channel Layout for  Input Stream #0.1 : mono
Guessed Channel Layout for  Input Stream #0.2 : mono
Guessed Channel Layout for  Input Stream #0.3 : mono
Guessed Channel Layout for  Input Stream #0.4 : mono
Guessed Channel Layout for  Input Stream #0.5 : mono
Guessed Channel Layout for  Input Stream #0.6 : mono
Guessed Channel Layout for  Input Stream #0.7 : mono
Guessed Channel Layout for  Input Stream #0.8 : mono
Input #0, mxf, from 'A003C002_SR_Lite_23.98p.mxf':
  Metadata:
    product_uid     : cede1104-8280-11de-8a39-08004678031c
    uid             : 85d675bf-65d1-4ba2-826f-58ce7ec69f96
    generation_uid  : 67cf5495-0583-43e4-9af1-ccc6a968f407
    company_name    : Sony
    product_name    : Mem
    product_version : 1.0
    application_platform: Sony MXF Development Kit (MacOS X)
    modification_date: 2013-10-26 19:05:30
    material_package_umid: 0x060A2B340101010501010D43130000002314A5CB916505CE08004602026A87CD
    timecode        : 00:04:47:12
  Duration: 00:00:11.68, start: 0.000000, bitrate: 191718 kb/s
    Stream #0:0: Video: mpeg4 (Simple Studio Profile), none, 1920x1088, SAR 136:135 DAR 16:9, 23.98 fps, 23.98 tbr, 23.98 tbn, 54599 tbc
    Metadata:
      file_package_umid: 0x060A2B340101010501010D43130000002414A5CB916505CE08004602026A87CD
      file_package_name:        /
    Stream #0:1: Audio: pcm_s24le, 48000 Hz, 1 channels, s32 (24 bit), 1152 kb/s
    Metadata:
      file_package_umid: 0x060A2B340101010501010D43130000002414A5CB916505CE08004602026A87CD
      file_package_name:        /
    Stream #0:2: Audio: pcm_s24le, 48000 Hz, 1 channels, s32 (24 bit), 1152 kb/s
    Metadata:
      file_package_umid: 0x060A2B340101010501010D43130000002414A5CB916505CE08004602026A87CD
      file_package_name:        /
    Stream #0:3: Audio: pcm_s24le, 48000 Hz, 1 channels, s32 (24 bit), 1152 kb/s
    Metadata:
      file_package_umid: 0x060A2B340101010501010D43130000002414A5CB916505CE08004602026A87CD
      file_package_name:        /
    Stream #0:4: Audio: pcm_s24le, 48000 Hz, 1 channels, s32 (24 bit), 1152 kb/s
    Metadata:
      file_package_umid: 0x060A2B340101010501010D43130000002414A5CB916505CE08004602026A87CD
      file_package_name:        /
    Stream #0:5: Audio: pcm_s24le, 48000 Hz, 1 channels, s32 (24 bit), 1152 kb/s
    Metadata:
      file_package_umid: 0x060A2B340101010501010D43130000002414A5CB916505CE08004602026A87CD
      file_package_name:        /
    Stream #0:6: Audio: pcm_s24le, 48000 Hz, 1 channels, s32 (24 bit), 1152 kb/s
    Metadata:
      file_package_umid: 0x060A2B340101010501010D43130000002414A5CB916505CE08004602026A87CD
      file_package_name:        /
    Stream #0:7: Audio: pcm_s24le, 48000 Hz, 1 channels, s32 (24 bit), 1152 kb/s
    Metadata:
      file_package_umid: 0x060A2B340101010501010D43130000002414A5CB916505CE08004602026A87CD
      file_package_name:        /
    Stream #0:8: Audio: pcm_s24le, 48000 Hz, 1 channels, s32 (24 bit), 1152 kb/s
    Metadata:
      file_package_umid: 0x060A2B340101010501010D43130000002414A5CB916505CE08004602026A87CD
      file_package_name:        /
    Stream #0:9: Data: none
    Metadata:
      file_package_umid: 0x060A2B340101010501010D43130000002414A5CB916505CE08004602026A87CD
      file_package_name:        /
      data_type       : vbi_vanc_smpte_436M
At least one output file must be specified

23.98p SR 422 (4:2:2 @ 440 Mbps)

$ ffmpeg -i A003C003_SR_422_23.98p.mxf
ffmpeg version N-71321-g6fd300a Copyright (c) 2000-2015 the FFmpeg developers
  built with gcc 4.7 (SUSE Linux)
  configuration: --enable-gpl
  libavutil      54. 22.100 / 54. 22.100
  libavcodec     56. 34.100 / 56. 34.100
  libavformat    56. 30.100 / 56. 30.100
  libavdevice    56.  4.100 / 56.  4.100
  libavfilter     5. 13.101 /  5. 13.101
  libswscale      3.  1.101 /  3.  1.101
  libswresample   1.  1.100 /  1.  1.100
  libpostproc    53.  3.100 / 53.  3.100
[mpeg4 @ 0x246e7e0] only rectangular vol supported
[mpeg4 @ 0x246e7e0] Invalid Complexity estimation method 2
Marker bit missing before time_increment
[mpeg4 @ 0x246e7e0] hmm, seems the headers are not complete, trying to guess time_increment_bits
[mpeg4 @ 0x246e7e0] my guess is 16 bits ;)
Marker bit missing before vop_coded
[mpeg4 @ 0x246e7e0] only rectangular vol supported
[mpeg4 @ 0x246e7e0] Invalid Complexity estimation method 2
[mpeg4 @ 0x246e7e0] only rectangular vol supported
[mpeg4 @ 0x246e7e0] Invalid Complexity estimation method 2
Marker bit missing before time_increment
[mpeg4 @ 0x246e7e0] hmm, seems the headers are not complete, trying to guess time_increment_bits
[mpeg4 @ 0x246e7e0] my guess is 16 bits ;)
Marker bit missing before vop_coded
[mpeg4 @ 0x246e7e0] only rectangular vol supported
[mpeg4 @ 0x246e7e0] Invalid Complexity estimation method 2
[mpeg4 @ 0x246e7e0] header damaged
[mpeg4 @ 0x246e7e0] only rectangular vol supported
[mpeg4 @ 0x246e7e0] Invalid Complexity estimation method 2
Marker bit missing before time_increment
[mpeg4 @ 0x246e7e0] hmm, seems the headers are not complete, trying to guess time_increment_bits
[mpeg4 @ 0x246e7e0] my guess is 16 bits ;)
Marker bit missing before vop_coded
[mpeg4 @ 0x246e7e0] only rectangular vol supported
[mpeg4 @ 0x246e7e0] Invalid Complexity estimation method 2
[mpeg4 @ 0x246e7e0] only rectangular vol supported
[mpeg4 @ 0x246e7e0] Invalid Complexity estimation method 2
Marker bit missing before time_increment
[mpeg4 @ 0x246e7e0] hmm, seems the headers are not complete, trying to guess time_increment_bits
[mpeg4 @ 0x246e7e0] my guess is 16 bits ;)
Marker bit missing before vop_coded
[mpeg4 @ 0x246e7e0] only rectangular vol supported
[mpeg4 @ 0x246e7e0] Invalid Complexity estimation method 2
[mpeg4 @ 0x246e7e0] header damaged
[mpeg4 @ 0x246e7e0] only rectangular vol supported
[mpeg4 @ 0x246e7e0] Invalid Complexity estimation method 2
Marker bit missing before time_increment
[mpeg4 @ 0x246e7e0] hmm, seems the headers are not complete, trying to guess time_increment_bits
[mpeg4 @ 0x246e7e0] my guess is 16 bits ;)
Marker bit missing before vop_coded
[mpeg4 @ 0x246e7e0] only rectangular vol supported
[mpeg4 @ 0x246e7e0] Invalid Complexity estimation method 2
[mpeg4 @ 0x246e7e0] only rectangular vol supported
[mpeg4 @ 0x246e7e0] Invalid Complexity estimation method 2
Marker bit missing before time_increment
[mpeg4 @ 0x246e7e0] hmm, seems the headers are not complete, trying to guess time_increment_bits
[mpeg4 @ 0x246e7e0] my guess is 16 bits ;)
Marker bit missing before vop_coded
[mpeg4 @ 0x246e7e0] only rectangular vol supported
[mpeg4 @ 0x246e7e0] Invalid Complexity estimation method 2
[mpeg4 @ 0x246e7e0] header damaged
[mxf @ 0x245c3a0] decoding for stream 0 failed
[mxf @ 0x245c3a0] Could not find codec parameters for stream 0 (Video: mpeg4 (Simple Studio Profile), none, 1920x1088): unspecified pixel format
Consider increasing the value for the 'analyzeduration' and 'probesize' options
Guessed Channel Layout for  Input Stream #0.1 : mono
Guessed Channel Layout for  Input Stream #0.2 : mono
Guessed Channel Layout for  Input Stream #0.3 : mono
Guessed Channel Layout for  Input Stream #0.4 : mono
Guessed Channel Layout for  Input Stream #0.5 : mono
Guessed Channel Layout for  Input Stream #0.6 : mono
Guessed Channel Layout for  Input Stream #0.7 : mono
Guessed Channel Layout for  Input Stream #0.8 : mono
Input #0, mxf, from 'A003C003_SR_422_23.98p.mxf':
  Metadata:
    product_uid     : cede1104-8280-11de-8a39-08004678031c
    uid             : 2aaad388-399a-4b1e-9d58-232b9479cde9
    generation_uid  : c8e2d907-a276-4f01-9b0d-c98452e7142e
    company_name    : Sony
    product_name    : Mem
    product_version : 1.0
    application_platform: Sony MXF Development Kit (MacOS X)
    modification_date: 2013-10-26 19:06:11
    material_package_umid: 0x060A2B340101010501010D4313000000F07DC4CB916505CC08004602026A87CD
    timecode        : 00:04:59:04
  Duration: 00:00:08.51, start: 0.000000, bitrate: 371540 kb/s
    Stream #0:0: Video: mpeg4 (Simple Studio Profile), none, 1920x1088, SAR 136:135 DAR 16:9, 23.98 fps, 23.98 tbr, 23.98 tbn, 54599 tbc
    Metadata:
      file_package_umid: 0x060A2B340101010501010D4313000000F17DC4CB916505CC08004602026A87CD
      file_package_name:        /
    Stream #0:1: Audio: pcm_s24le, 48000 Hz, 1 channels, s32 (24 bit), 1152 kb/s
    Metadata:
      file_package_umid: 0x060A2B340101010501010D4313000000F17DC4CB916505CC08004602026A87CD
      file_package_name:        /
    Stream #0:2: Audio: pcm_s24le, 48000 Hz, 1 channels, s32 (24 bit), 1152 kb/s
    Metadata:
      file_package_umid: 0x060A2B340101010501010D4313000000F17DC4CB916505CC08004602026A87CD
      file_package_name:        /
    Stream #0:3: Audio: pcm_s24le, 48000 Hz, 1 channels, s32 (24 bit), 1152 kb/s
    Metadata:
      file_package_umid: 0x060A2B340101010501010D4313000000F17DC4CB916505CC08004602026A87CD
      file_package_name:        /
    Stream #0:4: Audio: pcm_s24le, 48000 Hz, 1 channels, s32 (24 bit), 1152 kb/s
    Metadata:
      file_package_umid: 0x060A2B340101010501010D4313000000F17DC4CB916505CC08004602026A87CD
      file_package_name:        /
    Stream #0:5: Audio: pcm_s24le, 48000 Hz, 1 channels, s32 (24 bit), 1152 kb/s
    Metadata:
      file_package_umid: 0x060A2B340101010501010D4313000000F17DC4CB916505CC08004602026A87CD
      file_package_name:        /
    Stream #0:6: Audio: pcm_s24le, 48000 Hz, 1 channels, s32 (24 bit), 1152 kb/s
    Metadata:
      file_package_umid: 0x060A2B340101010501010D4313000000F17DC4CB916505CC08004602026A87CD
      file_package_name:        /
    Stream #0:7: Audio: pcm_s24le, 48000 Hz, 1 channels, s32 (24 bit), 1152 kb/s
    Metadata:
      file_package_umid: 0x060A2B340101010501010D4313000000F17DC4CB916505CC08004602026A87CD
      file_package_name:        /
    Stream #0:8: Audio: pcm_s24le, 48000 Hz, 1 channels, s32 (24 bit), 1152 kb/s
    Metadata:
      file_package_umid: 0x060A2B340101010501010D4313000000F17DC4CB916505CC08004602026A87CD
      file_package_name:        /
    Stream #0:9: Data: none
    Metadata:
      file_package_umid: 0x060A2B340101010501010D4313000000F17DC4CB916505CC08004602026A87CD
      file_package_name:        /
      data_type       : vbi_vanc_smpte_436M
At least one output file must be specified

23.98p SStP SR (4:4:4 10 bit @ 440 Mbps)

$ ffmpeg -i A004C001_SR_444_HD_23.98p.mxf
ffmpeg version N-71321-g6fd300a Copyright (c) 2000-2015 the FFmpeg developers
  built with gcc 4.7 (SUSE Linux)
  configuration: --enable-gpl
  libavutil      54. 22.100 / 54. 22.100
  libavcodec     56. 34.100 / 56. 34.100
  libavformat    56. 30.100 / 56. 30.100
  libavdevice    56.  4.100 / 56.  4.100
  libavfilter     5. 13.101 /  5. 13.101
  libswscale      3.  1.101 /  3.  1.101
  libswresample   1.  1.100 /  1.  1.100
  libpostproc    53.  3.100 / 53.  3.100
[mpeg4 @ 0x2785860] only rectangular vol supported
[mpeg4 @ 0x2785860] Invalid Complexity estimation method 2
Marker bit missing before time_increment
[mpeg4 @ 0x2785860] hmm, seems the headers are not complete, trying to guess time_increment_bits
[mpeg4 @ 0x2785860] my guess is 16 bits ;)
Marker bit missing before vop_coded
[mpeg4 @ 0x2785860] only rectangular vol supported
[mpeg4 @ 0x2785860] Invalid Complexity estimation method 2
[mpeg4 @ 0x2785860] only rectangular vol supported
[mpeg4 @ 0x2785860] Invalid Complexity estimation method 2
Marker bit missing before time_increment
[mpeg4 @ 0x2785860] hmm, seems the headers are not complete, trying to guess time_increment_bits
[mpeg4 @ 0x2785860] my guess is 16 bits ;)
Marker bit missing before vop_coded
[mpeg4 @ 0x2785860] only rectangular vol supported
[mpeg4 @ 0x2785860] Invalid Complexity estimation method 2
[mpeg4 @ 0x2785860] header damaged
[mpeg4 @ 0x2785860] only rectangular vol supported
[mpeg4 @ 0x2785860] Invalid Complexity estimation method 2
Marker bit missing before time_increment
[mpeg4 @ 0x2785860] hmm, seems the headers are not complete, trying to guess time_increment_bits
[mpeg4 @ 0x2785860] my guess is 16 bits ;)
Marker bit missing before vop_coded
[mpeg4 @ 0x2785860] only rectangular vol supported
[mpeg4 @ 0x2785860] Invalid Complexity estimation method 2
[mpeg4 @ 0x2785860] only rectangular vol supported
[mpeg4 @ 0x2785860] Invalid Complexity estimation method 2
Marker bit missing before time_increment
[mpeg4 @ 0x2785860] hmm, seems the headers are not complete, trying to guess time_increment_bits
[mpeg4 @ 0x2785860] my guess is 16 bits ;)
Marker bit missing before vop_coded
[mpeg4 @ 0x2785860] only rectangular vol supported
[mpeg4 @ 0x2785860] Invalid Complexity estimation method 2
[mpeg4 @ 0x2785860] header damaged
[mpeg4 @ 0x2785860] only rectangular vol supported
[mpeg4 @ 0x2785860] Invalid Complexity estimation method 2
Marker bit missing before time_increment
[mpeg4 @ 0x2785860] hmm, seems the headers are not complete, trying to guess time_increment_bits
[mpeg4 @ 0x2785860] my guess is 16 bits ;)
Marker bit missing before vop_coded
[mpeg4 @ 0x2785860] only rectangular vol supported
[mpeg4 @ 0x2785860] Invalid Complexity estimation method 2
[mpeg4 @ 0x2785860] only rectangular vol supported
[mpeg4 @ 0x2785860] Invalid Complexity estimation method 2
Marker bit missing before time_increment
[mpeg4 @ 0x2785860] hmm, seems the headers are not complete, trying to guess time_increment_bits
[mpeg4 @ 0x2785860] my guess is 16 bits ;)
Marker bit missing before vop_coded
[mpeg4 @ 0x2785860] only rectangular vol supported
[mpeg4 @ 0x2785860] Invalid Complexity estimation method 2
[mpeg4 @ 0x2785860] header damaged
[mxf @ 0x27733a0] decoding for stream 0 failed
[mxf @ 0x27733a0] Could not find codec parameters for stream 0 (Video: mpeg4 (Simple Studio Profile), none, 1920x1088): unspecified pixel format
Consider increasing the value for the 'analyzeduration' and 'probesize' options
Guessed Channel Layout for  Input Stream #0.1 : mono
Guessed Channel Layout for  Input Stream #0.2 : mono
Guessed Channel Layout for  Input Stream #0.3 : mono
Guessed Channel Layout for  Input Stream #0.4 : mono
Guessed Channel Layout for  Input Stream #0.5 : mono
Guessed Channel Layout for  Input Stream #0.6 : mono
Guessed Channel Layout for  Input Stream #0.7 : mono
Guessed Channel Layout for  Input Stream #0.8 : mono
Input #0, mxf, from 'A004C001_SR_444_HD_23.98p.mxf':
  Metadata:
    product_uid     : cede1104-8280-11de-8a39-08004678031c
    uid             : e36c4e4a-94e8-4aaa-800b-05cf0ab47eba
    generation_uid  : e97e70fa-3cfa-4fd9-b2cb-0a8785530d32
    company_name    : Sony
    product_name    : Mem
    product_version : 1.0
    application_platform: Sony MXF Development Kit (MacOS X)
    modification_date: 2013-10-26 19:07:38
    material_package_umid: 0x060A2B340101010501010D43130000002D9906CC916505D908004602026A87CD
    timecode        : 00:05:07:16
  Duration: 00:00:08.17, start: 0.000000, bitrate: 371542 kb/s
    Stream #0:0: Video: mpeg4 (Simple Studio Profile), none, 1920x1088, SAR 136:135 DAR 16:9, 23.98 fps, 23.98 tbr, 23.98 tbn, 64839 tbc
    Metadata:
      file_package_umid: 0x060A2B340101010501010D43130000002E9906CC916505D908004602026A87CD
      file_package_name:        /
    Stream #0:1: Audio: pcm_s24le, 48000 Hz, 1 channels, s32 (24 bit), 1152 kb/s
    Metadata:
      file_package_umid: 0x060A2B340101010501010D43130000002E9906CC916505D908004602026A87CD
      file_package_name:        /
    Stream #0:2: Audio: pcm_s24le, 48000 Hz, 1 channels, s32 (24 bit), 1152 kb/s
    Metadata:
      file_package_umid: 0x060A2B340101010501010D43130000002E9906CC916505D908004602026A87CD
      file_package_name:        /
    Stream #0:3: Audio: pcm_s24le, 48000 Hz, 1 channels, s32 (24 bit), 1152 kb/s
    Metadata:
      file_package_umid: 0x060A2B340101010501010D43130000002E9906CC916505D908004602026A87CD
      file_package_name:        /
    Stream #0:4: Audio: pcm_s24le, 48000 Hz, 1 channels, s32 (24 bit), 1152 kb/s
    Metadata:
      file_package_umid: 0x060A2B340101010501010D43130000002E9906CC916505D908004602026A87CD
      file_package_name:        /
    Stream #0:5: Audio: pcm_s24le, 48000 Hz, 1 channels, s32 (24 bit), 1152 kb/s
    Metadata:
      file_package_umid: 0x060A2B340101010501010D43130000002E9906CC916505D908004602026A87CD
      file_package_name:        /
    Stream #0:6: Audio: pcm_s24le, 48000 Hz, 1 channels, s32 (24 bit), 1152 kb/s
    Metadata:
      file_package_umid: 0x060A2B340101010501010D43130000002E9906CC916505D908004602026A87CD
      file_package_name:        /
    Stream #0:7: Audio: pcm_s24le, 48000 Hz, 1 channels, s32 (24 bit), 1152 kb/s
    Metadata:
      file_package_umid: 0x060A2B340101010501010D43130000002E9906CC916505D908004602026A87CD
      file_package_name:        /
    Stream #0:8: Audio: pcm_s24le, 48000 Hz, 1 channels, s32 (24 bit), 1152 kb/s
    Metadata:
      file_package_umid: 0x060A2B340101010501010D43130000002E9906CC916505D908004602026A87CD
      file_package_name:        /
    Stream #0:9: Data: none
    Metadata:
      file_package_umid: 0x060A2B340101010501010D43130000002E9906CC916505D908004602026A87CD
      file_package_name:        /
      data_type       : vbi_vanc_smpte_436M
At least one output file must be specified

Change History (4)

comment:2 Changed 16 months ago by kierank

I have written a working decoder for these files but not many samples.

comment:3 Changed 16 months ago by cehoyos

  • Cc kierank added

Experience indicates that new decoders quickly attract samples.

comment:4 Changed 3 weeks ago by kierank

  • Keywords sstp added; asp removed
  • Resolution set to fixed
  • Status changed from new to closed

Fixed (except for a couple of DPCM blocks in second sample) in f9d3841ae6147eaa51c57c574cd81e9ce9566e3a

Note: See TracTickets for help on using tickets.