Opened 4 years ago

Closed 2 years ago

#3671 closed defect (fixed)

can't decode rm video with -ss 0

Reported by: hxuanyu Owned by:
Priority: normal Component: avformat
Version: git-master Keywords: real seek
Cc: Blocked By:
Blocking: Reproduced by developer: yes
Analyzed by developer: no

Description

while ffplay plays video correctly, ffplay -ss 0 can't.

$ ffplay.exe -ss 0 aaaavvvvvvvvv_rv20_10_yuv420p_sipr_8000_1_0.rm
ffplay version N-63418-gf276bf3 Copyright (c) 2003-2014 the FFmpeg developers

built on May 24 2014 22:01:51 with gcc 4.8.2 (GCC)
configuration: --enable-gpl --enable-version3 --disable-w32threads --enable-avisynth --enable-bzlib --enable-fontconfig --enable-frei0r --enable-gnutls --enable-iconv --enable-libass --enable-libbluray --enable-libcaca --enable-libfreetype --enable-libgme --enable-libgsm --enable-libilbc --enable-libmodplug --enable-libmp3lame --enable-libopencore-amrnb --enable-libopencore-amrwb --enable-libopenjpeg --enable-libopus --enable-librtmp --enable-libschroedinger --enable-libsoxr --enable-libspeex --enable-libtheora --enable-libtwolame --enable-libvidstab --enable-libvo-aacenc --enable-libvo-amrwbenc --enable-libvorbis --enable-libvpx --enable-libwavpack --enable-libwebp --enable-libx264 --enable-libx265 --enable-libxavs --enable-libxvid --enable-decklink --enable-zlib
libavutil 52. 86.100 / 52. 86.100
libavcodec 55. 65.100 / 55. 65.100
libavformat 55. 40.100 / 55. 40.100
libavdevice 55. 13.101 / 55. 13.101
libavfilter 4. 5.100 / 4. 5.100
libswscale 2. 6.100 / 2. 6.100
libswresample 0. 19.100 / 0. 19.100
libpostproc 52. 3.100 / 52. 3.100

[rm @ 02b14720] Unsupported stream type 00000260B sq= 0B f=0/0
[rm @ 02b14720] Unsupported stream type 00000597
Input #0, rm, from 'aaaavvvvvvvvv_rv20_10_yuv420p_sipr_8000_1_0.rm':

Metadata:

File ID : fa11891d-9fdc-98b1-9091-06feab1ad3e6
Modification Date: 3/3/2000 11:55:19
Content Rating : (PICS-1.1 "http://www.classify.org/safesurf" labels comment "RealProducer? 6.1.0.153 Windows" ratings (SS000 1))
Generated By : RealProducer? 6.1.0.153 Windows
Keywords : Tweety, WWC
Abstract : ring match of tweety wwc 99

:

Target Audiences: 56K Modem (34 Kbps);Dual ISDN (80 Kbps);
Video Quality : Sharpest Image Video
Audio Format : Voice Only
Creation Date : 3/3/2000 11:54:27
ASMRuleBook : #($Bandwidth < 25500),Stream2Bandwidth = 5000, Stream3Bandwidth = 15399;#($Bandwidth >= 25500) && ($Bandwidth < 34000),Stream2B
title : WWC1
author : TanyaKicks?
copyright : ▒2000
comment :

Duration: 00:00:31.61, start: 0.000000, bitrate: 236 kb/s

Stream #0:0: Data: none, 8 kb/s
Stream #0:1: Data: none, 71 kb/s
Stream #0:2: Audio: sipr (sipr / 0x72706973), 8000 Hz, mono, flt, 4 kb/s
Stream #0:3: Video: rv20 (RV20 / 0x30325652), yuv420p, 176x144, 29 kb/s, 10 fps, 10 tbr, 1k tbn, 1k tbc
Stream #0:4: Video: rv20 (RV20 / 0x30325652), yuv420p, 176x144, 20 kb/s, 10 fps, 10 tbr, 1k tbn, 1k tbc
Stream #0:5: Video: rv20 (RV20 / 0x30325652), yuv420p, 176x144, 15 kb/s, 10 fps, 10 tbr, 1k tbn, 1k tbc
Stream #0:6: Audio: sipr (sipr / 0x72706973), 8000 Hz, mono, flt, 8 kb/s
Stream #0:7: Video: rv20 (RV20 / 0x30325652), yuv420p, 176x144, 71 kb/s, 10 fps, 10 tbr, 1k tbn, 1k tbc
Stream #0:8: Video: rv20 (RV20 / 0x30325652), yuv420p, 176x144, 51 kb/s, 10 fps, 10 tbr, 1k tbn, 1k tbc
Stream #0:9: Audio: sipr (sipr / 0x72706973), 8000 Hz, mono, flt, 4 kb/s
Stream #0:10: Audio: sipr (sipr / 0x72706973), 8000 Hz, mono, flt, 4 kb/s
Stream #0:11: Video: rv20 (RV20 / 0x30325652), yuv420p, 176x144, 29 kb/s, 10 fps, 10 tbr, 1k tbn, 1k tbc
Stream #0:12: Video: rv20 (RV20 / 0x30325652), yuv420p, 176x144, 29 kb/s, 10 fps, 10 tbr, 1k tbn, 1k tbc
Stream #0:13: Video: rv20 (RV20 / 0x30325652), yuv420p, 176x144, 29 kb/s, 10 fps, 10 tbr, 1k tbn, 1k tbc
Stream #0:14: Video: rv20 (RV20 / 0x30325652), yuv420p, 176x144, 15 kb/s, 10 fps, 10 tbr, 1k tbn, 1k tbc

Truncating packet of size 117637136 to 771402
[rm @ 02b14720] Impossibly sized packet
Truncating packet of size 142803426 to 771391 0KB sq= 0B f=0/0
[rm @ 02b14720] Impossibly sized packet
[rm @ 02b14720] Insufficient remaining len
Truncating packet of size 219310339 to 768325
[rm @ 02b14720] Impossibly sized packet
[rm @ 02b14720] Insufficient remaining len

Last message repeated 2 times

Truncating packet of size 407175434 to 761158
[rm @ 02b14720] Impossibly sized packet
[rm @ 02b14720] Insufficient remaining len 0KB sq= 0B f=0/0
Truncating packet of size 269994880 to 761137
[rm @ 02b14720] Impossibly sized packet
Truncating packet of size 973293215 to 761126
[rm @ 02b14720] Impossibly sized packet
Truncating packet of size 347371523 to 748399
[rm @ 02b14720] Impossibly sized packet
Truncating packet of size 523318125 to 748390 0KB sq= 0B f=0/0
[rm @ 02b14720] Impossibly sized packet
[rm @ 02b14720] Insufficient remaining len
Truncating packet of size 351273226 to 742016
[rm @ 02b14720] Impossibly sized packet
Truncating packet of size 76872128 to 742005
[rm @ 02b14720] Impossibly sized packet
Truncating packet of size 372411165 to 733780 0KB sq= 0B f=0/0
[rm @ 02b14720] Impossibly sized packet
Truncating packet of size 294406159 to 723351
[rm @ 02b14720] Impossibly sized packet
[rm @ 02b14720] Insufficient remaining len

Last message repeated 1 times

Truncating packet of size 630058032 to 723328
[rm @ 02b14720] Impossibly sized packet
Truncating packet of size 143327301 to 690432 0KB sq= 0B f=0/0
[rm @ 02b14720] Impossibly sized packet
Truncating packet of size 953733162 to 690421
[rm @ 02b14720] Impossibly sized packet
Truncating packet of size 8454722 to 687359
[rm @ 02b14720] Impossibly sized packet
Truncating packet of size 64361670 to 687350 0KB sq= 0B f=0/0
[rm @ 02b14720] Impossibly sized packet
[rm @ 02b14720] outside videobufsize
[rm @ 02b14720] Insufficient remaining len
Truncating packet of size 271744334 to 668457
[rm @ 02b14720] Impossibly sized packet
Truncating packet of size 328794232 to 640860
[rm @ 02b14720] Impossibly sized packet
[rm @ 02b14720] Insufficient remaining len 0KB sq= 0B f=0/0
Truncating packet of size 332923151 to 635497
[rm @ 02b14720] Impossibly sized packet
[rm @ 02b14720] Insufficient remaining len
Truncating packet of size 320864523 to 628100
[rm @ 02b14720] Impossibly sized packet
[rm @ 02b14720] Insufficient remaining len
Truncating packet of size 345506068 to 618363
[rm @ 02b14720] Impossibly sized packet
[rm @ 02b14720] Insufficient remaining len 0KB sq= 0B f=0/0
Truncating packet of size 668975208 to 618346
[rm @ 02b14720] Impossibly sized packet
[rm @ 02b14720] outside videobufsize
Truncating packet of size 323223668 to 583477
[rm @ 02b14720] Impossibly sized packet
[rm @ 02b14720] outside videobufsize

Last message repeated 1 times

[rm @ 02b14720] DATA tag in middle of chunk, file may be broken.0
Truncating packet of size 637730944 to 511321
[rm @ 02b14720] Impossibly sized packet
Truncating packet of size 67240447 to 511310
[rm @ 02b14720] Impossibly sized packet
Truncating packet of size 94428504 to 511301
[rm @ 02b14720] Impossibly sized packet
[rm @ 02b14720] Insufficient remaining len 0KB sq= 0B f=0/0
Truncating packet of size 75292249 to 511282
[rm @ 02b14720] Impossibly sized packet
Truncating packet of size 168067210 to 508149
[rm @ 02b14720] Impossibly sized packet
[rm @ 02b14720] outside videobufsize
Truncating packet of size 3473919 to 502117
[rm @ 02b14720] Impossibly sized packet
Truncating packet of size 83658789 to 502108 0KB sq= 0B f=0/0
[rm @ 02b14720] Impossibly sized packet
[rm @ 02b14720] Insufficient remaining len
Truncating packet of size 100435234 to 502089
[rm @ 02b14720] Impossibly sized packet
Truncating packet of size 169376514 to 468789
[rm @ 02b14720] Impossibly sized packet
Truncating packet of size 186546947 to 466616 0KB sq= 0B f=0/0
[rm @ 02b14720] Impossibly sized packet
Truncating packet of size 254242928 to 462869
[rm @ 02b14720] Impossibly sized packet
[rm @ 02b14720] Insufficient remaining len
Truncating packet of size 493209594 to 462850
[rm @ 02b14720] Impossibly sized packet
[rm @ 02b14720] Insufficient remaining len 0KB sq= 0B f=0/0
Truncating packet of size 304939025 to 461105
[rm @ 02b14720] Impossibly sized packet
[rm @ 02b14720] Insufficient remaining len
Truncating packet of size 940656478 to 461086
[rm @ 02b14720] Impossibly sized packet
[rm @ 02b14720] Insufficient remaining len
Truncating packet of size 372638095 to 457836
[rm @ 02b14720] Impossibly sized packet
Truncating packet of size 92314030 to 457825 0KB sq= 0B f=0/0
[rm @ 02b14720] Impossibly sized packet
Truncating packet of size 406585733 to 455817
[rm @ 02b14720] Impossibly sized packet
Truncating packet of size 488103294 to 455806
[rm @ 02b14720] Impossibly sized packet
[rm @ 02b14720] Insufficient remaining len 0KB sq= 0B f=0/0
Truncating packet of size 553721971 to 455787
[rm @ 02b14720] Impossibly sized packet
[rm @ 02b14720] Insufficient remaining len
Truncating packet of size 407028508 to 453490
[rm @ 02b14720] Impossibly sized packet
Truncating packet of size 70682743 to 453479
[rm @ 02b14720] Impossibly sized packet
Truncating packet of size 16930304 to 453468 0KB sq= 0B f=0/0
[rm @ 02b14720] Impossibly sized packet
Truncating packet of size 46154307 to 453459
[rm @ 02b14720] Impossibly sized packet
Truncating packet of size 1876035 to 453448
[rm @ 02b14720] Impossibly sized packet
Truncating packet of size 223805722 to 449164 0KB sq= 0B f=0/0
[rm @ 02b14720] Impossibly sized packet
[rm @ 02b14720] Insufficient remaining len
Truncating packet of size 456260212 to 449143
[rm @ 02b14720] Impossibly sized packet
Truncating packet of size 191057945 to 444399
[rm @ 02b14720] Impossibly sized packet
Truncating packet of size 225411587 to 440342 0KB sq= 0B f=0/0
[rm @ 02b14720] Impossibly sized packet
Truncating packet of size 226405148 to 436079
[rm @ 02b14720] Impossibly sized packet
Truncating packet of size 193986954 to 431771
[rm @ 02b14720] Impossibly sized packet
Truncating packet of size 245301359 to 426776 0KB sq= 0B f=0/0
[rm @ 02b14720] Impossibly sized packet
[rm @ 02b14720] Insufficient remaining len
Truncating packet of size 219217937 to 392573
[rm @ 02b14720] Impossibly sized packet
[rm @ 02b14720] Insufficient remaining len

Last message repeated 1 times

Truncating packet of size 50985441 to 392546
[rm @ 02b14720] Impossibly sized packet
[rm @ 02b14720] Insufficient remaining len 0KB sq= 0B f=0/0
Truncating packet of size 187671555 to 383201
[rm @ 02b14720] Impossibly sized packet
Truncating packet of size 173408529 to 373022
[rm @ 02b14720] Impossibly sized packet
[rm @ 02b14720] outside videobufsize
Truncating packet of size 159213571 to 361112
[rm @ 02b14720] Impossibly sized packet
[rm @ 02b14720] Insufficient remaining len 0KB sq= 0B f=0/0
Truncating packet of size 315511297 to 333396
[rm @ 02b14720] Impossibly sized packet
Truncating packet of size 693623674 to 333387
[rm @ 02b14720] Impossibly sized packet
Truncating packet of size 151650588 to 317338
[rm @ 02b14720] Impossibly sized packet
[rm @ 02b14720] outside videobufsizeKB vq= 0KB sq= 0B f=0/0
Truncating packet of size 582281834 to 307536
[rm @ 02b14720] Impossibly sized packet
[rm @ 02b14720] outside videobufsize
[rm @ 02b14720] Insufficient remaining len
Truncating packet of size 267934126 to 307510
[rm @ 02b14720] Impossibly sized packet
[rm @ 02b14720] Insufficient remaining len
[rm @ 02b14720] outside videobufsize

Last message repeated 1 times

[rm @ 02b14720] Insufficient remaining len
Truncating packet of size 852820526 to 307475
[rm @ 02b14720] Impossibly sized packet
[rm @ 02b14720] Insufficient remaining len 0KB sq= 0B f=0/0
Truncating packet of size 35913735 to 307456
[rm @ 02b14720] Impossibly sized packet
Truncating packet of size 16925799 to 307447
[rm @ 02b14720] Impossibly sized packet
[rm @ 02b14720] outside videobufsize
Truncating packet of size 122224651 to 299393
[rm @ 02b14720] Impossibly sized packet
Truncating packet of size 515630992 to 298577 0KB sq= 0B f=0/0
[rm @ 02b14720] Impossibly sized packet
Truncating packet of size 126353486 to 278778
[rm @ 02b14720] Impossibly sized packet
[rm @ 02b14720] outside videobufsize
Truncating packet of size 208928779 to 206150
[rm @ 02b14720] Impossibly sized packet
Truncating packet of size 209387543 to 170880 0KB sq= 0B f=0/0
[rm @ 02b14720] Impossibly sized packet
[rm @ 02b14720] Insufficient remaining len
Truncating packet of size 99672240 to 170861
[rm @ 02b14720] Impossibly sized packet
[rm @ 02b14720] Insufficient remaining len

Last message repeated 1 times

Truncating packet of size 210616579 to 166180
[rm @ 02b14720] Impossibly sized packet
[rm @ 02b14720] Insufficient remaining len 0KB sq= 0B f=0/0
Truncating packet of size 212180225 to 161132
[rm @ 02b14720] Impossibly sized packet
Truncating packet of size 295817920 to 161121
[rm @ 02b14720] Impossibly sized packet
Truncating packet of size 561574147 to 161110
[rm @ 02b14720] Impossibly sized packet
Truncating packet of size 213909505 to 155016 0KB sq= 0B f=0/0
[rm @ 02b14720] Impossibly sized packet
Truncating packet of size 249430289 to 148352
[rm @ 02b14720] Impossibly sized packet
Truncating packet of size 846202787 to 148343
[rm @ 02b14720] Impossibly sized packet
[rm @ 02b14720] Insufficient remaining len 0KB sq= 0B f=0/0
Truncating packet of size 185073681 to 140804
[rm @ 02b14720] Impossibly sized packet
[rm @ 02b14720] Insufficient remaining len

Last message repeated 1 times

Truncating packet of size 201572581 to 140775
[rm @ 02b14720] Impossibly sized packet
Truncating packet of size 204603658 to 131755
[rm @ 02b14720] Impossibly sized packet
Truncating packet of size 174243607 to 121412 0KB sq= 0B f=0/0
[rm @ 02b14720] Impossibly sized packet
Truncating packet of size 21627213 to 105611
[rm @ 02b14720] Impossibly sized packet
[rm @ 02b14720] Insufficient remaining len

Last message repeated 2 times

[rm @ 02b14720] outside videobufsize
Truncating packet of size 169657368 to 78928
[rm @ 02b14720] Impossibly sized packet
[rm @ 02b14720] outside videobufsizeKB vq= 0KB sq= 0B f=0/0
[rm @ 02b14720] Insufficient remaining len
Truncating packet of size 77421142 to 78904
[rm @ 02b14720] Impossibly sized packet
[rm @ 02b14720] outside videobufsize

Last message repeated 3 times

Truncating packet of size 4968308 to 71058
[rm @ 02b14720] Impossibly sized packet
Truncating packet of size 454854527 to 71047
[rm @ 02b14720] Impossibly sized packet
Truncating packet of size 274759234 to 71036 0KB sq= 0B f=0/0
[rm @ 02b14720] Impossibly sized packet
[rm @ 02b14720] outside videobufsize
[rm @ 02b14720] Insufficient remaining len
Truncating packet of size 556854502 to 71010
[rm @ 02b14720] Impossibly sized packet
Truncating packet of size 678452878 to 71001
[rm @ 02b14720] Impossibly sized packet
[rm @ 02b14720] outside videobufsizeKB vq= 0KB sq= 0B f=0/0
[rm @ 02b14720] Insufficient remaining len
Truncating packet of size 181993796 to 39670
[rm @ 02b14720] Impossibly sized packet
Truncating packet of size 509492707 to 39659
[rm @ 02b14720] Impossibly sized packet
[rm @ 02b14720] outside videobufsize

Last message repeated 1 times

[rm @ 02b14720] Failed to read 27796 bytes

nan A-V: nan fd= 0 aq= 0KB vq= 0KB sq= 0B f=0/0

Attachments (1)

aaaavvvvvvvvv_rv20_10_yuv420p_sipr_8000_1_0.rm (911.8 KB) - added by hxuanyu 4 years ago.

Download all attachments as: .zip

Change History (6)

comment:1 follow-up: Changed 4 years ago by cehoyos

Is this not reproducible with ffmpeg?

comment:2 in reply to: ↑ 1 Changed 4 years ago by hxuanyu

Replying to cehoyos:

Is this not reproducible with ffmpeg?

Hi cehoyos, ffmpeg can't convert this file, reported "Conversion failed" at the end.

$ ffmpeg.exe -i aaaavvvvvvvvv_rv20_10_yuv420p_sipr_8000_1_0.rm a.wmv
ffmpeg version N-63418-gf276bf3 Copyright (c) 2000-2014 the FFmpeg developers

built on May 24 2014 22:01:51 with gcc 4.8.2 (GCC)
configuration: --enable-gpl --enable-version3 --disable-w32threads --enable-avisynth --enable-bzlib --enable-fontconfig --enable-frei0r --enable-gnutls --enable-iconv --enable-libass --enable-libbluray --enable-libcaca --enable-libfreetype --enable-libgme --enable-libgsm --enable-libilbc --enable-libmodplug --enable-libmp3lame --enable-libopencore-amrnb --enable-libopencore-amrwb --enable-libopenjpeg --enable-libopus --enable-librtmp --enable-libschroedinger --enable-libsoxr --enable-libspeex --enable-libtheora --enable-libtwolame --enable-libvidstab --enable-libvo-aacenc --enable-libvo-amrwbenc --enable-libvorbis --enable-libvpx --enable-libwavpack --enable-libwebp --enable-libx264 --enable-libx265 --enable-libxavs --enable-libxvid --enable-decklink --enable-zlib
libavutil 52. 86.100 / 52. 86.100
libavcodec 55. 65.100 / 55. 65.100
libavformat 55. 40.100 / 55. 40.100
libavdevice 55. 13.101 / 55. 13.101
libavfilter 4. 5.100 / 4. 5.100
libswscale 2. 6.100 / 2. 6.100
libswresample 0. 19.100 / 0. 19.100
libpostproc 52. 3.100 / 52. 3.100

[rm @ 0430e140] Unsupported stream type 00000260
[rm @ 0430e140] Unsupported stream type 00000597
Input #0, rm, from 'aaaavvvvvvvvv_rv20_10_yuv420p_sipr_8000_1_0.rm':

Metadata:

File ID : fa11891d-9fdc-98b1-9091-06feab1ad3e6
Modification Date: 3/3/2000 11:55:19
Content Rating : (PICS-1.1 "http://www.classify.org/safesurf" labels comment "RealProducer? 6.1.0.153 Windows" ratings (SS000 1))
Generated By : RealProducer? 6.1.0.153 Windows
Keywords : Tweety, WWC
Abstract : ring match of tweety wwc 99

:

Target Audiences: 56K Modem (34 Kbps);Dual ISDN (80 Kbps);
Video Quality : Sharpest Image Video
Audio Format : Voice Only
Creation Date : 3/3/2000 11:54:27
ASMRuleBook : #($Bandwidth < 25500),Stream2Bandwidth = 5000, Stream3Bandwidth = 15399;#($Bandwidth >= 25500) && ($Bandwidth < 34000),Stream2B
title : WWC1
author : TanyaKicks?
copyright : ▒2000
comment :

Duration: 00:00:31.61, start: 0.000000, bitrate: 236 kb/s

Stream #0:0: Data: none, 8 kb/s
Stream #0:1: Data: none, 71 kb/s
Stream #0:2: Audio: sipr (sipr / 0x72706973), 8000 Hz, mono, flt, 4 kb/s
Stream #0:3: Video: rv20 (RV20 / 0x30325652), yuv420p, 176x144, 29 kb/s, 10 fps, 10 tbr, 1k tbn, 1k tbc
Stream #0:4: Video: rv20 (RV20 / 0x30325652), yuv420p, 176x144, 20 kb/s, 10 fps, 10 tbr, 1k tbn, 1k tbc
Stream #0:5: Video: rv20 (RV20 / 0x30325652), yuv420p, 176x144, 15 kb/s, 10 fps, 10 tbr, 1k tbn, 1k tbc
Stream #0:6: Audio: sipr (sipr / 0x72706973), 8000 Hz, mono, flt, 8 kb/s
Stream #0:7: Video: rv20 (RV20 / 0x30325652), yuv420p, 176x144, 71 kb/s, 10 fps, 10 tbr, 1k tbn, 1k tbc
Stream #0:8: Video: rv20 (RV20 / 0x30325652), yuv420p, 176x144, 51 kb/s, 10 fps, 10 tbr, 1k tbn, 1k tbc
Stream #0:9: Audio: sipr (sipr / 0x72706973), 8000 Hz, mono, flt, 4 kb/s
Stream #0:10: Audio: sipr (sipr / 0x72706973), 8000 Hz, mono, flt, 4 kb/s
Stream #0:11: Video: rv20 (RV20 / 0x30325652), yuv420p, 176x144, 29 kb/s, 10 fps, 10 tbr, 1k tbn, 1k tbc
Stream #0:12: Video: rv20 (RV20 / 0x30325652), yuv420p, 176x144, 29 kb/s, 10 fps, 10 tbr, 1k tbn, 1k tbc
Stream #0:13: Video: rv20 (RV20 / 0x30325652), yuv420p, 176x144, 29 kb/s, 10 fps, 10 tbr, 1k tbn, 1k tbc
Stream #0:14: Video: rv20 (RV20 / 0x30325652), yuv420p, 176x144, 15 kb/s, 10 fps, 10 tbr, 1k tbn, 1k tbc

File 'a.wmv' already exists. Overwrite ? [y/N] y
Invaid UTF8 sequence in avio_put_str16le

Last message repeated 1 times

Output #0, asf, to 'a.wmv':

Metadata:

File ID : fa11891d-9fdc-98b1-9091-06feab1ad3e6
Modification Date: 3/3/2000 11:55:19
Content Rating : (PICS-1.1 "http://www.classify.org/safesurf" labels comment "RealProducer? 6.1.0.153 Windows" ratings (SS000 1))
Generated By : RealProducer? 6.1.0.153 Windows
Keywords : Tweety, WWC
Abstract : ring match of tweety wwc 99

:

Target Audiences: 56K Modem (34 Kbps);Dual ISDN (80 Kbps);
Video Quality : Sharpest Image Video
Audio Format : Voice Only
Creation Date : 3/3/2000 11:54:27
ASMRuleBook : #($Bandwidth < 25500),Stream2Bandwidth = 5000, Stream3Bandwidth = 15399;#($Bandwidth >= 25500) && ($Bandwidth < 34000),Stream2B
title : WWC1
author : TanyaKicks?
copyright : ▒2000
Description :
WM/EncodingSettings: Lavf55.40.100
Stream #0:0: Video: msmpeg4v3 (msmpeg4) (MP43 / 0x3334504D), yuv420p, 176x144, q=2-31, 200 kb/s, 10 fps, 1k tbn, 10 tbc
Metadata:

encoder : Lavc55.65.100 msmpeg4

Stream #0:1: Audio: wmav2 (a[1][0][0] / 0x0161), 8000 Hz, mono, fltp, 128 kb/s
Metadata:

encoder : Lavc55.65.100 wmav2

Stream mapping:

Stream #0:3 -> #0:0 (rv20 -> msmpeg4)
Stream #0:2 -> #0:1 (sipr -> wmav2)

Press [q] to stop, ? for help
[rm @ 0430e140] DATA tag in middle of chunk, file may be broken.
[rm @ 0430e140] outside videobufsize
[rv20 @ 04314ac0] Invalid qscale value: 0
[rv20 @ 04314ac0] HEADER ERROR
Error while decoding stream #0:3: Invalid data found when processing input
[rm @ 0430e140] outside videobufsize
[rv20 @ 04314ac0] Invalid qscale value: 0
[rv20 @ 04314ac0] HEADER ERROR
Error while decoding stream #0:3: Invalid data found when processing input
Truncating packet of size 219310339 to 768325
[rm @ 0430e140] Impossibly sized packet
aaaavvvvvvvvv_rv20_10_yuv420p_sipr_8000_1_0.rm: Invalid data found when processing input
Invaid UTF8 sequence in avio_put_str16le

Last message repeated 1 times

frame= 0 fps=0.0 q=0.0 Lsize= 2kB time=00:00:00.00 bitrate=N/A
video:0kB audio:0kB subtitle:0kB other streams:0kB global headers:0kB muxing overhead: unknown
Conversion failed!

if use ffmpeg -ss 0 -i, got this

Stream mapping:

Stream #0:3 -> #0:0 (rv20 -> msmpeg4)
Stream #0:2 -> #0:1 (sipr -> wmav2)

Press [q] to stop, ? for help
Truncating packet of size 117637136 to 771402
[rm @ 0293efe0] Impossibly sized packet
aaaavvvvvvvvv_rv20_10_yuv420p_sipr_8000_1_0.rm: Invalid data found when processing input
Invaid UTF8 sequence in avio_put_str16le

Last message repeated 1 times

frame= 0 fps=0.0 q=0.0 Lsize= 2kB time=00:00:00.00 bitrate=N/A
video:0kB audio:0kB subtitle:0kB other streams:0kB global headers:0kB muxing overhead: unknown

comment:3 Changed 4 years ago by cehoyos

  • Keywords real added
  • Reproduced by developer set
  • Status changed from new to open
  • Summary changed from can't play video with ffplay -ss 0 to can't decode rm video with -ss 0
  • Version changed from unspecified to git-master
$ ffmpeg -ss 0 -i aaaavvvvvvvvv_rv20_10_yuv420p_sipr_8000_1_0.rm -map 0:11 -map 0:9 -qscale 2 -t 29 out.avi
ffmpeg version N-63453-ge6a0846 Copyright (c) 2000-2014 the FFmpeg developers
  built on May 27 2014 01:49:48 with gcc 4.7 (SUSE Linux)
  configuration: --enable-gpl
  libavutil      52. 87.100 / 52. 87.100
  libavcodec     55. 65.100 / 55. 65.100
  libavformat    55. 41.100 / 55. 41.100
  libavdevice    55. 13.101 / 55. 13.101
  libavfilter     4.  5.100 /  4.  5.100
  libswscale      2.  6.100 /  2.  6.100
  libswresample   0. 19.100 /  0. 19.100
  libpostproc    52.  3.100 / 52.  3.100
[rm @ 0x3398be0] Unsupported stream type 00000260
[rm @ 0x3398be0] Unsupported stream type 00000597
Input #0, rm, from 'aaaavvvvvvvvv_rv20_10_yuv420p_sipr_8000_1_0.rm':
  Metadata:
    File ID         : fa11891d-9fdc-98b1-9091-06feab1ad3e6
    Modification Date: 3/3/2000 11:55:19
    Content Rating  : (PICS-1.1 "http://www.classify.org/safesurf" labels comment "RealProducer 6.1.0.153 Windows" ratings (SS~~000 1))
    Generated By    : RealProducer 6.1.0.153 Windows
    Keywords        : Tweety, WWC
    Abstract        : ring match of tweety wwc 99
                    :
    Target Audiences: 56K Modem (34 Kbps);Dual ISDN (80 Kbps);
    Video Quality   : Sharpest Image Video
    Audio Format    : Voice Only
    Creation Date   : 3/3/2000 11:54:27
    ASMRuleBook     : #($Bandwidth < 25500),Stream2Bandwidth = 5000, Stream3Bandwidth = 15399;#($Bandwidth >= 25500) && ($Bandwidth < 34000),Stream2B
    title           : WWC1
    author          : TanyaKicks
    copyright       : �2000
    comment         :
  Duration: 00:00:31.61, start: 0.000000, bitrate: 236 kb/s
    Stream #0:0: Data: none, 8 kb/s
    Stream #0:1: Data: none, 71 kb/s
    Stream #0:2: Audio: sipr (sipr / 0x72706973), 8000 Hz, mono, flt, 4 kb/s
    Stream #0:3: Video: rv20 (RV20 / 0x30325652), yuv420p, 176x144, 29 kb/s, 10 fps, 10 tbr, 1k tbn, 1k tbc
    Stream #0:4: Video: rv20 (RV20 / 0x30325652), yuv420p, 176x144, 20 kb/s, 10 fps, 10 tbr, 1k tbn, 1k tbc
    Stream #0:5: Video: rv20 (RV20 / 0x30325652), yuv420p, 176x144, 15 kb/s, 10 fps, 10 tbr, 1k tbn, 1k tbc
    Stream #0:6: Audio: sipr (sipr / 0x72706973), 8000 Hz, mono, flt, 8 kb/s
    Stream #0:7: Video: rv20 (RV20 / 0x30325652), yuv420p, 176x144, 71 kb/s, 10 fps, 10 tbr, 1k tbn, 1k tbc
    Stream #0:8: Video: rv20 (RV20 / 0x30325652), yuv420p, 176x144, 51 kb/s, 10 fps, 10 tbr, 1k tbn, 1k tbc
    Stream #0:9: Audio: sipr (sipr / 0x72706973), 8000 Hz, mono, flt, 4 kb/s
    Stream #0:10: Audio: sipr (sipr / 0x72706973), 8000 Hz, mono, flt, 4 kb/s
    Stream #0:11: Video: rv20 (RV20 / 0x30325652), yuv420p, 176x144, 29 kb/s, 10 fps, 10 tbr, 1k tbn, 1k tbc
    Stream #0:12: Video: rv20 (RV20 / 0x30325652), yuv420p, 176x144, 29 kb/s, 10 fps, 10 tbr, 1k tbn, 1k tbc
    Stream #0:13: Video: rv20 (RV20 / 0x30325652), yuv420p, 176x144, 29 kb/s, 10 fps, 10 tbr, 1k tbn, 1k tbc
    Stream #0:14: Video: rv20 (RV20 / 0x30325652), yuv420p, 176x144, 15 kb/s, 10 fps, 10 tbr, 1k tbn, 1k tbc
Please use -q:a or -q:v, -qscale is ambiguous
Output #0, avi, to 'out.avi':
  Metadata:
    File ID         : fa11891d-9fdc-98b1-9091-06feab1ad3e6
    Modification Date: 3/3/2000 11:55:19
    Content Rating  : (PICS-1.1 "http://www.classify.org/safesurf" labels comment "RealProducer 6.1.0.153 Windows" ratings (SS~~000 1))
    Generated By    : RealProducer 6.1.0.153 Windows
    Keywords        : Tweety, WWC
    Abstract        : ring match of tweety wwc 99
                    :
    Target Audiences: 56K Modem (34 Kbps);Dual ISDN (80 Kbps);
    Video Quality   : Sharpest Image Video
    Audio Format    : Voice Only
    Creation Date   : 3/3/2000 11:54:27
    ASMRuleBook     : #($Bandwidth < 25500),Stream2Bandwidth = 5000, Stream3Bandwidth = 15399;#($Bandwidth >= 25500) && ($Bandwidth < 34000),Stream2B
    INAM            : WWC1
    author          : TanyaKicks
    ICOP            : �2000
    ICMT            :
    ISFT            : Lavf55.41.100
    Stream #0:0: Video: mpeg4 (FMP4 / 0x34504D46), yuv420p, 176x144, q=2-31, 200 kb/s, 10 fps, 10 tbn, 10 tbc
    Metadata:
      encoder         : Lavc55.65.100 mpeg4
    Stream #0:1: Audio: ac3 ([0] [0][0] / 0x2000), 8000 Hz, mono, fltp, 96 kb/s
    Metadata:
      encoder         : Lavc55.65.100 ac3
Stream mapping:
  Stream #0:11 -> #0:0 (rv20 -> mpeg4)
  Stream #0:9 -> #0:1 (sipr -> ac3)
Press [q] to stop, [?] for help
Truncating packet of size 117637136 to 771402
[rm @ 0x3398be0] Impossibly sized packet
aaaavvvvvvvvv_rv20_10_yuv420p_sipr_8000_1_0.rm: Invalid data found when processing input
frame=    0 fps=0.0 q=0.0 Lsize=      10kB time=00:00:00.00 bitrate=N/A
video:0kB audio:0kB subtitle:0kB other streams:0kB global headers:0kB muxing overhead: unknown
Output file is empty, nothing was encoded (check -ss / -t / -frames parameters if used)

comment:4 Changed 4 years ago by cehoyos

  • Component changed from undetermined to avformat
  • Keywords seek added

comment:5 Changed 2 years ago by cehoyos

  • Resolution set to fixed
  • Status changed from open to closed

Fixed in 838c5f3df7e98b15fd3acbcacaf315c32600ca45 - related to ticket #2687.

Note: See TracTickets for help on using tickets.