Opened 5 years ago

Closed 4 years ago

#938 closed defect (fixed)

[dnxhd @ 0x7f8d3390b000] Multiple ff_thread_finish_setup() calls

Reported by: zhukov Owned by:
Priority: normal Component: avcodec
Version: git-master Keywords: dnxhd
Cc: Blocked By:
Blocking: Reproduced by developer: no
Analyzed by developer: no

Description

when decoding dnxhd
tons of Multiple ff_thread_finish_setup() calls gets output

Change History (4)

comment:1 Changed 5 years ago by cehoyos

To make this a valid ticket, please add a ffmpeg command line together with the console output.

comment:2 Changed 5 years ago by zhukov

command line
bin/ffmpeg -use_absolute_path 1 -i anonymous_ftr_ref_1080p_2398_235_bars_rendered_compressed.qt -pix_fmt yuv420p -f yuv4mpegpipe -y /dev/null

output

ffmpeg version N-37063-g14d94a1 Copyright (c) 2000-2012 the FFmpeg developers
  built on Jan 23 2012 11:34:34 with llvm_gcc 4.2.1 (Based on Apple Inc. build 5658) (LLVM build 2336.1.00)
  configuration: --enable-libopenjpeg --disable-optimizations
  libavutil      51. 34.101 / 51. 34.101
  libavcodec     53. 57.105 / 53. 57.105
  libavformat    53. 30.100 / 53. 30.100
  libavdevice    53.  4.100 / 53.  4.100
  libavfilter     2. 59.101 /  2. 59.101
  libswscale      2.  1.100 /  2.  1.100
  libswresample   0.  6.100 /  0.  6.100
Input #0, mov,mp4,m4a,3gp,3g2,mj2, from 'anonymous_ftr_ref_1080p_2398_235_bars_rendered_compressed.qt':
  Metadata:
    major_brand     : qt  
    minor_version   : 537199360
    compatible_brands: qt  
    creation_time   : 2012-01-21 01:27:41
  Duration: 00:12:15.73, start: 0.000000, bitrate: 2 kb/s
    Stream #0:0(eng): Video: dnxhd (AVdn / 0x6E645641), yuv422p10le, 1920x1080, 175984 kb/s, 23.98 fps, 23.98 tbr, 24k tbn, 24k tbc
    Metadata:
      creation_time   : 2012-01-21 01:27:41
      handler_name    : ?Apple Alias Data Handler
[buffer @ 0x7fc170423aa0] w:1920 h:1080 pixfmt:yuv422p10le tb:1/1000000 sar:0/1 sws_param:
[buffersink @ 0x7fc170423d00] auto-inserting filter 'auto-inserted scale 0' between the filter 'src' and the filter 'out'
[scale @ 0x7fc170424080] w:1920 h:1080 fmt:yuv422p10le -> w:1920 h:1080 fmt:yuv420p flags:0x4
Output #0, yuv4mpegpipe, to '/dev/null':
  Metadata:
    major_brand     : qt  
    minor_version   : 537199360
    compatible_brands: qt  
    creation_time   : 2012-01-21 01:27:41
    encoder         : Lavf53.30.100
    Stream #0:0(eng): Video: rawvideo (I420 / 0x30323449), yuv420p, 1920x1080, q=2-31, 200 kb/s, 90k tbn, 23.98 tbc
    Metadata:
      creation_time   : 2012-01-21 01:27:41
      handler_name    : ?Apple Alias Data Handler
Stream mapping:
  Stream #0:0 -> #0:0 (dnxhd -> rawvideo)
Press [q] to stop, [?] for help
[dnxhd @ 0x7fc1708bd600] Multiple ff_thread_finish_setup() calls
[dnxhd @ 0x7fc1708ef000] Multiple ff_thread_finish_setup() calls
[dnxhd @ 0x7fc1708e3c00] Multiple ff_thread_finish_setup() calls
[dnxhd @ 0x7fc1708e2000] Multiple ff_thread_finish_setup() calls
[dnxhd @ 0x7fc170901800] Multiple ff_thread_finish_setup() calls
[dnxhd @ 0x7fc170903e00] Multiple ff_thread_finish_setup() calls
[dnxhd @ 0x7fc170906400] Multiple ff_thread_finish_setup() calls
[dnxhd @ 0x7fc170908a00] Multiple ff_thread_finish_setup() calls
[dnxhd @ 0x7fc17090b000] Multiple ff_thread_finish_setup() calls
[dnxhd @ 0x7fc17090d600] Multiple ff_thread_finish_setup() calls
[dnxhd @ 0x7fc17090fc00] Multiple ff_thread_finish_setup() calls
[dnxhd @ 0x7fc170912200] Multiple ff_thread_finish_setup() calls
[dnxhd @ 0x7fc170914800] Multiple ff_thread_finish_setup() calls
[dnxhd @ 0x7fc170916e00] Multiple ff_thread_finish_setup() calls
[dnxhd @ 0x7fc170919400] Multiple ff_thread_finish_setup() calls
[dnxhd @ 0x7fc17091ba00] Multiple ff_thread_finish_setup() calls
[dnxhd @ 0x7fc1708bd600] Multiple ff_thread_finish_setup() calls
[dnxhd @ 0x7fc1708ef000] Multiple ff_thread_finish_setup() calls
[dnxhd @ 0x7fc1708e3c00] Multiple ff_thread_finish_setup() calls
[dnxhd @ 0x7fc1708e2000] Multiple ff_thread_finish_setup() calls
[dnxhd @ 0x7fc170901800] Multiple ff_thread_finish_setup() calls
[dnxhd @ 0x7fc170903e00] Multiple ff_thread_finish_setup() calls
[dnxhd @ 0x7fc170906400] Multiple ff_thread_finish_setup() calls
[dnxhd @ 0x7fc170908a00] Multiple ff_thread_finish_setup() calls
[dnxhd @ 0x7fc17090b000] Multiple ff_thread_finish_setup() calls
[dnxhd @ 0x7fc17090d600] Multiple ff_thread_finish_setup() calls
[dnxhd @ 0x7fc17090fc00] Multiple ff_thread_finish_setup() calls
[dnxhd @ 0x7fc170912200] Multiple ff_thread_finish_setup() calls
[dnxhd @ 0x7fc170914800] Multiple ff_thread_finish_setup() calls
[dnxhd @ 0x7fc170916e00] Multiple ff_thread_finish_setup() calls
[dnxhd @ 0x7fc170919400] Multiple ff_thread_finish_setup() calls
[dnxhd @ 0x7fc17091ba00] Multiple ff_thread_finish_setup() calls
[dnxhd @ 0x7fc1708bd600] Multiple ff_thread_finish_setup() calls
[dnxhd @ 0x7fc1708ef000] Multiple ff_thread_finish_setup() calls
[dnxhd @ 0x7fc1708e3c00] Multiple ff_thread_finish_setup() calls
[dnxhd @ 0x7fc1708e2000] Multiple ff_thread_finish_setup() calls
[dnxhd @ 0x7fc170901800] Multiple ff_thread_finish_setup() calls
[dnxhd @ 0x7fc170903e00] Multiple ff_thread_finish_setup() calls
[dnxhd @ 0x7fc170906400] Multiple ff_thread_finish_setup() calls
[dnxhd @ 0x7fc170908a00] Multiple ff_thread_finish_setup() calls
[dnxhd @ 0x7fc17090b000] Multiple ff_thread_finish_setup() calls
[dnxhd @ 0x7fc17090d600] Multiple ff_thread_finish_setup() calls
[dnxhd @ 0x7fc17090fc00] Multiple ff_thread_finish_setup() calls
[dnxhd @ 0x7fc170912200] Multiple ff_thread_finish_setup() calls
[dnxhd @ 0x7fc170914800] Multiple ff_thread_finish_setup() calls
[dnxhd @ 0x7fc170916e00] Multiple ff_thread_finish_setup() calls
[dnxhd @ 0x7fc170919400] Multiple ff_thread_finish_setup() calls
[dnxhd @ 0x7fc17091ba00] Multiple ff_thread_finish_setup() calls
[dnxhd @ 0x7fc1708bd600] Multiple ff_thread_finish_setup() calls
[dnxhd @ 0x7fc1708ef000] Multiple ff_thread_finish_setup() calls
[dnxhd @ 0x7fc1708e3c00] Multiple ff_thread_finish_setup() calls
[dnxhd @ 0x7fc1708e2000] Multiple ff_thread_finish_setup() calls
[dnxhd @ 0x7fc170901800] Multiple ff_thread_finish_setup() calls
[dnxhd @ 0x7fc170903e00] Multiple ff_thread_finish_setup() calls
[dnxhd @ 0x7fc170906400] Multiple ff_thread_finish_setup() calls
Multiple ff_thread_finish_setup() callskB time=00:00:01.66 bitrate=   0.0kbits/s  
... cut here ...

comment:3 Changed 4 years ago by STaRGaZeR

Try with the lastest git, I commited a patch that should fix this.

comment:4 Changed 4 years ago by cehoyos

  • Keywords dnxhd added
  • Resolution set to fixed
  • Status changed from new to closed
Note: See TracTickets for help on using tickets.