Opened 6 years ago

Closed 6 years ago

#91 closed defect (invalid)

ffplay - amv file plays upside-down

Reported by: ami_stuff Owned by:
Priority: normal Component: undetermined
Version: unspecified Keywords:
Cc: Blocked By:
Blocking: Reproduced by developer: no
Analyzed by developer: no

Description

amv file plays upside-down

http://samples.multimedia.cx/amv/test2.amv

C:\>ffplay "C:\test2.amv"
FFplay version git-N-29181-ga304071, Copyright (c) 2003-2011 the FFmpeg develope
rs
  built on Apr 18 2011 21:24:03 with gcc 4.5.2
  configuration: --enable-gpl --enable-version3 --enable-runtime-cpudetect --ena
ble-memalign-hack --enable-avisynth --enable-bzlib --enable-frei0r --enable-libo
pencore-amrnb --enable-libopencore-amrwb --enable-libfreetype --enable-libgsm --
enable-libmp3lame --enable-libopenjpeg --enable-librtmp --enable-libschroedinger
 --enable-libspeex --enable-libtheora --enable-libvorbis --enable-libvpx --enabl
e-libx264 --enable-libxavs --enable-libxvid --enable-zlib --cross-prefix=i686-w6
4-mingw32- --target-os=mingw32 --arch=x86_32 --extra-cflags=-I/home/kyle/softwar
e/ffmpeg/external-libraries/win32/include --extra-ldflags=-L/home/kyle/software/
ffmpeg/external-libraries/win32/lib --pkg-config=pkg-config
  libavutil    50. 40. 1 / 50. 40. 1
  libavcodec   52.120. 0 / 52.120. 0
  libavformat  52.108. 0 / 52.108. 0
  libavdevice  52.  4. 0 / 52.  4. 0
  libavfilter   1. 79. 0 /  1. 79. 0
  libswscale    0. 13. 0 /  0. 13. 0
[avi @ 01D5D4F0] scale/rate is 0/0 which is invalid. (This file has been generat
ed by broken software.)
    Last message repeated 1 times
Input #0, avi, from 'C:\test2.amv':
  Duration: 00:00:00.00, start: 0.000000, bitrate: -2147483 kb/s
    Stream #0.0: Video: amv, yuvj420p, 96x64, 8 tbr, 8 tbn, 8 tbc
    Stream #0.1: Audio: adpcm_ima_amv, 22050 Hz, 1 channels, s16, 352 kb/s
[ffsink @ 0x10d6ae30] auto-inserting filter 'auto-inserted scaler 0' between the filter 'src' and the filter 'out'
[scale @ 0x10d6b4b0] w:96 h:64 fmt:yuvj420p -> w:96 h:64 fmt:yuv420p flags:0x4
[amv @ 0x10d668b0] Can not flip image with CODEC_FLAG_EMU_EDGE set!

Change History (2)

comment:1 Changed 6 years ago by ami_stuff

ah my fault, I applied the patch by hand and changed

  • CODEC_CAP_DR1,

+ 0,

in AVCodec "ff_sp5x_decoder = {", but it should be done in "ff_amv_decoder = {",

so this ticket can be closed.

comment:2 Changed 6 years ago by cehoyos

  • Resolution set to invalid
  • Status changed from new to closed
Note: See TracTickets for help on using tickets.