Opened 2 years ago

Last modified 2 years ago

#8707 new defect

Audio ADTS error when m3u8 playlist has id3v2 tag

Reported by: Anan5a Owned by:
Priority: normal Component: undetermined
Version: git-master Keywords: aac
Cc: Blocked By:
Blocking: Reproduced by developer: no
Analyzed by developer: no

Description

Summary of the bug:

I'm trying to download a video from a VOD service. But when I access it using ffmpeg and try saving ffmpeg will fail with audio error. If i skip audio I can save the video, no problem.

How to reproduce:

    root@Debian-102-buster-64-minimal ~/mx2 # ffmpeg -i "https://<link-redacted>/index.m3u8?hdnea=st=1590939053~exp=1590942053~acl=/*~hmac=6b7a5de4831a50a9b7c680ef4f80f85fc60d137da166dcbe0c9ecf6aeacd9cfb" -c copy -y file.mkv
    ffmpeg version N-97423-g945b928730-anan5a-2020-04-21 Copyright (c) 2000-2020 the FFmpeg developers
      built with gcc 8 (Debian 8.3.0-6)
      configuration: --extra-version=anan5a-2020-04-21 --enable-gpl --enable-version3 --enable-static --enable-small --enable-avisynth --enable-chromaprint --enable-frei0r --enable-gmp --enable-gnutls --enable-ladspa --enable-libaom --enable-libass --enable-libcaca --enable-libcdio --enable-libcodec2 --enable-libfontconfig --enable-libfreetype --enable-libfribidi --enable-libgme --enable-libgsm --enable-libjack --enable-libmodplug --enable-libmp3lame --enable-libopencore-amrnb --enable-libopencore-amrwb --enable-libopencore-amrwb --enable-libopenjpeg --enable-libopenmpt --enable-libopus --enable-libpulse --enable-librsvg --enable-librubberband --enable-librtmp --enable-libshine --enable-libsnappy --enable-libsoxr --enable-libspeex --enable-libssh --enable-libtesseract --enable-libtheora --enable-libtwolame --enable-libv4l2 --enable-libvo-amrwbenc --enable-libvorbis --enable-libvpx --enable-libwavpack --enable-libwebp --enable-libx264 --enable-libx265 --enable-libxvid --enable-libxml2 --enable-libzmq --enable-libzvbi --enable-lv2 --enable-openal --enable-opencl --enable-opengl --enable-libdrm --enable-nonfree --enable-libfdk-aac --enable-libbluray --enable-libzimg
      libavutil      56. 42.102 / 56. 42.102
      libavcodec     58. 80.100 / 58. 80.100
      libavformat    58. 42.101 / 58. 42.101
      libavdevice    58.  9.103 / 58.  9.103
      libavfilter     7. 79.100 /  7. 79.100
      libswscale      5.  6.101 /  5.  6.101
      libswresample   3.  6.100 /  3.  6.100
      libpostproc    55.  6.100 / 55.  6.100
    [hls @ 0x5621afe0a240] Skip ('# Created with KeyOS MultiPack mp4-hls.py version 1.1.0r615')
    [hls @ 0x5621afe0a240] Skip ('#EXT-X-VERSION:4')
    [hls @ 0x5621afe0a240] Skip ('# Audio')
    [hls @ 0x5621afe0a240] Skip ('# Media Playlists')
    [hls @ 0x5621afe0a240] Skip ('# I-Frame Playlists')
    [hls @ 0x5621afe0a240] Skip ('#EXT-X-I-FRAME-STREAM-INF:AVERAGE-BANDWIDTH=22351,BANDWIDTH=22351,CODECS="avc1.64000C",RESOLUTION=300x144,URI="media-1/hdntl=exp=1591028160~acl=%2f*~data=hdntl~hmac=8280ff33a10a7520d79d5304e0be64ebfc8377b54dacd82fba4608d5908bb5c2/iframes.m3u8?aka_me_session_id=AAAAAAAAAADAKdVeAAAAACh5C5hgA4Ne5X+a44CTGFmsLmM4wFceNVWjG0b0Dk4kE57JjHePT4kKR%2fyD6zbuB5cfMAbEX3Xc"')
    [hls @ 0x5621afe0a240] Skip ('#EXT-X-I-FRAME-STREAM-INF:AVERAGE-BANDWIDTH=42201,BANDWIDTH=42201,CODECS="avc1.42C01E",RESOLUTION=502x240,URI="media-2/hdntl=exp=1591028160~acl=%2f*~data=hdntl~hmac=8280ff33a10a7520d79d5304e0be64ebfc8377b54dacd82fba4608d5908bb5c2/iframes.m3u8?aka_me_session_id=AAAAAAAAAADAKdVeAAAAACh5C5hgA4Ne5X+a44CTGFmsLmM4wFceNVWjG0b0Dk4kE57JjHePT4kKR%2fyD6zbuB5cfMAbEX3Xc"')
    [hls @ 0x5621afe0a240] Skip ('#EXT-X-I-FRAME-STREAM-INF:AVERAGE-BANDWIDTH=78608,BANDWIDTH=78608,CODECS="avc1.42C01E",RESOLUTION=752x360,URI="media-3/hdntl=exp=1591028160~acl=%2f*~data=hdntl~hmac=8280ff33a10a7520d79d5304e0be64ebfc8377b54dacd82fba4608d5908bb5c2/iframes.m3u8?aka_me_session_id=AAAAAAAAAADAKdVeAAAAACh5C5hgA4Ne5X+a44CTGFmsLmM4wFceNVWjG0b0Dk4kE57JjHePT4kKR%2fyD6zbuB5cfMAbEX3Xc"')
    [hls @ 0x5621afe0a240] Skip ('#EXT-X-I-FRAME-STREAM-INF:AVERAGE-BANDWIDTH=122813,BANDWIDTH=122813,CODECS="avc1.4D401F",RESOLUTION=1004x480,URI="media-4/hdntl=exp=1591028160~acl=%2f*~data=hdntl~hmac=8280ff33a10a7520d79d5304e0be64ebfc8377b54dacd82fba4608d5908bb5c2/iframes.m3u8?aka_me_session_id=AAAAAAAAAADAKdVeAAAAACh5C5hgA4Ne5X+a44CTGFmsLmM4wFceNVWjG0b0Dk4kE57JjHePT4kKR%2fyD6zbuB5cfMAbEX3Xc"')
    [hls @ 0x5621afe0a240] Skip ('#EXT-X-I-FRAME-STREAM-INF:AVERAGE-BANDWIDTH=170817,BANDWIDTH=170817,CODECS="avc1.4D401F",RESOLUTION=1204x576,URI="media-5/hdntl=exp=1591028160~acl=%2f*~data=hdntl~hmac=8280ff33a10a7520d79d5304e0be64ebfc8377b54dacd82fba4608d5908bb5c2/iframes.m3u8?aka_me_session_id=AAAAAAAAAADAKdVeAAAAACh5C5hgA4Ne5X+a44CTGFmsLmM4wFceNVWjG0b0Dk4kE57JjHePT4kKR%2fyD6zbuB5cfMAbEX3Xc"')
    [hls @ 0x5621afe0a240] Skip ('#EXT-X-I-FRAME-STREAM-INF:AVERAGE-BANDWIDTH=255456,BANDWIDTH=255456,CODECS="avc1.64001F",RESOLUTION=1506x720,URI="media-6/hdntl=exp=1591028160~acl=%2f*~data=hdntl~hmac=8280ff33a10a7520d79d5304e0be64ebfc8377b54dacd82fba4608d5908bb5c2/iframes.m3u8?aka_me_session_id=AAAAAAAAAADAKdVeAAAAACh5C5hgA4Ne5X+a44CTGFmsLmM4wFceNVWjG0b0Dk4kE57JjHePT4kKR%2fyD6zbuB5cfMAbEX3Xc"')
    [hls @ 0x5621afe0a240] Skip ('#EXT-X-I-FRAME-STREAM-INF:AVERAGE-BANDWIDTH=272377,BANDWIDTH=272377,CODECS="avc1.64001F",RESOLUTION=2260x1080,URI="media-7/hdntl=exp=1591028160~acl=%2f*~data=hdntl~hmac=8280ff33a10a7520d79d5304e0be64ebfc8377b54dacd82fba4608d5908bb5c2/iframes.m3u8?aka_me_session_id=AAAAAAAAAADAKdVeAAAAACh5C5hgA4Ne5X+a44CTGFmsLmM4wFceNVWjG0b0Dk4kE57JjHePT4kKR%2fyD6zbuB5cfMAbEX3Xc"')
    [hls @ 0x5621afe0a240] Opening 'https://<redacted>/audio/aac/en/hdntl=exp=1591028160~acl=%2f*~data=hdntl~hmac=8280ff33a10a7520d79d5304e0be64ebfc8377b54dacd82fba4608d5908bb5c2/stream.m3u8?aka_me_session_id=AAAAAAAAAADAKdVeAAAAACh5C5hgA4Ne5X+a44CTGFmsLmM4wFceNVWjG0b0Dk4kE57JjHePT4kKR%2fyD6zbuB5cfMAbEX3Xc' for reading
    [hls @ 0x5621afe0a240] Skip ('#EXT-X-VERSION:4')
    Input #0, hls, from 'https://<redacted>/index.m3u8?hdnea=st=1590939053~exp=1590942053~acl=/*~hmac=6b7a5de4831a50a9b7c680ef4f80f85fc60d137da166dcbe0c9ecf6aeacd9cfb':
      Duration: 01:53:22.68, start: 0.000000, bitrate: 0 kb/s
      Program 0 
        Metadata:
          variant_bitrate : 225453
        Stream #0:0(hi): Audio: aac, 48000 Hz, stereo, fltp, 4 kb/s (default)
        Metadata:
          variant_bitrate : 3195588
          id3v2_priv.com.apple.streaming.transportStreamTimestamp: \x00\x00\x00\x00\x00\x00\x00\x00
          comment         : हिन्दी
        Stream #0:1: Video: h264 ([27][0][0][0] / 0x001B), yuv420p, 300x144 [SAR 216:215 DAR 90:43], 25 fps, 25 tbr, 90k tbn, 50 tbc
        Metadata:
          variant_bitrate : 225453
      Program 1 
        Metadata:
          variant_bitrate : 380485
        Stream #0:0(hi): Audio: aac, 48000 Hz, stereo, fltp, 4 kb/s (default)
        Metadata:
          variant_bitrate : 3195588
          id3v2_priv.com.apple.streaming.transportStreamTimestamp: \x00\x00\x00\x00\x00\x00\x00\x00
          comment         : हिन्दी
        Stream #0:2: Video: h264 ([27][0][0][0] / 0x001B), yuv420p, 502x240 [SAR 1543:1542 DAR 387293:185040], 25 tbr, 90k tbn, 50 tbc
        Metadata:
          variant_bitrate : 380485
      Program 2 
        Metadata:
          variant_bitrate : 688769
        Stream #0:0(hi): Audio: aac, 48000 Hz, stereo, fltp, 4 kb/s (default)
        Metadata:
          variant_bitrate : 3195588
          id3v2_priv.com.apple.streaming.transportStreamTimestamp: \x00\x00\x00\x00\x00\x00\x00\x00
          comment         : हिन्दी
        Stream #0:3: Video: h264 ([27][0][0][0] / 0x001B), yuv420p, 752x360 [SAR 2025:2021 DAR 90:43], 25 tbr, 90k tbn, 50 tbc
        Metadata:
          variant_bitrate : 688769
      Program 3 
        Metadata:
          variant_bitrate : 893944
        Stream #0:0(hi): Audio: aac, 48000 Hz, stereo, fltp, 4 kb/s (default)
        Metadata:
          variant_bitrate : 3195588
          id3v2_priv.com.apple.streaming.transportStreamTimestamp: \x00\x00\x00\x00\x00\x00\x00\x00
          comment         : हिन्दी
        Stream #0:4: Video: h264 ([27][0][0][0] / 0x001B), yuv420p, 1004x480 [SAR 1543:1542 DAR 387293:185040], 25 fps, 25 tbr, 90k tbn, 50 tbc
        Metadata:
          variant_bitrate : 893944
      Program 4 
        Metadata:
          variant_bitrate : 1355444
        Stream #0:0(hi): Audio: aac, 48000 Hz, stereo, fltp, 4 kb/s (default)
        Metadata:
          variant_bitrate : 3195588
          id3v2_priv.com.apple.streaming.transportStreamTimestamp: \x00\x00\x00\x00\x00\x00\x00\x00
          comment         : हिन्दी
        Stream #0:5: Video: h264 ([27][0][0][0] / 0x001B), yuv420p, 1204x576 [SAR 2287:2284 DAR 688387:328896], 25 fps, 25 tbr, 90k tbn, 50 tbc
        Metadata:
          variant_bitrate : 1355444
      Program 5 
        Metadata:
          variant_bitrate : 2685829
        Stream #0:0(hi): Audio: aac, 48000 Hz, stereo, fltp, 4 kb/s (default)
        Metadata:
          variant_bitrate : 3195588
          id3v2_priv.com.apple.streaming.transportStreamTimestamp: \x00\x00\x00\x00\x00\x00\x00\x00
          comment         : हिन्दी
        Stream #0:6: Video: h264 ([27][0][0][0] / 0x001B), yuv420p, 1506x720 [SAR 1543:1542 DAR 387293:185040], 25 fps, 25 tbr, 90k tbn, 50 tbc
        Metadata:
          variant_bitrate : 2685829
      Program 6 
        Metadata:
          variant_bitrate : 3195588
        Stream #0:0(hi): Audio: aac, 48000 Hz, stereo, fltp, 4 kb/s (default)
        Metadata:
          variant_bitrate : 3195588
          id3v2_priv.com.apple.streaming.transportStreamTimestamp: \x00\x00\x00\x00\x00\x00\x00\x00
          comment         : हिन्दी
        Stream #0:7: Video: h264 ([27][0][0][0] / 0x001B), yuv420p, 2260x1080 [SAR 4096:4095 DAR 231424:110565], 25 fps, 25 tbr, 90k tbn, 50 tbc
        Metadata:
          variant_bitrate : 3195588
    Output #0, matroska, to 'file.mkv':
      Metadata:
        encoder         : Lavf58.42.101
        Stream #0:0: Video: h264 (H264 / 0x34363248), yuv420p, 2260x1080 [SAR 4096:4095 DAR 231424:110565], q=2-31, 25 fps, 25 tbr, 1k tbn, 90k tbc
        Metadata:
          variant_bitrate : 3195588
        Stream #0:1(hi): Audio: aac ([255][0][0][0] / 0x00FF), 48000 Hz, stereo, fltp, 4 kb/s (default)
        Metadata:
          variant_bitrate : 3195588
          id3v2_priv.com.apple.streaming.transportStreamTimestamp: \x00\x00\x00\x00\x00\x00\x00\x00
          comment         : हिन्दी
    Stream mapping:
      Stream #0:7 -> #0:0 (copy)
      Stream #0:0 -> #0:1 (copy)
    Press [q] to stop, [?] for help
    [hls @ 0x5621afe0a240] Opening 'crypto+https://<redacted>/audio/aac/en/hdntl=exp=1591028160~acl=%2f*~data=hdntl~hmac=8280ff33a10a7520d79d5304e0be64ebfc8377b54dacd82fba4608d5908bb5c2/segment-10.aac?aka_me_session_id=AAAAAAAAAADAKdVeAAAAACh5C5hgA4Ne5X+a44CTGFmsLmM4wFceNVWjG0b0Dk4kE57JjHePT4kKR%2fyD6zbuB5cfMAbEX3Xc&aka_msn=10&aka_hls_version=4' for reading
    [aac_adtstoasc @ 0x5621b0f69840] Error parsing ADTS frame header!
    [aac_adtstoasc @ 0x5621b0f69840] Failed to receive packet from filter aac_adtstoasc for stream 0
    [aac_adtstoasc @ 0x5621b0f69840] Error parsing ADTS frame header!
    [aac_adtstoasc @ 0x5621b0f69840] Failed to receive packet from filter aac_adtstoasc for stream 0
    [aac_adtstoasc @ 0x5621b0f69840] Error parsing ADTS frame header!
    [aac_adtstoasc @ 0x5621b0f69840] Failed to receive packet from filter aac_adtstoasc for stream 0
    [hls @ 0x5621afe0a240] Opening 'crypto+https://<redacted>/audio/aac/en/hdntl=exp=1591028160~acl=%2f*~data=hdntl~hmac=8280ff33a10a7520d79d5304e0be64ebfc8377b54dacd82fba4608d5908bb5c2/segment-12.aac?aka_me_session_id=AAAAAAAAAADAKdVeAAAAACh5C5hgA4Ne5X+a44CTGFmsLmM4wFceNVWjG0b0Dk4kE57JjHePT4kKR%2fyD6zbuB5cfMAbEX3Xc&aka_msn=12&aka_hls_version=4' for reading
    [aac_adtstoasc @ 0x5621b0f69840] Error parsing ADTS frame header!
    [aac_adtstoasc @ 0x5621b0f69840] Failed to receive packet from filter aac_adtstoasc for stream 0
    [aac_adtstoasc @ 0x5621b0f69840] Error parsing ADTS frame header!
    
    ...
    ...
    [hls @ 0x5621afe0a240] Opening 'crypto+https://<redacted>/audio/aac/en/hdntl=exp=1591028160~acl=%2f*~data=hdntl~hmac=8280ff33a10a7520d79d5304e0be64ebfc8377b54dacd82fba4608d5908bb5c2/segment-49.aac?aka_me_session_id=AAAAAAAAAADAKdVeAAAAACh5C5hgA4Ne5X+a44CTGFmsLmM4wFceNVWjG0b0Dk4kE57JjHePT4kKR%2fyD6zbuB5cfMAbEX3Xc&aka_msn=49&aka_hls_version=4' for reading
    [aac_adtstoasc @ 0x5621b0f69840] Multiple RDBs per frame with CRC is not implemented. Update your FFmpeg version to the newest one from Git. If the problem still occurs, it means that your file has a feature which has not been implemented.
    [aac_adtstoasc @ 0x5621b0f69840] Failed to receive packet from filter aac_adtstoasc for stream 0
    [hls @ 0x5621afe0a240] Opening 'crypto+https://<redacted>/media-7/hdntl=exp=1591028160~acl=%2f*~data=hdntl~hmac=8280ff33a10a7520d79d5304e0be64ebfc8377b54dacd82fba4608d5908bb5c2/segment-52.ts?aka_me_session_id=AAAAAAAAAADAKdVeAAAAACh5C5hgA4Ne5X+a44CTGFmsLmM4wFceNVWjG0b0Dk4kE57JjHePT4kKR%2fyD6zbuB5cfMAbEX3Xc&aka_msn=52&aka_hls_version=4' for reading
    
    https://<link-redacted>/index.m3u8?hdnea=st=1590939053~exp=1590942053~acl=/*~hmac=6b7a5de4831a50a9b7c680ef4f80f85fc60d137da166dcbe0c9ecf6aeacd9cfb: Invalid data found when processing input
    frame= 7821 fps=400 q=-1.0 Lsize=  123615kB time=00:05:12.83 bitrate=3237.1kbits/s speed=  16x    
    video:120028kB audio:3525kB subtitle:0kB other streams:0kB global headers:0kB muxing overhead: 0.050259%


I have tried using bitstream filter -bsf:a aac_adtstoasc but same ADTS error.
I think it is related to the id3 tag, because other videos from the same service without a id3 tag works fine!

How can I fix it? What's wrong? (The .ts on playlist are certainly not corrupted)

Change History (5)

comment:1 by Carl Eugen Hoyos, 2 years ago

Component: ffmpegundetermined
Keywords: aac added; ADTS error m3u8 id3v2 removed
Priority: importantnormal

Please provide input files that allow to reproduce the problem.

comment:2 by Anan5a, 2 years ago

Version: unspecifiedgit-master

in reply to:  1 comment:4 by Anan5a, 2 years ago

Replying to cehoyos:

Please provide input files that allow to reproduce the problem.

Please refer to this link for a working input http://pankajbd.com/a/z5/?content=https%3A%2F%2Fwww.zee5.com%2Fmovies%2Fdetails%2Fsaari-raat%2F0-0-saariraat

in reply to:  1 comment:5 by Anan5a, 2 years ago

Replying to cehoyos:

Please provide input files that allow to reproduce the problem.

Update with Git master version

{{{%
root@Debian-102-buster-64-minimal ~ # ffmpeg -i "https://zee5vodnd.akamaized.net/hls/PRIORITY1080/ZEAL_FOR_PEACE/SAARI_RAAT_ZEAL_FOR_PEACE.mp4/index.m3u8?hdnea=st=1591188104~exp=1591191104~acl=/*~hmac=46f8b55c8454bb2b89f88d6bf90c20472a5882241abfa54acd58ef9b6a5e89f9" -c copy /tmp/tt.mkv
ffmpeg version N-98034-gb6d7c4c1d4-anan5a-2020-06-03 Copyright (c) 2000-2020 the FFmpeg developers

built with gcc 8 (Debian 8.3.0-6)
configuration: --extra-version=anan5a-2020-06-03 --enable-gpl --enable-version3 --disable-shared --enable-static --enable-small --enable-avisynth --enable-chromaprint --enable-frei0r --enable-gmp --enable-gnutls --enable-ladspa --enable-libaom --enable-libass --enable-libcaca --enable-libcdio --enable-libcodec2 --enable-libfontconfig --enable-libfreetype --enable-libfribidi --enable-libgme --enable-libgsm --enable-libjack --enable-libmodplug --enable-libmp3lame --enable-libopencore-amrnb --enable-libopencore-amrwb --enable-libopencore-amrwb --enable-libopenjpeg --enable-libopenmpt --enable-libopus --enable-libpulse --enable-librsvg --enable-librubberband --enable-librtmp --enable-libshine --enable-libsnappy --enable-libsoxr --enable-libspeex --enable-libssh --enable-libtesseract --enable-libtheora --enable-libtwolame --enable-libv4l2 --enable-libvo-amrwbenc --enable-libvorbis --enable-libvpx --enable-libwavpack --enable-libwebp --enable-libx264 --enable-libx265 --enable-libxvid --enable-libxml2 --enable-libzmq --enable-libzvbi --enable-lv2 --enable-openal --enable-opencl --enable-opengl --enable-libdrm --enable-nonfree --enable-libfdk-aac --enable-libbluray --enable-libzimg
libavutil 56. 49.100 / 56. 49.100
libavcodec 58. 90.100 / 58. 90.100
libavformat 58. 44.100 / 58. 44.100
libavdevice 58. 9.103 / 58. 9.103
libavfilter 7. 84.100 / 7. 84.100
libswscale 5. 6.101 / 5. 6.101
libswresample 3. 6.100 / 3. 6.100
libpostproc 55. 6.100 / 55. 6.100

[hls @ 0x555b6d6f3240] Skip ('# Created with KeyOS MultiPack mp4-hls.py version 1.1.0r615')
[hls @ 0x555b6d6f3240] Skip ('#EXT-X-VERSION:4')
[hls @ 0x555b6d6f3240] Skip ('# Audio')
[hls @ 0x555b6d6f3240] Skip ('# Media Playlists')
[hls @ 0x555b6d6f3240] Skip ('# I-Frame Playlists')
[hls @ 0x555b6d6f3240] Skip ('#EXT-X-I-FRAME-STREAM-INF:AVERAGE-BANDWIDTH=23800,BANDWIDTH=23800,CODECS="avc1.64000C",RESOLUTION=256x144,URI="media-1/hdntl=exp=1591276530~acl=%2f*~data=hdntl~hmac=ee04e8df245b2c736a5b5b76e34df89acc1bdace4f3b64a867c1567056d05569/iframes.m3u8?aka_me_session_id=AAAAAAAAAADy89heAAAAAD%2fRMzCpFX9IwCMa59vbpIMc9o6wO4%2fnpDUIwVvOsoHcN5+N0nPJabxl0IS81DiOshnnsM1WB+5v"')
[hls @ 0x555b6d6f3240] Skip ('#EXT-X-I-FRAME-STREAM-INF:AVERAGE-BANDWIDTH=58312,BANDWIDTH=58312,CODECS="avc1.4D401E",RESOLUTION=426x240,URI="media-2/hdntl=exp=1591276530~acl=%2f*~data=hdntl~hmac=ee04e8df245b2c736a5b5b76e34df89acc1bdace4f3b64a867c1567056d05569/iframes.m3u8?aka_me_session_id=AAAAAAAAAADy89heAAAAAD%2fRMzCpFX9IwCMa59vbpIMc9o6wO4%2fnpDUIwVvOsoHcN5+N0nPJabxl0IS81DiOshnnsM1WB+5v"')
[hls @ 0x555b6d6f3240] Skip ('#EXT-X-I-FRAME-STREAM-INF:AVERAGE-BANDWIDTH=114946,BANDWIDTH=114946,CODECS="avc1.4D401E",RESOLUTION=640x360,URI="media-3/hdntl=exp=1591276530~acl=%2f*~data=hdntl~hmac=ee04e8df245b2c736a5b5b76e34df89acc1bdace4f3b64a867c1567056d05569/iframes.m3u8?aka_me_session_id=AAAAAAAAAADy89heAAAAAD%2fRMzCpFX9IwCMa59vbpIMc9o6wO4%2fnpDUIwVvOsoHcN5+N0nPJabxl0IS81DiOshnnsM1WB+5v"')
[hls @ 0x555b6d6f3240] Skip ('#EXT-X-I-FRAME-STREAM-INF:AVERAGE-BANDWIDTH=153393,BANDWIDTH=153393,CODECS="avc1.4D401F",RESOLUTION=852x480,URI="media-4/hdntl=exp=1591276530~acl=%2f*~data=hdntl~hmac=ee04e8df245b2c736a5b5b76e34df89acc1bdace4f3b64a867c1567056d05569/iframes.m3u8?aka_me_session_id=AAAAAAAAAADy89heAAAAAD%2fRMzCpFX9IwCMa59vbpIMc9o6wO4%2fnpDUIwVvOsoHcN5+N0nPJabxl0IS81DiOshnnsM1WB+5v"')
[hls @ 0x555b6d6f3240] Skip ('#EXT-X-I-FRAME-STREAM-INF:AVERAGE-BANDWIDTH=219008,BANDWIDTH=219008,CODECS="avc1.4D401F",RESOLUTION=1024x576,URI="media-5/hdntl=exp=1591276530~acl=%2f*~data=hdntl~hmac=ee04e8df245b2c736a5b5b76e34df89acc1bdace4f3b64a867c1567056d05569/iframes.m3u8?aka_me_session_id=AAAAAAAAAADy89heAAAAAD%2fRMzCpFX9IwCMa59vbpIMc9o6wO4%2fnpDUIwVvOsoHcN5+N0nPJabxl0IS81DiOshnnsM1WB+5v"')
[hls @ 0x555b6d6f3240] Skip ('#EXT-X-I-FRAME-STREAM-INF:AVERAGE-BANDWIDTH=352555,BANDWIDTH=352555,CODECS="avc1.64001F",RESOLUTION=1280x720,URI="media-6/hdntl=exp=1591276530~acl=%2f*~data=hdntl~hmac=ee04e8df245b2c736a5b5b76e34df89acc1bdace4f3b64a867c1567056d05569/iframes.m3u8?aka_me_session_id=AAAAAAAAAADy89heAAAAAD%2fRMzCpFX9IwCMa59vbpIMc9o6wO4%2fnpDUIwVvOsoHcN5+N0nPJabxl0IS81DiOshnnsM1WB+5v"')
[hls @ 0x555b6d6f3240] Skip ('#EXT-X-I-FRAME-STREAM-INF:AVERAGE-BANDWIDTH=396009,BANDWIDTH=396009,CODECS="avc1.64001F",RESOLUTION=1920x1080,URI="media-7/hdntl=exp=1591276530~acl=%2f*~data=hdntl~hmac=ee04e8df245b2c736a5b5b76e34df89acc1bdace4f3b64a867c1567056d05569/iframes.m3u8?aka_me_session_id=AAAAAAAAAADy89heAAAAAD%2fRMzCpFX9IwCMa59vbpIMc9o6wO4%2fnpDUIwVvOsoHcN5+N0nPJabxl0IS81DiOshnnsM1WB+5v"')
[hls @ 0x555b6d6f3240] Opening 'https://zee5vodnd.akamaized.net/hls/PRIORITY1080/ZEAL_FOR_PEACE/SAARI_RAAT_ZEAL_FOR_PEACE.mp4/audio/aac/en/hdntl=exp=1591276530~acl=%2f*~data=hdntl~hmac=ee04e8df245b2c736a5b5b76e34df89acc1bdace4f3b64a867c1567056d05569/stream.m3u8?aka_me_session_id=AAAAAAAAAADy89heAAAAAD%2fRMzCpFX9IwCMa59vbpIMc9o6wO4%2fnpDUIwVvOsoHcN5+N0nPJabxl0IS81DiOshnnsM1WB+5v' for reading
[hls @ 0x555b6d6f3240] Skip ('#EXT-X-VERSION:4')
[https @ 0x555b6d9f20c0] Opening 'https://zee5vodnd.akamaized.net/hls/PRIORITY1080/ZEAL_FOR_PEACE/SAARI_RAAT_ZEAL_FOR_PEACE.mp4/media-1/hdntl=exp=1591276530~acl=%2f*~data=hdntl~hmac=ee04e8df245b2c736a5b5b76e34df89acc1bdace4f3b64a867c1567056d05569/stream.m3u8?aka_me_session_id=AAAAAAAAAADy89heAAAAAD%2fRMzCpFX9IwCMa59vbpIMc9o6wO4%2fnpDUIwVvOsoHcN5+N0nPJabxl0IS81DiOshnnsM1WB+5v' for reading
[hls @ 0x555b6d6f3240] Skip ('#EXT-X-VERSION:4')
[hls @ 0x555b6d6f3240] Skip ('#EXT-X-INDEPENDENT-SEGMENTS')
[https @ 0x555b6d9f20c0] Opening 'https://zee5vodnd.akamaized.net/hls/PRIORITY1080/ZEAL_FOR_PEACE/SAARI_RAAT_ZEAL_FOR_PEACE.mp4/media-2/hdntl=exp=1591276530~acl=%2f*~data=hdntl~hmac=ee04e8df245b2c736a5b5b76e34df89acc1bdace4f3b64a867c1567056d05569/stream.m3u8?aka_me_session_id=AAAAAAAAAADy89heAAAAAD%2fRMzCpFX9IwCMa59vbpIMc9o6wO4%2fnpDUIwVvOsoHcN5+N0nPJabxl0IS81DiOshnnsM1WB+5v' for reading
[hls @ 0x555b6d6f3240] Skip ('#EXT-X-VERSION:4')
[hls @ 0x555b6d6f3240] Skip ('#EXT-X-INDEPENDENT-SEGMENTS')
[https @ 0x555b6d9f20c0] Opening 'https://zee5vodnd.akamaized.net/hls/PRIORITY1080/ZEAL_FOR_PEACE/SAARI_RAAT_ZEAL_FOR_PEACE.mp4/media-3/hdntl=exp=1591276530~acl=%2f*~data=hdntl~hmac=ee04e8df245b2c736a5b5b76e34df89acc1bdace4f3b64a867c1567056d05569/stream.m3u8?aka_me_session_id=AAAAAAAAAADy89heAAAAAD%2fRMzCpFX9IwCMa59vbpIMc9o6wO4%2fnpDUIwVvOsoHcN5+N0nPJabxl0IS81DiOshnnsM1WB+5v' for reading
[hls @ 0x555b6d6f3240] Skip ('#EXT-X-VERSION:4')
[hls @ 0x555b6d6f3240] Skip ('#EXT-X-INDEPENDENT-SEGMENTS')
[https @ 0x555b6d9f20c0] Opening 'https://zee5vodnd.akamaized.net/hls/PRIORITY1080/ZEAL_FOR_PEACE/SAARI_RAAT_ZEAL_FOR_PEACE.mp4/media-4/hdntl=exp=1591276530~acl=%2f*~data=hdntl~hmac=ee04e8df245b2c736a5b5b76e34df89acc1bdace4f3b64a867c1567056d05569/stream.m3u8?aka_me_session_id=AAAAAAAAAADy89heAAAAAD%2fRMzCpFX9IwCMa59vbpIMc9o6wO4%2fnpDUIwVvOsoHcN5+N0nPJabxl0IS81DiOshnnsM1WB+5v' for reading
[hls @ 0x555b6d6f3240] Skip ('#EXT-X-VERSION:4')
[hls @ 0x555b6d6f3240] Skip ('#EXT-X-INDEPENDENT-SEGMENTS')
[https @ 0x555b6d9f20c0] Opening 'https://zee5vodnd.akamaized.net/hls/PRIORITY1080/ZEAL_FOR_PEACE/SAARI_RAAT_ZEAL_FOR_PEACE.mp4/media-5/hdntl=exp=1591276530~acl=%2f*~data=hdntl~hmac=ee04e8df245b2c736a5b5b76e34df89acc1bdace4f3b64a867c1567056d05569/stream.m3u8?aka_me_session_id=AAAAAAAAAADy89heAAAAAD%2fRMzCpFX9IwCMa59vbpIMc9o6wO4%2fnpDUIwVvOsoHcN5+N0nPJabxl0IS81DiOshnnsM1WB+5v' for reading
[hls @ 0x555b6d6f3240] Skip ('#EXT-X-VERSION:4')
[hls @ 0x555b6d6f3240] Skip ('#EXT-X-INDEPENDENT-SEGMENTS')
[https @ 0x555b6d9f20c0] Opening 'https://zee5vodnd.akamaized.net/hls/PRIORITY1080/ZEAL_FOR_PEACE/SAARI_RAAT_ZEAL_FOR_PEACE.mp4/media-6/hdntl=exp=1591276530~acl=%2f*~data=hdntl~hmac=ee04e8df245b2c736a5b5b76e34df89acc1bdace4f3b64a867c1567056d05569/stream.m3u8?aka_me_session_id=AAAAAAAAAADy89heAAAAAD%2fRMzCpFX9IwCMa59vbpIMc9o6wO4%2fnpDUIwVvOsoHcN5+N0nPJabxl0IS81DiOshnnsM1WB+5v' for reading
[hls @ 0x555b6d6f3240] Skip ('#EXT-X-VERSION:4')
[hls @ 0x555b6d6f3240] Skip ('#EXT-X-INDEPENDENT-SEGMENTS')
[https @ 0x555b6d9f20c0] Opening 'https://zee5vodnd.akamaized.net/hls/PRIORITY1080/ZEAL_FOR_PEACE/SAARI_RAAT_ZEAL_FOR_PEACE.mp4/media-7/hdntl=exp=1591276530~acl=%2f*~data=hdntl~hmac=ee04e8df245b2c736a5b5b76e34df89acc1bdace4f3b64a867c1567056d05569/stream.m3u8?aka_me_session_id=AAAAAAAAAADy89heAAAAAD%2fRMzCpFX9IwCMa59vbpIMc9o6wO4%2fnpDUIwVvOsoHcN5+N0nPJabxl0IS81DiOshnnsM1WB+5v' for reading
[hls @ 0x555b6d6f3240] Skip ('#EXT-X-VERSION:4')
[hls @ 0x555b6d6f3240] Skip ('#EXT-X-INDEPENDENT-SEGMENTS')
[hls @ 0x555b6d6f3240] Opening 'https://zee5vodnd.akamaized.net/hls/PRIORITY1080/ZEAL_FOR_PEACE/SAARI_RAAT_ZEAL_FOR_PEACE.mp4/audio/aac/en/serve.key?hdntl=exp=1591276530~acl=/*~data=hdntl~hmac=ee04e8df245b2c736a5b5b76e34df89acc1bdace4f3b64a867c1567056d05569&aka_me_session_id=AAAAAAAAAADy89heAAAAAD%2fRMzCpFX9IwCMa59vbpIMc9o6wO4%2fnpDUIwVvOsoHcN5+N0nPJabxl0IS81DiOshnnsM1WB+5v' for reading
[hls @ 0x555b6d6f3240] Opening 'crypto+https://zee5vodnd.akamaized.net/hls/PRIORITY1080/ZEAL_FOR_PEACE/SAARI_RAAT_ZEAL_FOR_PEACE.mp4/audio/aac/en/hdntl=exp=1591276530~acl=%2f*~data=hdntl~hmac=ee04e8df245b2c736a5b5b76e34df89acc1bdace4f3b64a867c1567056d05569/segment-0.aac?aka_me_session_id=AAAAAAAAAADy89heAAAAAD%2fRMzCpFX9IwCMa59vbpIMc9o6wO4%2fnpDUIwVvOsoHcN5+N0nPJabxl0IS81DiOshnnsM1WB+5v&aka_msn=0&aka_hls_version=4' for reading
[hls @ 0x555b6d6f3240] Opening 'https://zee5vodnd.akamaized.net/hls/PRIORITY1080/ZEAL_FOR_PEACE/SAARI_RAAT_ZEAL_FOR_PEACE.mp4/media-1/serve.key?hdntl=exp=1591276530~acl=/*~data=hdntl~hmac=ee04e8df245b2c736a5b5b76e34df89acc1bdace4f3b64a867c1567056d05569&aka_me_session_id=AAAAAAAAAADy89heAAAAAD%2fRMzCpFX9IwCMa59vbpIMc9o6wO4%2fnpDUIwVvOsoHcN5+N0nPJabxl0IS81DiOshnnsM1WB+5v' for reading
[hls @ 0x555b6d6f3240] Opening 'crypto+https://zee5vodnd.akamaized.net/hls/PRIORITY1080/ZEAL_FOR_PEACE/SAARI_RAAT_ZEAL_FOR_PEACE.mp4/media-1/hdntl=exp=1591276530~acl=%2f*~data=hdntl~hmac=ee04e8df245b2c736a5b5b76e34df89acc1bdace4f3b64a867c1567056d05569/segment-0.ts?aka_me_session_id=AAAAAAAAAADy89heAAAAAD%2fRMzCpFX9IwCMa59vbpIMc9o6wO4%2fnpDUIwVvOsoHcN5+N0nPJabxl0IS81DiOshnnsM1WB+5v&aka_msn=0&aka_hls_version=4' for reading
[hls @ 0x555b6d6f3240] Opening 'https://zee5vodnd.akamaized.net/hls/PRIORITY1080/ZEAL_FOR_PEACE/SAARI_RAAT_ZEAL_FOR_PEACE.mp4/media-2/serve.key?hdntl=exp=1591276530~acl=/*~data=hdntl~hmac=ee04e8df245b2c736a5b5b76e34df89acc1bdace4f3b64a867c1567056d05569&aka_me_session_id=AAAAAAAAAADy89heAAAAAD%2fRMzCpFX9IwCMa59vbpIMc9o6wO4%2fnpDUIwVvOsoHcN5+N0nPJabxl0IS81DiOshnnsM1WB+5v' for reading
[hls @ 0x555b6d6f3240] Opening 'crypto+https://zee5vodnd.akamaized.net/hls/PRIORITY1080/ZEAL_FOR_PEACE/SAARI_RAAT_ZEAL_FOR_PEACE.mp4/media-2/hdntl=exp=1591276530~acl=%2f*~data=hdntl~hmac=ee04e8df245b2c736a5b5b76e34df89acc1bdace4f3b64a867c1567056d05569/segment-0.ts?aka_me_session_id=AAAAAAAAAADy89heAAAAAD%2fRMzCpFX9IwCMa59vbpIMc9o6wO4%2fnpDUIwVvOsoHcN5+N0nPJabxl0IS81DiOshnnsM1WB+5v&aka_msn=0&aka_hls_version=4' for reading
[hls @ 0x555b6d6f3240] Opening 'https://zee5vodnd.akamaized.net/hls/PRIORITY1080/ZEAL_FOR_PEACE/SAARI_RAAT_ZEAL_FOR_PEACE.mp4/media-3/serve.key?hdntl=exp=1591276530~acl=/*~data=hdntl~hmac=ee04e8df245b2c736a5b5b76e34df89acc1bdace4f3b64a867c1567056d05569&aka_me_session_id=AAAAAAAAAADy89heAAAAAD%2fRMzCpFX9IwCMa59vbpIMc9o6wO4%2fnpDUIwVvOsoHcN5+N0nPJabxl0IS81DiOshnnsM1WB+5v' for reading
[hls @ 0x555b6d6f3240] Opening 'crypto+https://zee5vodnd.akamaized.net/hls/PRIORITY1080/ZEAL_FOR_PEACE/SAARI_RAAT_ZEAL_FOR_PEACE.mp4/media-3/hdntl=exp=1591276530~acl=%2f*~data=hdntl~hmac=ee04e8df245b2c736a5b5b76e34df89acc1bdace4f3b64a867c1567056d05569/segment-0.ts?aka_me_session_id=AAAAAAAAAADy89heAAAAAD%2fRMzCpFX9IwCMa59vbpIMc9o6wO4%2fnpDUIwVvOsoHcN5+N0nPJabxl0IS81DiOshnnsM1WB+5v&aka_msn=0&aka_hls_version=4' for reading
[hls @ 0x555b6d6f3240] Opening 'https://zee5vodnd.akamaized.net/hls/PRIORITY1080/ZEAL_FOR_PEACE/SAARI_RAAT_ZEAL_FOR_PEACE.mp4/media-4/serve.key?hdntl=exp=1591276530~acl=/*~data=hdntl~hmac=ee04e8df245b2c736a5b5b76e34df89acc1bdace4f3b64a867c1567056d05569&aka_me_session_id=AAAAAAAAAADy89heAAAAAD%2fRMzCpFX9IwCMa59vbpIMc9o6wO4%2fnpDUIwVvOsoHcN5+N0nPJabxl0IS81DiOshnnsM1WB+5v' for reading
[hls @ 0x555b6d6f3240] Opening 'crypto+https://zee5vodnd.akamaized.net/hls/PRIORITY1080/ZEAL_FOR_PEACE/SAARI_RAAT_ZEAL_FOR_PEACE.mp4/media-4/hdntl=exp=1591276530~acl=%2f*~data=hdntl~hmac=ee04e8df245b2c736a5b5b76e34df89acc1bdace4f3b64a867c1567056d05569/segment-0.ts?aka_me_session_id=AAAAAAAAAADy89heAAAAAD%2fRMzCpFX9IwCMa59vbpIMc9o6wO4%2fnpDUIwVvOsoHcN5+N0nPJabxl0IS81DiOshnnsM1WB+5v&aka_msn=0&aka_hls_version=4' for reading
[hls @ 0x555b6d6f3240] Opening 'https://zee5vodnd.akamaized.net/hls/PRIORITY1080/ZEAL_FOR_PEACE/SAARI_RAAT_ZEAL_FOR_PEACE.mp4/media-5/serve.key?hdntl=exp=1591276530~acl=/*~data=hdntl~hmac=ee04e8df245b2c736a5b5b76e34df89acc1bdace4f3b64a867c1567056d05569&aka_me_session_id=AAAAAAAAAADy89heAAAAAD%2fRMzCpFX9IwCMa59vbpIMc9o6wO4%2fnpDUIwVvOsoHcN5+N0nPJabxl0IS81DiOshnnsM1WB+5v' for reading
[hls @ 0x555b6d6f3240] Opening 'crypto+https://zee5vodnd.akamaized.net/hls/PRIORITY1080/ZEAL_FOR_PEACE/SAARI_RAAT_ZEAL_FOR_PEACE.mp4/media-5/hdntl=exp=1591276530~acl=%2f*~data=hdntl~hmac=ee04e8df245b2c736a5b5b76e34df89acc1bdace4f3b64a867c1567056d05569/segment-0.ts?aka_me_session_id=AAAAAAAAAADy89heAAAAAD%2fRMzCpFX9IwCMa59vbpIMc9o6wO4%2fnpDUIwVvOsoHcN5+N0nPJabxl0IS81DiOshnnsM1WB+5v&aka_msn=0&aka_hls_version=4' for reading
[hls @ 0x555b6d6f3240] Opening 'https://zee5vodnd.akamaized.net/hls/PRIORITY1080/ZEAL_FOR_PEACE/SAARI_RAAT_ZEAL_FOR_PEACE.mp4/media-6/serve.key?hdntl=exp=1591276530~acl=/*~data=hdntl~hmac=ee04e8df245b2c736a5b5b76e34df89acc1bdace4f3b64a867c1567056d05569&aka_me_session_id=AAAAAAAAAADy89heAAAAAD%2fRMzCpFX9IwCMa59vbpIMc9o6wO4%2fnpDUIwVvOsoHcN5+N0nPJabxl0IS81DiOshnnsM1WB+5v' for reading
[hls @ 0x555b6d6f3240] Opening 'crypto+https://zee5vodnd.akamaized.net/hls/PRIORITY1080/ZEAL_FOR_PEACE/SAARI_RAAT_ZEAL_FOR_PEACE.mp4/media-6/hdntl=exp=1591276530~acl=%2f*~data=hdntl~hmac=ee04e8df245b2c736a5b5b76e34df89acc1bdace4f3b64a867c1567056d05569/segment-0.ts?aka_me_session_id=AAAAAAAAAADy89heAAAAAD%2fRMzCpFX9IwCMa59vbpIMc9o6wO4%2fnpDUIwVvOsoHcN5+N0nPJabxl0IS81DiOshnnsM1WB+5v&aka_msn=0&aka_hls_version=4' for reading
[hls @ 0x555b6d6f3240] Opening 'https://zee5vodnd.akamaized.net/hls/PRIORITY1080/ZEAL_FOR_PEACE/SAARI_RAAT_ZEAL_FOR_PEACE.mp4/media-7/serve.key?hdntl=exp=1591276530~acl=/*~data=hdntl~hmac=ee04e8df245b2c736a5b5b76e34df89acc1bdace4f3b64a867c1567056d05569&aka_me_session_id=AAAAAAAAAADy89heAAAAAD%2fRMzCpFX9IwCMa59vbpIMc9o6wO4%2fnpDUIwVvOsoHcN5+N0nPJabxl0IS81DiOshnnsM1WB+5v' for reading
[hls @ 0x555b6d6f3240] Opening 'crypto+https://zee5vodnd.akamaized.net/hls/PRIORITY1080/ZEAL_FOR_PEACE/SAARI_RAAT_ZEAL_FOR_PEACE.mp4/media-7/hdntl=exp=1591276530~acl=%2f*~data=hdntl~hmac=ee04e8df245b2c736a5b5b76e34df89acc1bdace4f3b64a867c1567056d05569/segment-0.ts?aka_me_session_id=AAAAAAAAAADy89heAAAAAD%2fRMzCpFX9IwCMa59vbpIMc9o6wO4%2fnpDUIwVvOsoHcN5+N0nPJabxl0IS81DiOshnnsM1WB+5v&aka_msn=0&aka_hls_version=4' for reading
Input #0, hls, from 'https://zee5vodnd.akamaized.net/hls/PRIORITY1080/ZEAL_FOR_PEACE/SAARI_RAAT_ZEAL_FOR_PEACE.mp4/index.m3u8?hdnea=st=1591188104~exp=1591191104~acl=/*~hmac=46f8b55c8454bb2b89f88d6bf90c20472a5882241abfa54acd58ef9b6a5e89f9':

Duration: 01:21:33.56, start: 0.000000, bitrate: 0 kb/s
Program 0

Metadata:

variant_bitrate : 226578

Stream #0:0(en): Audio: aac, 48000 Hz, stereo, fltp, 93 kb/s (default)
Metadata:

variant_bitrate : 3187435
id3v2_priv.com.apple.streaming.transportStreamTimestamp: \x00\x00\x00\x00\x00\x00\x00\x00
comment : English

Stream #0:1: Video: h264 ([27][0][0][0] / 0x001B), yuv420p, 256x144, 25 fps, 25 tbr, 90k tbn, 50 tbc
Metadata:

variant_bitrate : 226578

Program 1

Metadata:

variant_bitrate : 378232

Stream #0:0(en): Audio: aac, 48000 Hz, stereo, fltp, 93 kb/s (default)
Metadata:

variant_bitrate : 3187435
id3v2_priv.com.apple.streaming.transportStreamTimestamp: \x00\x00\x00\x00\x00\x00\x00\x00
comment : English

Stream #0:2: Video: h264 ([27][0][0][0] / 0x001B), yuv420p, 426x240, 25 fps, 25 tbr, 90k tbn, 50 tbc
Metadata:

variant_bitrate : 378232

Program 2

Metadata:

variant_bitrate : 684207

Stream #0:0(en): Audio: aac, 48000 Hz, stereo, fltp, 93 kb/s (default)
Metadata:

variant_bitrate : 3187435
id3v2_priv.com.apple.streaming.transportStreamTimestamp: \x00\x00\x00\x00\x00\x00\x00\x00
comment : English

Stream #0:3: Video: h264 ([27][0][0][0] / 0x001B), yuv420p, 640x360, 25 fps, 25 tbr, 90k tbn, 50 tbc
Metadata:

variant_bitrate : 684207

Program 3

Metadata:

variant_bitrate : 886032

Stream #0:0(en): Audio: aac, 48000 Hz, stereo, fltp, 93 kb/s (default)
Metadata:

variant_bitrate : 3187435
id3v2_priv.com.apple.streaming.transportStreamTimestamp: \x00\x00\x00\x00\x00\x00\x00\x00
comment : English

Stream #0:4: Video: h264 ([27][0][0][0] / 0x001B), yuv420p, 852x480, 25 fps, 25 tbr, 90k tbn, 50 tbc
Metadata:

variant_bitrate : 886032

Program 4

Metadata:

variant_bitrate : 1346045

Stream #0:0(en): Audio: aac, 48000 Hz, stereo, fltp, 93 kb/s (default)
Metadata:

variant_bitrate : 3187435
id3v2_priv.com.apple.streaming.transportStreamTimestamp: \x00\x00\x00\x00\x00\x00\x00\x00
comment : English

Stream #0:5: Video: h264 ([27][0][0][0] / 0x001B), yuv420p, 1024x576, 25 fps, 25 tbr, 90k tbn, 50 tbc
Metadata:

variant_bitrate : 1346045

Program 5

Metadata:

variant_bitrate : 2667211

Stream #0:0(en): Audio: aac, 48000 Hz, stereo, fltp, 93 kb/s (default)
Metadata:

variant_bitrate : 3187435
id3v2_priv.com.apple.streaming.transportStreamTimestamp: \x00\x00\x00\x00\x00\x00\x00\x00
comment : English

Stream #0:6: Video: h264 ([27][0][0][0] / 0x001B), yuv420p, 1280x720, 25 fps, 25 tbr, 90k tbn, 50 tbc
Metadata:

variant_bitrate : 2667211

Program 6

Metadata:

variant_bitrate : 3187435

Stream #0:0(en): Audio: aac, 48000 Hz, stereo, fltp, 93 kb/s (default)
Metadata:

variant_bitrate : 3187435
id3v2_priv.com.apple.streaming.transportStreamTimestamp: \x00\x00\x00\x00\x00\x00\x00\x00
comment : English

Stream #0:7: Video: h264 ([27][0][0][0] / 0x001B), yuv420p, 1920x1080, 25 fps, 25 tbr, 90k tbn, 50 tbc
Metadata:

variant_bitrate : 3187435

Output #0, matroska, to '/tmp/tt.mkv':

Metadata:

encoder : Lavf58.44.100
Stream #0:0: Video: h264 (H264 / 0x34363248), yuv420p, 1920x1080, q=2-31, 25 fps, 25 tbr, 1k tbn, 90k tbc
Metadata:

variant_bitrate : 3187435

Stream #0:1(en): Audio: aac ([255][0][0][0] / 0x00FF), 48000 Hz, stereo, fltp, 93 kb/s (default)
Metadata:

variant_bitrate : 3187435
id3v2_priv.com.apple.streaming.transportStreamTimestamp: \x00\x00\x00\x00\x00\x00\x00\x00
comment : English

Stream mapping:

Stream #0:7 -> #0:0 (copy)
Stream #0:0 -> #0:1 (copy)

Press [q] to stop, ? for help
[hls @ 0x555b6d6f3240] No longer receiving playlist 1 ('https://zee5vodnd.akamaized.net/hls/PRIORITY1080/ZEAL_FOR_PEACE/SAARI_RAAT_ZEAL_FOR_PEACE.mp4/media-1/hdntl=exp=1591276530~acl=%2f*~data=hdntl~hmac=ee04e8df245b2c736a5b5b76e34df89acc1bdace4f3b64a867c1567056d05569/stream.m3u8?aka_me_session_id=AAAAAAAAAADy89heAAAAAD%2fRMzCpFX9IwCMa59vbpIMc9o6wO4%2fnpDUIwVvOsoHcN5+N0nPJabxl0IS81DiOshnnsM1WB+5v')
[hls @ 0x555b6d6f3240] No longer receiving playlist 2 ('https://zee5vodnd.akamaized.net/hls/PRIORITY1080/ZEAL_FOR_PEACE/SAARI_RAAT_ZEAL_FOR_PEACE.mp4/media-2/hdntl=exp=1591276530~acl=%2f*~data=hdntl~hmac=ee04e8df245b2c736a5b5b76e34df89acc1bdace4f3b64a867c1567056d05569/stream.m3u8?aka_me_session_id=AAAAAAAAAADy89heAAAAAD%2fRMzCpFX9IwCMa59vbpIMc9o6wO4%2fnpDUIwVvOsoHcN5+N0nPJabxl0IS81DiOshnnsM1WB+5v')
[hls @ 0x555b6d6f3240] No longer receiving playlist 3 ('https://zee5vodnd.akamaized.net/hls/PRIORITY1080/ZEAL_FOR_PEACE/SAARI_RAAT_ZEAL_FOR_PEACE.mp4/media-3/hdntl=exp=1591276530~acl=%2f*~data=hdntl~hmac=ee04e8df245b2c736a5b5b76e34df89acc1bdace4f3b64a867c1567056d05569/stream.m3u8?aka_me_session_id=AAAAAAAAAADy89heAAAAAD%2fRMzCpFX9IwCMa59vbpIMc9o6wO4%2fnpDUIwVvOsoHcN5+N0nPJabxl0IS81DiOshnnsM1WB+5v')
[hls @ 0x555b6d6f3240] No longer receiving playlist 4 ('https://zee5vodnd.akamaized.net/hls/PRIORITY1080/ZEAL_FOR_PEACE/SAARI_RAAT_ZEAL_FOR_PEACE.mp4/media-4/hdntl=exp=1591276530~acl=%2f*~data=hdntl~hmac=ee04e8df245b2c736a5b5b76e34df89acc1bdace4f3b64a867c1567056d05569/stream.m3u8?aka_me_session_id=AAAAAAAAAADy89heAAAAAD%2fRMzCpFX9IwCMa59vbpIMc9o6wO4%2fnpDUIwVvOsoHcN5+N0nPJabxl0IS81DiOshnnsM1WB+5v')
[hls @ 0x555b6d6f3240] No longer receiving playlist 5 ('https://zee5vodnd.akamaized.net/hls/PRIORITY1080/ZEAL_FOR_PEACE/SAARI_RAAT_ZEAL_FOR_PEACE.mp4/media-5/hdntl=exp=1591276530~acl=%2f*~data=hdntl~hmac=ee04e8df245b2c736a5b5b76e34df89acc1bdace4f3b64a867c1567056d05569/stream.m3u8?aka_me_session_id=AAAAAAAAAADy89heAAAAAD%2fRMzCpFX9IwCMa59vbpIMc9o6wO4%2fnpDUIwVvOsoHcN5+N0nPJabxl0IS81DiOshnnsM1WB+5v')
[hls @ 0x555b6d6f3240] No longer receiving playlist 6 ('https://zee5vodnd.akamaized.net/hls/PRIORITY1080/ZEAL_FOR_PEACE/SAARI_RAAT_ZEAL_FOR_PEACE.mp4/media-6/hdntl=exp=1591276530~acl=%2f*~data=hdntl~hmac=ee04e8df245b2c736a5b5b76e34df89acc1bdace4f3b64a867c1567056d05569/stream.m3u8?aka_me_session_id=AAAAAAAAAADy89heAAAAAD%2fRMzCpFX9IwCMa59vbpIMc9o6wO4%2fnpDUIwVvOsoHcN5+N0nPJabxl0IS81DiOshnnsM1WB+5v')
[hls @ 0x555b6d6f3240] Opening 'crypto+https://zee5vodnd.akamaized.net/hls/PRIORITY1080/ZEAL_FOR_PEACE/SAARI_RAAT_ZEAL_FOR_PEACE.mp4/media-7/hdntl=exp=1591276530~acl=%2f*~data=hdntl~hmac=ee04e8df245b2c736a5b5b76e34df89acc1bdace4f3b64a867c1567056d05569/segment-1.ts?aka_me_session_id=AAAAAAAAAADy89heAAAAAD%2fRMzCpFX9IwCMa59vbpIMc9o6wO4%2fnpDUIwVvOsoHcN5+N0nPJabxl0IS81DiOshnnsM1WB+5v&aka_msn=1&aka_hls_version=4' for reading
[hls @ 0x555b6d6f3240] Opening 'crypto+https://zee5vodnd.akamaized.net/hls/PRIORITY1080/ZEAL_FOR_PEACE/SAARI_RAAT_ZEAL_FOR_PEACE.mp4/audio/aac/en/hdntl=exp=1591276530~acl=%2f*~data=hdntl~hmac=ee04e8df245b2c736a5b5b76e34df89acc1bdace4f3b64a867c1567056d05569/segment-1.aac?aka_me_session_id=AAAAAAAAAADy89heAAAAAD%2fRMzCpFX9IwCMa59vbpIMc9o6wO4%2fnpDUIwVvOsoHcN5+N0nPJabxl0IS81DiOshnnsM1WB+5v&aka_msn=1&aka_hls_version=4' for reading
[hls @ 0x555b6d6f3240] Opening 'crypto+https://zee5vodnd.akamaized.net/hls/PRIORITY1080/ZEAL_FOR_PEACE/SAARI_RAAT_ZEAL_FOR_PEACE.mp4/media-7/hdntl=exp=1591276530~acl=%2f*~data=hdntl~hmac=ee04e8df245b2c736a5b5b76e34df89acc1bdace4f3b64a867c1567056d05569/segment-2.ts?aka_me_session_id=AAAAAAAAAADy89heAAAAAD%2fRMzCpFX9IwCMa59vbpIMc9o6wO4%2fnpDUIwVvOsoHcN5+N0nPJabxl0IS81DiOshnnsM1WB+5v&aka_msn=2&aka_hls_version=4' for reading
[hls @ 0x555b6d6f3240] Opening 'crypto+https://zee5vodnd.akamaized.net/hls/PRIORITY1080/ZEAL_FOR_PEACE/SAARI_RAAT_ZEAL_FOR_PEACE.mp4/audio/aac/en/hdntl=exp=1591276530~acl=%2f*~data=hdntl~hmac=ee04e8df245b2c736a5b5b76e34df89acc1bdace4f3b64a867c1567056d05569/segment-2.aac?aka_me_session_id=AAAAAAAAAADy89heAAAAAD%2fRMzCpFX9IwCMa59vbpIMc9o6wO4%2fnpDUIwVvOsoHcN5+N0nPJabxl0IS81DiOshnnsM1WB+5v&aka_msn=2&aka_hls_version=4' for reading
frame= 301 fps=0.0 q=-1.0 size= 1280kB time=00:00:12.03 bitrate= 871.5kbi[hls @ 0x555b6d6f3240] Opening 'crypto+https://zee5vodnd.akamaized.net/hls/PRIORITY1080/ZEAL_FOR_PEACE/SAARI_RAAT_ZEAL_FOR_PEACE.mp4/media-7/hdntl=exp=1591276530~acl=%2f*~data=hdntl~hmac=ee04e8df245b2c736a5b5b76e34df89acc1bdace4f3b64a867c1567056d05569/segment-3.ts?aka_me_session_id=AAAAAAAAAADy89heAAAAAD%2fRMzCpFX9IwCMa59vbpIMc9o6wO4%2fnpDUIwVvOsoHcN5+N0nPJabxl0IS81DiOshnnsM1WB+5v&aka_msn=3&aka_hls_version=4' for reading
[hls @ 0x555b6d6f3240] Opening 'crypto+https://zee5vodnd.akamaized.net/hls/PRIORITY1080/ZEAL_FOR_PEACE/SAARI_RAAT_ZEAL_FOR_PEACE.mp4/audio/aac/en/hdntl=exp=1591276530~acl=%2f*~data=hdntl~hmac=ee04e8df245b2c736a5b5b76e34df89acc1bdace4f3b64a867c1567056d05569/segment-3.aac?aka_me_session_id=AAAAAAAAAADy89heAAAAAD%2fRMzCpFX9IwCMa59vbpIMc9o6wO4%2fnpDUIwVvOsoHcN5+N0nPJabxl0IS81DiOshnnsM1WB+5v&aka_msn=3&aka_hls_version=4' for reading
[hls @ 0x555b6d6f3240] Opening 'crypto+https://zee5vodnd.akamaized.net/hls/PRIORITY1080/ZEAL_FOR_PEACE/SAARI_RAAT_ZEAL_FOR_PEACE.mp4/media-7/hdntl=exp=1591276530~acl=%2f*~data=hdntl~hmac=ee04e8df245b2c736a5b5b76e34df89acc1bdace4f3b64a867c1567056d05569/segment-4.ts?aka_me_session_id=AAAAAAAAAADy89heAAAAAD%2fRMzCpFX9IwCMa59vbpIMc9o6wO4%2fnpDUIwVvOsoHcN5+N0nPJabxl0IS81DiOshnnsM1WB+5v&aka_msn=4&aka_hls_version=4' for reading
[hls @ 0x555b6d6f3240] Opening 'crypto+https://zee5vodnd.akamaized.net/hls/PRIORITY1080/ZEAL_FOR_PEACE/SAARI_RAAT_ZEAL_FOR_PEACE.mp4/audio/aac/en/hdntl=exp=1591276530~acl=%2f*~data=hdntl~hmac=ee04e8df245b2c736a5b5b76e34df89acc1bdace4f3b64a867c1567056d05569/segment-4.aac?aka_me_session_id=AAAAAAAAAADy89heAAAAAD%2fRMzCpFX9IwCMa59vbpIMc9o6wO4%2fnpDUIwVvOsoHcN5+N0nPJabxl0IS81DiOshnnsM1WB+5v&aka_msn=4&aka_hls_version=4' for reading
[hls @ 0x555b6d6f3240] Opening 'crypto+https://zee5vodnd.akamaized.net/hls/PRIORITY1080/ZEAL_FOR_PEACE/SAARI_RAAT_ZEAL_FOR_PEACE.mp4/media-7/hdntl=exp=1591276530~acl=%2f*~data=hdntl~hmac=ee04e8df245b2c736a5b5b76e34df89acc1bdace4f3b64a867c1567056d05569/segment-5.ts?aka_me_session_id=AAAAAAAAAADy89heAAAAAD%2fRMzCpFX9IwCMa59vbpIMc9o6wO4%2fnpDUIwVvOsoHcN5+N0nPJabxl0IS81DiOshnnsM1WB+5v&aka_msn=5&aka_hls_version=4' for reading
frame= 748 fps=697 q=-1.0 size= 2560kB time=00:00:29.90 bitrate= 701.2kbi[hls @ 0x555b6d6f3240] Opening 'crypto+https://zee5vodnd.akamaized.net/hls/PRIORITY1080/ZEAL_FOR_PEACE/SAARI_RAAT_ZEAL_FOR_PEACE.mp4/audio/aac/en/hdntl=exp=1591276530~acl=%2f*~data=hdntl~hmac=ee04e8df245b2c736a5b5b76e34df89acc1bdace4f3b64a867c1567056d05569/segment-5.aac?aka_me_session_id=AAAAAAAAAADy89heAAAAAD%2fRMzCpFX9IwCMa59vbpIMc9o6wO4%2fnpDUIwVvOsoHcN5+N0nPJabxl0IS81DiOshnnsM1WB+5v&aka_msn=5&aka_hls_version=4' for reading
[hls @ 0x555b6d6f3240] Opening 'crypto+https://zee5vodnd.akamaized.net/hls/PRIORITY1080/ZEAL_FOR_PEACE/SAARI_RAAT_ZEAL_FOR_PEACE.mp4/media-7/hdntl=exp=1591276530~acl=%2f*~data=hdntl~hmac=ee04e8df245b2c736a5b5b76e34df89acc1bdace4f3b64a867c1567056d05569/segment-6.ts?aka_me_session_id=AAAAAAAAAADy89heAAAAAD%2fRMzCpFX9IwCMa59vbpIMc9o6wO4%2fnpDUIwVvOsoHcN5+N0nPJabxl0IS81DiOshnnsM1WB+5v&aka_msn=6&aka_hls_version=4' for reading
[hls @ 0x555b6d6f3240] Opening 'crypto+https://zee5vodnd.akamaized.net/hls/PRIORITY1080/ZEAL_FOR_PEACE/SAARI_RAAT_ZEAL_FOR_PEACE.mp4/audio/aac/en/hdntl=exp=1591276530~acl=%2f*~data=hdntl~hmac=ee04e8df245b2c736a5b5b76e34df89acc1bdace4f3b64a867c1567056d05569/segment-6.aac?aka_me_session_id=AAAAAAAAAADy89heAAAAAD%2fRMzCpFX9IwCMa59vbpIMc9o6wO4%2fnpDUIwVvOsoHcN5+N0nPJabxl0IS81DiOshnnsM1WB+5v&aka_msn=6&aka_hls_version=4' for reading
[hls @ 0x555b6d6f3240] Opening 'crypto+https://zee5vodnd.akamaized.net/hls/PRIORITY1080/ZEAL_FOR_PEACE/SAARI_RAAT_ZEAL_FOR_PEACE.mp4/media-7/hdntl=exp=1591276530~acl=%2f*~data=hdntl~hmac=ee04e8df245b2c736a5b5b76e34df89acc1bdace4f3b64a867c1567056d05569/segment-7.ts?aka_me_session_id=AAAAAAAAAADy89heAAAAAD%2fRMzCpFX9IwCMa59vbpIMc9o6wO4%2fnpDUIwVvOsoHcN5+N0nPJabxl0IS81DiOshnnsM1WB+5v&aka_msn=7&aka_hls_version=4' for reading
[hls @ 0x555b6d6f3240] Opening 'crypto+https://zee5vodnd.akamaized.net/hls/PRIORITY1080/ZEAL_FOR_PEACE/SAARI_RAAT_ZEAL_FOR_PEACE.mp4/audio/aac/en/hdntl=exp=1591276530~acl=%2f*~data=hdntl~hmac=ee04e8df245b2c736a5b5b76e34df89acc1bdace4f3b64a867c1567056d05569/segment-7.aac?aka_me_session_id=AAAAAAAAAADy89heAAAAAD%2fRMzCpFX9IwCMa59vbpIMc9o6wO4%2fnpDUIwVvOsoHcN5+N0nPJabxl0IS81DiOshnnsM1WB+5v&aka_msn=7&aka_hls_version=4' for reading
frame= 1053 fps=644 q=-1.0 size= 4352kB time=00:00:42.11 bitrate= 846.6kbi[hls @ 0x555b6d6f3240] Opening 'crypto+https://zee5vodnd.akamaized.net/hls/PRIORITY1080/ZEAL_FOR_PEACE/SAARI_RAAT_ZEAL_FOR_PEACE.mp4/media-7/hdntl=exp=1591276530~acl=%2f*~data=hdntl~hmac=ee04e8df245b2c736a5b5b76e34df89acc1bdace4f3b64a867c1567056d05569/segment-8.ts?aka_me_session_id=AAAAAAAAAADy89heAAAAAD%2fRMzCpFX9IwCMa59vbpIMc9o6wO4%2fnpDUIwVvOsoHcN5+N0nPJabxl0IS81DiOshnnsM1WB+5v&aka_msn=8&aka_hls_version=4' for reading
[hls @ 0x555b6d6f3240] Opening 'crypto+https://zee5vodnd.akamaized.net/hls/PRIORITY1080/ZEAL_FOR_PEACE/SAARI_RAAT_ZEAL_FOR_PEACE.mp4/audio/aac/en/hdntl=exp=1591276530~acl=%2f*~data=hdntl~hmac=ee04e8df245b2c736a5b5b76e34df89acc1bdace4f3b64a867c1567056d05569/segment-8.aac?aka_me_session_id=AAAAAAAAAADy89heAAAAAD%2fRMzCpFX9IwCMa59vbpIMc9o6wO4%2fnpDUIwVvOsoHcN5+N0nPJabxl0IS81DiOshnnsM1WB+5v&aka_msn=8&aka_hls_version=4' for reading
[hls @ 0x555b6d6f3240] Opening 'crypto+https://zee5vodnd.akamaized.net/hls/PRIORITY1080/ZEAL_FOR_PEACE/SAARI_RAAT_ZEAL_FOR_PEACE.mp4/audio/aac/en/hdntl=exp=1591276530~acl=%2f*~data=hdntl~hmac=ee04e8df245b2c736a5b5b76e34df89acc1bdace4f3b64a867c1567056d05569/segment-9.aac?aka_me_session_id=AAAAAAAAAADy89heAAAAAD%2fRMzCpFX9IwCMa59vbpIMc9o6wO4%2fnpDUIwVvOsoHcN5+N0nPJabxl0IS81DiOshnnsM1WB+5v&aka_msn=9&aka_hls_version=4' for reading
[hls @ 0x555b6d6f3240] Opening 'crypto+https://zee5vodnd.akamaized.net/hls/PRIORITY1080/ZEAL_FOR_PEACE/SAARI_RAAT_ZEAL_FOR_PEACE.mp4/media-7/hdntl=exp=1591276530~acl=%2f*~data=hdntl~hmac=ee04e8df245b2c736a5b5b76e34df89acc1bdace4f3b64a867c1567056d05569/segment-9.ts?aka_me_session_id=AAAAAAAAAADy89heAAAAAD%2fRMzCpFX9IwCMa59vbpIMc9o6wO4%2fnpDUIwVvOsoHcN5+N0nPJabxl0IS81DiOshnnsM1WB+5v&aka_msn=9&aka_hls_version=4' for reading
frame= 1446 fps=677 q=-1.0 size= 5888kB time=00:00:57.83 bitrate= 834.0kbiframe= 1452 fps=535 q=-1.0 size= 7936kB time=00:00:58.06 bitrate=1119.6kbiframe= 1453 fps=436 q=-1.0 size= 7936kB time=00:00:58.11 bitrate=1118.7kbiframe= 1469 fps=359 q=-1.0 size= 7936kB time=00:00:58.75 bitrate=1106.5kbiframe= 1471 fps=299 q=-1.0 size= 7936kB time=00:00:58.83 bitrate=1104.9kbiframe= 1474 fps=256 q=-1.0 size= 7936kB time=00:00:58.92 bitrate=1103.4kbiframe= 1474 fps=234 q=-1.0 size= 7936kB time=00:00:58.94 bitrate=1102.9kbi[hls @ 0x555b6d6f3240] Opening 'crypto+https://zee5vodnd.akamaized.net/hls/PRIORITY1080/ZEAL_FOR_PEACE/SAARI_RAAT_ZEAL_FOR_PEACE.mp4/media-7/hdntl=exp=1591276530~acl=%2f*~data=hdntl~hmac=ee04e8df245b2c736a5b5b76e34df89acc1bdace4f3b64a867c1567056d05569/segment-10.ts?aka_me_session_id=AAAAAAAAAADy89heAAAAAD%2fRMzCpFX9IwCMa59vbpIMc9o6wO4%2fnpDUIwVvOsoHcN5+N0nPJabxl0IS81DiOshnnsM1WB+5v&aka_msn=10&aka_hls_version=4' for reading
[hls @ 0x555b6d6f3240] Opening 'crypto+https://zee5vodnd.akamaized.net/hls/PRIORITY1080/ZEAL_FOR_PEACE/SAARI_RAAT_ZEAL_FOR_PEACE.mp4/audio/aac/en/hdntl=exp=1591276530~acl=%2f*~data=hdntl~hmac=ee04e8df245b2c736a5b5b76e34df89acc1bdace4f3b64a867c1567056d05569/segment-10.aac?aka_me_session_id=AAAAAAAAAADy89heAAAAAD%2fRMzCpFX9IwCMa59vbpIMc9o6wO4%2fnpDUIwVvOsoHcN5+N0nPJabxl0IS81DiOshnnsM1WB+5v&aka_msn=10&aka_hls_version=4' for reading
frame= 1535 fps=226 q=-1.0 size= 22528kB time=00:01:01.39 bitrate=3005.8kbi[hls @ 0x555b6d6f3240] Opening 'crypto+https://zee5vodnd.akamaized.net/hls/PRIORITY1080/ZEAL_FOR_PEACE/SAARI_RAAT_ZEAL_FOR_PEACE.mp4/media-7/hdntl=exp=1591276530~acl=%2f*~data=hdntl~hmac=ee04e8df245b2c736a5b5b76e34df89acc1bdace4f3b64a867c1567056d05569/segment-11.ts?aka_me_session_id=AAAAAAAAAADy89heAAAAAD%2fRMzCpFX9IwCMa59vbpIMc9o6wO4%2fnpDUIwVvOsoHcN5+N0nPJabxl0IS81DiOshnnsM1WB+5v&aka_msn=11&aka_hls_version=4' for reading
[hls @ 0x555b6d6f3240] Opening 'crypto+https://zee5vodnd.akamaized.net/hls/PRIORITY1080/ZEAL_FOR_PEACE/SAARI_RAAT_ZEAL_FOR_PEACE.mp4/audio/aac/en/hdntl=exp=1591276530~acl=%2f*~data=hdntl~hmac=ee04e8df245b2c736a5b5b76e34df89acc1bdace4f3b64a867c1567056d05569/segment-11.aac?aka_me_session_id=AAAAAAAAAADy89heAAAAAD%2fRMzCpFX9IwCMa59vbpIMc9o6wO4%2fnpDUIwVvOsoHcN5+N0nPJabxl0IS81DiOshnnsM1WB+5v&aka_msn=11&aka_hls_version=4' for reading
frame= 1655 fps=224 q=-1.0 size= 40192kB time=00:01:06.17 bitrate=4975.4kbi[hls @ 0x555b6d6f3240] Opening 'crypto+https://zee5vodnd.akamaized.net/hls/PRIORITY1080/ZEAL_FOR_PEACE/SAARI_RAAT_ZEAL_FOR_PEACE.mp4/media-7/hdntl=exp=1591276530~acl=%2f*~data=hdntl~hmac=ee04e8df245b2c736a5b5b76e34df89acc1bdace4f3b64a867c1567056d05569/segment-12.ts?aka_me_session_id=AAAAAAAAAADy89heAAAAAD%2fRMzCpFX9IwCMa59vbpIMc9o6wO4%2fnpDUIwVvOsoHcN5+N0nPJabxl0IS81DiOshnnsM1WB+5v&aka_msn=12&aka_hls_version=4' for reading
[hls @ 0x555b6d6f3240] Opening 'crypto+https://zee5vodnd.akamaized.net/hls/PRIORITY1080/ZEAL_FOR_PEACE/SAARI_RAAT_ZEAL_FOR_PEACE.mp4/audio/aac/en/hdntl=exp=1591276530~acl=%2f*~data=hdntl~hmac=ee04e8df245b2c736a5b5b76e34df89acc1bdace4f3b64a867c1567056d05569/segment-12.aac?aka_me_session_id=AAAAAAAAAADy89heAAAAAD%2fRMzCpFX9IwCMa59vbpIMc9o6wO4%2fnpDUIwVvOsoHcN5+N0nPJabxl0IS81DiOshnnsM1WB+5v&aka_msn=12&aka_hls_version=4' for reading
[hls @ 0x555b6d6f3240] Opening 'crypto+https://zee5vodnd.akamaized.net/hls/PRIORITY1080/ZEAL_FOR_PEACE/SAARI_RAAT_ZEAL_FOR_PEACE.mp4/media-7/hdntl=exp=1591276530~acl=%2f*~data=hdntl~hmac=ee04e8df245b2c736a5b5b76e34df89acc1bdace4f3b64a867c1567056d05569/segment-13.ts?aka_me_session_id=AAAAAAAAAADy89heAAAAAD%2fRMzCpFX9IwCMa59vbpIMc9o6wO4%2fnpDUIwVvOsoHcN5+N0nPJabxl0IS81DiOshnnsM1WB+5v&aka_msn=13&aka_hls_version=4' for reading
frame= 1948 fps=245 q=-1.0 size= 54272kB time=00:01:17.90 bitrate=5706.6kbi[hls @ 0x555b6d6f3240] Opening 'crypto+https://zee5vodnd.akamaized.net/hls/PRIORITY1080/ZEAL_FOR_PEACE/SAARI_RAAT_ZEAL_FOR_PEACE.mp4/audio/aac/en/hdntl=exp=1591276530~acl=%2f*~data=hdntl~hmac=ee04e8df245b2c736a5b5b76e34df89acc1bdace4f3b64a867c1567056d05569/segment-13.aac?aka_me_session_id=AAAAAAAAAADy89heAAAAAD%2fRMzCpFX9IwCMa59vbpIMc9o6wO4%2fnpDUIwVvOsoHcN5+N0nPJabxl0IS81DiOshnnsM1WB+5v&aka_msn=13&aka_hls_version=4' for reading
[aac_adtstoasc @ 0x555b6e348fc0] Multiple RDBs per frame with CRC is not implemented. Update your FFmpeg version to the newest one from Git. If the problem still occurs, it means that your file has a feature which has not been implemented.
[matroska @ 0x555b6faf8940] Error applying bitstream filters to an output packet for stream #1: Not yet implemented in FFmpeg, patches welcome
av_interleaved_write_frame(): Not yet implemented in FFmpeg, patches welcome
frame= 1956 fps=242 q=-1.0 Lsize= 56031kB time=00:01:18.20 bitrate=5869.0kbits/s speed=9.68x
video:55071kB audio:943kB subtitle:0kB other streams:0kB global headers:0kB muxing overhead: 0.029080%
Conversion failed!
%}}}

Last edited 2 years ago by Anan5a (previous) (diff)
Note: See TracTickets for help on using tickets.