Changes between Initial Version and Version 1 of Ticket #846


Ignore:
Timestamp:
Dec 29, 2011, 1:28:48 PM (5 years ago)
Author:
cehoyos
Comment:

Isn't this a feature request for reading CC in mov? I may be wrong but I suspect that writing unknown codecs to mov is not guaranteed to work.

Or is the problem also reproducible with -sn (or not reproducible with -acodec aac -vcodec mpeg4 -scodec copy)?

Legend:

Unmodified
Added
Removed
Modified
  • Ticket #846

    • Property Keywords mov cc added
  • Ticket #846 – Description

    initial v1  
    3939    Metadata: 
    4040      creation_time   : 2010-11-04 17:28:46 
    41       handler_name    : Apple Alias Data Handler 
     41      handler_name    : Apple Alias Data Handler 
    4242    Stream #0:1(eng), 218, 1/44100: Audio: aac (mp4a / 0x6134706D), 44100 Hz, stereo, s16, 109 kb/s 
    4343    Metadata: 
    4444      creation_time   : 2010-11-04 17:28:46 
    45       handler_name    : Apple Alias Data Handler 
     45      handler_name    : Apple Alias Data Handler 
    4646    Stream #0:2(eng), 122, 1/2997: Subtitle: none (c608 / 0x38303663) 
    4747    Metadata: 
    4848      creation_time   : 2010-11-04 17:28:46 
    49       handler_name    : Apple Alias Data Handler 
     49      handler_name    : Apple Alias Data Handler 
    5050Output #0, mov, to 'out.mov': 
    5151  Metadata: 
     
    5858    Metadata: 
    5959      creation_time   : 2010-11-04 17:28:46 
    60       handler_name    : Apple Alias Data Handler 
     60      handler_name    : Apple Alias Data Handler 
    6161    Stream #0:1(eng), 0, 1/44100: Audio: aac (mp4a / 0x6134706D), 44100 Hz, stereo, 109 kb/s 
    6262    Metadata: 
    6363      creation_time   : 2010-11-04 17:28:46 
    64       handler_name    : Apple Alias Data Handler 
     64      handler_name    : Apple Alias Data Handler 
    6565    Stream #0:2(eng), 0, 1/2997: Subtitle: none (c608 / 0x38303663) 
    6666    Metadata: 
    6767      creation_time   : 2010-11-04 17:28:46 
    68       handler_name    : Apple Alias Data Handler 
     68      handler_name    : Apple Alias Data Handler 
    6969Stream mapping: 
    7070  Stream #0:0 -> #0:0 (copy)