Opened 5 years ago

Closed 5 years ago

#84 closed defect (fixed)

ffplay - bfi codec playback regression

Reported by: ami_stuff Owned by:
Priority: normal Component: avcodec
Version: git Keywords:
Cc: Blocked By:
Blocking: Reproduced by developer: no
Analyzed by developer: no

Description

bfi video codec playback regression with ffplay
(black display)

most likely another libavfilter-caused regression

http://samples.multimedia.cx/game-formats/bfi/5082.bfi

C:\>ffmpeg -i "C:\5082.bfi"
FFmpeg version git-N-29181-ga304071, Copyright (c) 2000-2011 the FFmpeg develope
rs
  built on Apr 18 2011 21:24:03 with gcc 4.5.2
  configuration: --enable-gpl --enable-version3 --enable-runtime-cpudetect --ena
ble-memalign-hack --enable-avisynth --enable-bzlib --enable-frei0r --enable-libo
pencore-amrnb --enable-libopencore-amrwb --enable-libfreetype --enable-libgsm --
enable-libmp3lame --enable-libopenjpeg --enable-librtmp --enable-libschroedinger
 --enable-libspeex --enable-libtheora --enable-libvorbis --enable-libvpx --enabl
e-libx264 --enable-libxavs --enable-libxvid --enable-zlib --cross-prefix=i686-w6
4-mingw32- --target-os=mingw32 --arch=x86_32 --extra-cflags=-I/home/kyle/softwar
e/ffmpeg/external-libraries/win32/include --extra-ldflags=-L/home/kyle/software/
ffmpeg/external-libraries/win32/lib --pkg-config=pkg-config
  libavutil    50. 40. 1 / 50. 40. 1
  libavcodec   52.120. 0 / 52.120. 0
  libavformat  52.108. 0 / 52.108. 0
  libavdevice  52.  4. 0 / 52.  4. 0
  libavfilter   1. 79. 0 /  1. 79. 0
  libswscale    0. 13. 0 /  0. 13. 0
[bfi @ 01CEC000] Estimating duration from bitrate, this may be inaccurate
Input #0, bfi, from 'C:\5082.bfi':
  Duration: 00:00:31.80, start: 0.000000, bitrate: 88 kb/s
    Stream #0.0: Video: bfi, pal8, 320x140, 10 tbr, 10 tbn, 10 tbc
    Stream #0.1: Audio: pcm_u8, 11025 Hz, 1 channels, u8, 88 kb/s
At least one output file must be specified

Change History (1)

comment:1 Changed 5 years ago by cehoyos

  • Component changed from undetermined to avcodec
  • Resolution set to fixed
  • Status changed from new to closed
  • Version changed from unspecified to git
Note: See TracTickets for help on using tickets.