Opened 3 years ago

Closed 3 years ago

#8345 closed defect (invalid)

Audio Async by 1 frame from some video files

Reported by: Vespucci Owned by:
Priority: normal Component: undetermined
Version: unspecified Keywords:
Cc: Blocked By:
Blocking: Reproduced by developer: no
Analyzed by developer: no

Description

In my post production company a Dubbing mixer realised that the audio is async by 1 frame in one of our tool.

After investigating he realised that ffmpeg output is out of sync by 1 frame for a few years now, no matter which version of ffmpeg

You can see the issue on the following screen shot.
https://farm-share.s3-eu-west-1.amazonaws.com/ffmpeg-issue/Shifted+Audio+-+MXF+Export+Original+1+-+start.png

We also noticed that the end of the file is slightly different.
https://farm-share.s3-eu-west-1.amazonaws.com/ffmpeg-issue/Shifted+Audio+-+MXF+Export+Original+1+-+end.png

How to reproduce:
I used the most basic transcoding ffmpeg -i <input> <output> as you can see in the report here:
https://farm-share.s3-eu-west-1.amazonaws.com/ffmpeg-issue/ffmpeg-20191030-110046.log

Here is an original file that is causing the problem:
https://farm-share.s3-eu-west-1.amazonaws.com/ffmpeg-issue/Shifted+Audio+-+MXF+Export+Original+1.mov

Here is the shifted compressed video:
https://farm-share.s3-eu-west-1.amazonaws.com/ffmpeg-issue/Shifted+Audio+-+MXF+Export+Original+1.mp4

You can right click on each link and "Save link as..." to get the file, let me know if you want me to send the file in a different way.

Thanks for your help

Change History (5)

comment:1 by Carl Eugen Hoyos, 3 years ago

Keywords: Audio Async DNX removed

Please provide the command line you tested together with the complete, uncut console output to make this a valid ticket.

comment:2 by Vespucci, 3 years ago

Keywords: Async 1 frame added
Summary: Audio Async by 1 frame from DNX filesAudio Async by 1 frame from some video files

Hi,

The command is ffmpeg.exe -i <input file path> <output file path> -report

And the result fo the command is in the link https://farm-share.s3-eu-west-1.amazonaws.com/ffmpeg-issue/ffmpeg-20191030-110046.log as provided above.

Thanks for having a look

I copy the content of the log file below.

ffmpeg started on 2019-10-30 at 11:00:46
Report written to "ffmpeg-20191030-110046.log"
Command line:
"\\Program Files\\The Farm Post Production\\Farm Transcoder\\ffmpeg\\ffmpeg.exe" -i "\\\\farmyard.loc\\users\\jpa\\Desktop\\ffmpeg frame error\\Shifted Audio - MXF Export Original 1.mov" "\\\\farmyard.loc\\users\\jpa\\Desktop\\ffmpeg frame error\\Shifted Audio - MXF Export Original 1.mp4" -report
ffmpeg version 4.2.1 Copyright (c) 2000-2019 the FFmpeg developers
  built with gcc 9.1.1 (GCC) 20190807
  configuration: --disable-static --enable-shared --enable-gpl --enable-version3 --enable-sdl2 --enable-fontconfig --enable-gnutls --enable-iconv --enable-libass --enable-libdav1d --enable-libbluray --enable-libfreetype --enable-libmp3lame --enable-libopencore-amrnb --enable-libopencore-amrwb --enable-libopenjpeg --enable-libopus --enable-libshine --enable-libsnappy --enable-libsoxr --enable-libtheora --enable-libtwolame --enable-libvpx --enable-libwavpack --enable-libwebp --enable-libx264 --enable-libx265 --enable-libxml2 --enable-libzimg --enable-lzma --enable-zlib --enable-gmp --enable-libvidstab --enable-libvorbis --enable-libvo-amrwbenc --enable-libmysofa --enable-libspeex --enable-libxvid --enable-libaom --enable-libmfx --enable-amf --enable-ffnvcodec --enable-cuvid --enable-d3d11va --enable-nvenc --enable-nvdec --enable-dxva2 --enable-avisynth --enable-libopenmpt
  libavutil      56. 31.100 / 56. 31.100
  libavcodec     58. 54.100 / 58. 54.100
  libavformat    58. 29.100 / 58. 29.100
  libavdevice    58.  8.100 / 58.  8.100
  libavfilter     7. 57.100 /  7. 57.100
  libswscale      5.  5.100 /  5.  5.100
  libswresample   3.  5.100 /  3.  5.100
  libpostproc    55.  5.100 / 55.  5.100
Splitting the commandline.
Reading option '-i' ... matched as input url with argument '\\farmyard.loc\users\jpa\Desktop\ffmpeg frame error\Shifted Audio - MXF Export Original 1.mov'.
Reading option '\\farmyard.loc\users\jpa\Desktop\ffmpeg frame error\Shifted Audio - MXF Export Original 1.mp4' ... matched as output url.
Reading option '-report' ... matched as option 'report' (generate a report) with argument '1'.
Finished splitting the commandline.
Parsing a group of options: global .
Applying option report (generate a report) with argument 1.
Successfully parsed a group of options.
Parsing a group of options: input url \\farmyard.loc\users\jpa\Desktop\ffmpeg frame error\Shifted Audio - MXF Export Original 1.mov.
Successfully parsed a group of options.
Opening an input file: \\farmyard.loc\users\jpa\Desktop\ffmpeg frame error\Shifted Audio - MXF Export Original 1.mov.
[NULL @ 000001a746bd1500] Opening '\\farmyard.loc\users\jpa\Desktop\ffmpeg frame error\Shifted Audio - MXF Export Original 1.mov' for reading
[file @ 000001a746bd2640] Setting default whitelist 'file,crypto'
[mov,mp4,m4a,3gp,3g2,mj2 @ 000001a746bd1500] Format mov,mp4,m4a,3gp,3g2,mj2 probed with size=2048 and score=100
[mov,mp4,m4a,3gp,3g2,mj2 @ 000001a746bd1500] ISO: File Type Major Brand: qt  
[mov,mp4,m4a,3gp,3g2,mj2 @ 000001a746bd1500] Unknown dref type 0x73696c61 size 12
[mov,mp4,m4a,3gp,3g2,mj2 @ 000001a746bd1500] Processing st: 0, edit list 0 - media time: 0, duration: 250000
[mov,mp4,m4a,3gp,3g2,mj2 @ 000001a746bd1500] Unknown dref type 0x73696c61 size 12
[mov,mp4,m4a,3gp,3g2,mj2 @ 000001a746bd1500] Processing st: 1, edit list 0 - media time: 0, duration: 480000
[mov,mp4,m4a,3gp,3g2,mj2 @ 000001a746bd1500] Unknown dref type 0x73696c61 size 12
[mov,mp4,m4a,3gp,3g2,mj2 @ 000001a746bd1500] Processing st: 2, edit list 0 - media time: 0, duration: 480000
[mov,mp4,m4a,3gp,3g2,mj2 @ 000001a746bd1500] Before avformat_find_stream_info() pos: 49987775 bytes read:70953 seeks:2 nb_streams:3
[dnxhd @ 000001a746be4780] Profile cid 1253.
[dnxhd @ 000001a746be4780] 1920x1080, 4:2:2 8 bits, MBAFF=0 ACT=0
[mov,mp4,m4a,3gp,3g2,mj2 @ 000001a746bd1500] All info found
[mov,mp4,m4a,3gp,3g2,mj2 @ 000001a746bd1500] After avformat_find_stream_info() pos: 47111748 bytes read:5002537 seeks:4 frames:27
Input #0, mov,mp4,m4a,3gp,3g2,mj2, from '\\farmyard.loc\users\jpa\Desktop\ffmpeg frame error\Shifted Audio - MXF Export Original 1.mov':
  Metadata:
    major_brand     : qt  
    minor_version   : 537199360
    compatible_brands: qt  
    creation_time   : 2019-10-24T12:45:01.000000Z
    timecode        : 01:00:00:00
  Duration: 00:00:10.00, start: 0.000000, bitrate: 39990 kb/s
    Stream #0:0(eng), 26, 1/25000: Video: dnxhd (DNXHD) (AVdn / 0x6E645641), yuv422p(pc, bt709), 1920x1080, 37683 kb/s, SAR 1:1 DAR 16:9, 25 fps, 25 tbr, 25k tbn, 25k tbc (default)
    Metadata:
      creation_time   : 2019-10-24T12:45:01.000000Z
      handler_name    : Apple Video Media Handler
      encoder         : Avid DNxHD Codec
    Stream #0:1(eng), 1, 1/48000: Audio: pcm_s24be (in24 / 0x34326E69), 48000 Hz, stereo, s32 (24 bit), 2304 kb/s (default)
    Metadata:
      creation_time   : 2019-10-24T12:45:01.000000Z
      handler_name    : Apple Sound Media Handler
    Stream #0:2(eng), 0, 1/48000: Data: none (tmcd / 0x64636D74), 0 kb/s (default)
    Metadata:
      creation_time   : 2019-10-24T12:45:01.000000Z
      handler_name    : Time Code Media Handler
      timecode        : 01:00:00:00
Successfully opened the file.
Parsing a group of options: output url \\farmyard.loc\users\jpa\Desktop\ffmpeg frame error\Shifted Audio - MXF Export Original 1.mp4.
Successfully parsed a group of options.
Opening an output file: \\farmyard.loc\users\jpa\Desktop\ffmpeg frame error\Shifted Audio - MXF Export Original 1.mp4.
[file @ 000001a746bd2b40] Setting default whitelist 'file,crypto'
Successfully opened the file.
detected 12 logical cores
Stream mapping:
  Stream #0:0 -> #0:0 (dnxhd (native) -> h264 (libx264))
  Stream #0:1 -> #0:1 (pcm_s24be (native) -> aac (native))
Press [q] to stop, [?] for help
cur_dts is invalid st:0 (0) [init:0 i_done:0 finish:0] (this is harmless if it occurs once at the start per stream)
cur_dts is invalid st:0 (0) [init:0 i_done:0 finish:0] (this is harmless if it occurs once at the start per stream)
[dnxhd @ 000001a746bd6e40] Profile cid 1253.
cur_dts is invalid st:0 (0) [init:0 i_done:0 finish:0] (this is harmless if it occurs once at the start per stream)
[dnxhd @ 000001a748d50d00] Profile cid 1253.
cur_dts is invalid st:0 (0) [init:0 i_done:0 finish:0] (this is harmless if it occurs once at the start per stream)
[dnxhd @ 000001a748d52c00] Profile cid 1253.
[dnxhd @ 000001a748d55080] Profile cid 1253.
[dnxhd @ 000001a746bd6e40] 1920x1080, 4:2:2 8 bits, MBAFF=0 ACT=0
[dnxhd @ 000001a748d50d00] 1920x1080, 4:2:2 8 bits, MBAFF=0 ACT=0
[dnxhd @ 000001a748d52c00] 1920x1080, 4:2:2 8 bits, MBAFF=0 ACT=0
cur_dts is invalid st:0 (0) [init:0 i_done:0 finish:0] (this is harmless if it occurs once at the start per stream)
[dnxhd @ 000001a748d55080] 1920x1080, 4:2:2 8 bits, MBAFF=0 ACT=0
cur_dts is invalid st:0 (0) [init:0 i_done:0 finish:0] (this is harmless if it occurs once at the start per stream)
[dnxhd @ 000001a748d54300] Profile cid 1253.
[dnxhd @ 000001a748d54780] Profile cid 1253.
cur_dts is invalid st:0 (0) [init:0 i_done:0 finish:0] (this is harmless if it occurs once at the start per stream)
cur_dts is invalid st:0 (0) [init:0 i_done:0 finish:0] (this is harmless if it occurs once at the start per stream)
[dnxhd @ 000001a748d54300] 1920x1080, 4:2:2 8 bits, MBAFF=0 ACT=0
[dnxhd @ 000001a748d53540] Profile cid 1253.
[dnxhd @ 000001a748d539c0] Profile cid 1253.
[dnxhd @ 000001a748d54780] 1920x1080, 4:2:2 8 bits, MBAFF=0 ACT=0
cur_dts is invalid st:0 (0) [init:0 i_done:0 finish:0] (this is harmless if it occurs once at the start per stream)
cur_dts is invalid st:0 (0) [init:0 i_done:0 finish:0] (this is harmless if it occurs once at the start per stream)
[dnxhd @ 000001a748d55540] Profile cid 1253.
[dnxhd @ 000001a748d53540] 1920x1080, 4:2:2 8 bits, MBAFF=0 ACT=0
[dnxhd @ 000001a748d539c0] 1920x1080, 4:2:2 8 bits, MBAFF=0 ACT=0
cur_dts is invalid st:0 (0) [init:0 i_done:0 finish:0] (this is harmless if it occurs once at the start per stream)
[dnxhd @ 000001a748d530c0] Profile cid 1253.
cur_dts is invalid st:0 (0) [init:0 i_done:0 finish:0] (this is harmless if it occurs once at the start per stream)
[dnxhd @ 000001a748d53e40] Profile cid 1253.
cur_dts is invalid st:0 (0) [init:0 i_done:0 finish:0] (this is harmless if it occurs once at the start per stream)
[dnxhd @ 000001a748d54c00] Profile cid 1253.
[dnxhd @ 000001a748d55540] 1920x1080, 4:2:2 8 bits, MBAFF=0 ACT=0
[dnxhd @ 000001a748d51e80] Profile cid 1253.
[dnxhd @ 000001a748d53e40] 1920x1080, 4:2:2 8 bits, MBAFF=0 ACT=0
[dnxhd @ 000001a748d530c0] 1920x1080, 4:2:2 8 bits, MBAFF=0 ACT=0
[dnxhd @ 000001a748d54c00] 1920x1080, 4:2:2 8 bits, MBAFF=0 ACT=0
[dnxhd @ 000001a748d51e80] 1920x1080, 4:2:2 8 bits, MBAFF=0 ACT=0
[graph 0 input from stream 0:0 @ 000001a7490f1980] Setting 'video_size' to value '1920x1080'
[graph 0 input from stream 0:0 @ 000001a7490f1980] Setting 'pix_fmt' to value '4'
[graph 0 input from stream 0:0 @ 000001a7490f1980] Setting 'time_base' to value '1/25000'
[graph 0 input from stream 0:0 @ 000001a7490f1980] Setting 'pixel_aspect' to value '1/1'
[graph 0 input from stream 0:0 @ 000001a7490f1980] Setting 'sws_param' to value 'flags=2'
[graph 0 input from stream 0:0 @ 000001a7490f1980] Setting 'frame_rate' to value '25/1'
[graph 0 input from stream 0:0 @ 000001a7490f1980] w:1920 h:1080 pixfmt:yuv422p tb:1/25000 fr:25/1 sar:1/1 sws_param:flags=2
[format @ 000001a749155dc0] Setting 'pix_fmts' to value 'yuv420p|yuvj420p|yuv422p|yuvj422p|yuv444p|yuvj444p|nv12|nv16|nv21|yuv420p10le|yuv422p10le|yuv444p10le|nv20le|gray|gray10le'
[AVFilterGraph @ 000001a748d4dd40] query_formats: 4 queried, 3 merged, 0 already done, 0 delayed
[libx264 @ 000001a746be85c0] using mv_range_thread = 24
[libx264 @ 000001a746be85c0] using SAR=1/1
[libx264 @ 000001a746be85c0] using cpu capabilities: MMX2 SSE2Fast SSSE3 SSE4.2
[libx264 @ 000001a746be85c0] profile High 4:2:2, level 4.0, 4:2:2, 8-bit
[libx264 @ 000001a746be85c0] 264 - core 158 r2984 3759fcb - H.264/MPEG-4 AVC codec - Copyleft 2003-2019 - http://www.videolan.org/x264.html - options: cabac=1 ref=3 deblock=1:0:0 analyse=0x3:0x113 me=hex subme=7 psy=1 psy_rd=1.00:0.00 mixed_ref=1 me_range=16 chroma_me=1 trellis=1 8x8dct=1 cqm=0 deadzone=21,11 fast_pskip=1 chroma_qp_offset=-2 threads=18 lookahead_threads=3 sliced_threads=0 nr=0 decimate=1 interlaced=0 bluray_compat=0 constrained_intra=0 bframes=3 b_pyramid=2 b_adapt=1 b_bias=0 direct=1 weightb=1 open_gop=0 weightp=2 keyint=250 keyint_min=25 scenecut=40 intra_refresh=0 rc_lookahead=40 rc=crf mbtree=1 crf=23.0 qcomp=0.60 qpmin=0 qpmax=69 qpstep=4 ip_ratio=1.40 aq=1:1.00
Clipping frame in rate conversion by 0.000008
cur_dts is invalid st:0 (0) [init:1 i_done:0 finish:0] (this is harmless if it occurs once at the start per stream)
cur_dts is invalid st:1 (0) [init:0 i_done:0 finish:0] (this is harmless if it occurs once at the start per stream)
[dnxhd @ 000001a746bd6e40] 1920x1080, 4:2:2 8 bits, MBAFF=0 ACT=0
cur_dts is invalid st:0 (0) [init:1 i_done:0 finish:0] (this is harmless if it occurs once at the start per stream)
cur_dts is invalid st:1 (0) [init:0 i_done:0 finish:0] (this is harmless if it occurs once at the start per stream)
[dnxhd @ 000001a748d50d00] 1920x1080, 4:2:2 8 bits, MBAFF=0 ACT=0
cur_dts is invalid st:0 (0) [init:1 i_done:0 finish:0] (this is harmless if it occurs once at the start per stream)
cur_dts is invalid st:1 (0) [init:0 i_done:0 finish:0] (this is harmless if it occurs once at the start per stream)
[dnxhd @ 000001a748d52c00] 1920x1080, 4:2:2 8 bits, MBAFF=0 ACT=0
cur_dts is invalid st:0 (0) [init:1 i_done:0 finish:0] (this is harmless if it occurs once at the start per stream)
cur_dts is invalid st:1 (0) [init:0 i_done:0 finish:0] (this is harmless if it occurs once at the start per stream)
[dnxhd @ 000001a748d55080] 1920x1080, 4:2:2 8 bits, MBAFF=0 ACT=0
cur_dts is invalid st:0 (0) [init:1 i_done:0 finish:0] (this is harmless if it occurs once at the start per stream)
cur_dts is invalid st:1 (0) [init:0 i_done:0 finish:0] (this is harmless if it occurs once at the start per stream)
[dnxhd @ 000001a748d54300] 1920x1080, 4:2:2 8 bits, MBAFF=0 ACT=0
cur_dts is invalid st:0 (0) [init:1 i_done:0 finish:0] (this is harmless if it occurs once at the start per stream)
cur_dts is invalid st:1 (0) [init:0 i_done:0 finish:0] (this is harmless if it occurs once at the start per stream)
[dnxhd @ 000001a748d54780] 1920x1080, 4:2:2 8 bits, MBAFF=0 ACT=0
cur_dts is invalid st:0 (0) [init:1 i_done:0 finish:0] (this is harmless if it occurs once at the start per stream)
cur_dts is invalid st:1 (0) [init:0 i_done:0 finish:0] (this is harmless if it occurs once at the start per stream)
[dnxhd @ 000001a748d53540] 1920x1080, 4:2:2 8 bits, MBAFF=0 ACT=0
cur_dts is invalid st:0 (0) [init:1 i_done:0 finish:0] (this is harmless if it occurs once at the start per stream)
cur_dts is invalid st:1 (0) [init:0 i_done:0 finish:0] (this is harmless if it occurs once at the start per stream)
[dnxhd @ 000001a748d539c0] 1920x1080, 4:2:2 8 bits, MBAFF=0 ACT=0
cur_dts is invalid st:0 (0) [init:1 i_done:0 finish:0] (this is harmless if it occurs once at the start per stream)
cur_dts is invalid st:1 (0) [init:0 i_done:0 finish:0] (this is harmless if it occurs once at the start per stream)
[dnxhd @ 000001a748d55540] 1920x1080, 4:2:2 8 bits, MBAFF=0 ACT=0
cur_dts is invalid st:0 (0) [init:1 i_done:0 finish:0] (this is harmless if it occurs once at the start per stream)
cur_dts is invalid st:1 (0) [init:0 i_done:0 finish:0] (this is harmless if it occurs once at the start per stream)
[dnxhd @ 000001a748d530c0] 1920x1080, 4:2:2 8 bits, MBAFF=0 ACT=0
cur_dts is invalid st:0 (0) [init:1 i_done:0 finish:0] (this is harmless if it occurs once at the start per stream)
cur_dts is invalid st:1 (0) [init:0 i_done:0 finish:0] (this is harmless if it occurs once at the start per stream)
[dnxhd @ 000001a748d53e40] 1920x1080, 4:2:2 8 bits, MBAFF=0 ACT=0
cur_dts is invalid st:0 (0) [init:1 i_done:0 finish:0] (this is harmless if it occurs once at the start per stream)
cur_dts is invalid st:1 (0) [init:0 i_done:0 finish:0] (this is harmless if it occurs once at the start per stream)
[dnxhd @ 000001a748d54c00] 1920x1080, 4:2:2 8 bits, MBAFF=0 ACT=0
cur_dts is invalid st:0 (0) [init:1 i_done:0 finish:0] (this is harmless if it occurs once at the start per stream)
cur_dts is invalid st:1 (0) [init:0 i_done:0 finish:0] (this is harmless if it occurs once at the start per stream)
[dnxhd @ 000001a748d51e80] 1920x1080, 4:2:2 8 bits, MBAFF=0 ACT=0
cur_dts is invalid st:0 (0) [init:1 i_done:0 finish:0] (this is harmless if it occurs once at the start per stream)
cur_dts is invalid st:1 (0) [init:0 i_done:0 finish:0] (this is harmless if it occurs once at the start per stream)
[graph_1_in_0_1 @ 000001a74915b5c0] Setting 'time_base' to value '1/48000'
[graph_1_in_0_1 @ 000001a74915b5c0] Setting 'sample_rate' to value '48000'
[graph_1_in_0_1 @ 000001a74915b5c0] Setting 'sample_fmt' to value 's32'
[graph_1_in_0_1 @ 000001a74915b5c0] Setting 'channel_layout' to value '0x3'
[graph_1_in_0_1 @ 000001a74915b5c0] tb:1/48000 samplefmt:s32 samplerate:48000 chlayout:0x3
[format_out_0_1 @ 000001a74915a5c0] Setting 'sample_fmts' to value 'fltp'
[format_out_0_1 @ 000001a74915a5c0] Setting 'sample_rates' to value '96000|88200|64000|48000|44100|32000|24000|22050|16000|12000|11025|8000|7350'
[format_out_0_1 @ 000001a74915a5c0] auto-inserting filter 'auto_resampler_0' between the filter 'Parsed_anull_0' and the filter 'format_out_0_1'
[AVFilterGraph @ 000001a748d4d3c0] query_formats: 4 queried, 6 merged, 3 already done, 0 delayed
[auto_resampler_0 @ 000001a74915acc0] [SWR @ 000001a748d8a100] Using fltp internally between filters
[auto_resampler_0 @ 000001a74915acc0] ch:2 chl:stereo fmt:s32 r:48000Hz -> ch:2 chl:stereo fmt:fltp r:48000Hz
Output #0, mp4, to '\\farmyard.loc\users\jpa\Desktop\ffmpeg frame error\Shifted Audio - MXF Export Original 1.mp4':
  Metadata:
    major_brand     : qt  
    minor_version   : 537199360
    compatible_brands: qt  
    timecode        : 01:00:00:00
    encoder         : Lavf58.29.100
    Stream #0:0(eng), 0, 1/12800: Video: h264 (libx264) (avc1 / 0x31637661), yuv422p(progressive), 1920x1080 [SAR 1:1 DAR 16:9], q=-1--1, 0.04 fps, 12800 tbn, 25 tbc (default)
    Metadata:
      creation_time   : 2019-10-24T12:45:01.000000Z
      handler_name    : Apple Video Media Handler
      encoder         : Lavc58.54.100 libx264
    Side data:
      cpb: bitrate max/min/avg: 0/0/0 buffer size: 0 vbv_delay: -1
    Stream #0:1(eng), 0, 1/48000: Audio: aac (LC) (mp4a / 0x6134706D), 48000 Hz, stereo, fltp (24 bit), 128 kb/s (default)
    Metadata:
      creation_time   : 2019-10-24T12:45:01.000000Z
      handler_name    : Apple Sound Media Handler
      encoder         : Lavc58.54.100 aac
cur_dts is invalid st:0 (0) [init:1 i_done:0 finish:0] (this is harmless if it occurs once at the start per stream)
cur_dts is invalid st:1 (0) [init:1 i_done:0 finish:0] (this is harmless if it occurs once at the start per stream)
cur_dts is invalid st:0 (0) [init:1 i_done:0 finish:0] (this is harmless if it occurs once at the start per stream)
[dnxhd @ 000001a746bd6e40] 1920x1080, 4:2:2 8 bits, MBAFF=0 ACT=0
cur_dts is invalid st:0 (0) [init:1 i_done:0 finish:0] (this is harmless if it occurs once at the start per stream)
cur_dts is invalid st:0 (0) [init:1 i_done:0 finish:0] (this is harmless if it occurs once at the start per stream)
cur_dts is invalid st:0 (0) [init:1 i_done:0 finish:0] (this is harmless if it occurs once at the start per stream)
[dnxhd @ 000001a748d50d00] 1920x1080, 4:2:2 8 bits, MBAFF=0 ACT=0
cur_dts is invalid st:0 (0) [init:1 i_done:0 finish:0] (this is harmless if it occurs once at the start per stream)
cur_dts is invalid st:0 (0) [init:1 i_done:0 finish:0] (this is harmless if it occurs once at the start per stream)
cur_dts is invalid st:0 (0) [init:1 i_done:0 finish:0] (this is harmless if it occurs once at the start per stream)
[dnxhd @ 000001a748d52c00] 1920x1080, 4:2:2 8 bits, MBAFF=0 ACT=0
cur_dts is invalid st:0 (0) [init:1 i_done:0 finish:0] (this is harmless if it occurs once at the start per stream)
cur_dts is invalid st:0 (0) [init:1 i_done:0 finish:0] (this is harmless if it occurs once at the start per stream)
cur_dts is invalid st:0 (0) [init:1 i_done:0 finish:0] (this is harmless if it occurs once at the start per stream)
[dnxhd @ 000001a748d55080] 1920x1080, 4:2:2 8 bits, MBAFF=0 ACT=0
cur_dts is invalid st:0 (0) [init:1 i_done:0 finish:0] (this is harmless if it occurs once at the start per stream)
cur_dts is invalid st:0 (0) [init:1 i_done:0 finish:0] (this is harmless if it occurs once at the start per stream)
cur_dts is invalid st:0 (0) [init:1 i_done:0 finish:0] (this is harmless if it occurs once at the start per stream)
[dnxhd @ 000001a748d54300] 1920x1080, 4:2:2 8 bits, MBAFF=0 ACT=0
cur_dts is invalid st:0 (0) [init:1 i_done:0 finish:0] (this is harmless if it occurs once at the start per stream)
cur_dts is invalid st:0 (0) [init:1 i_done:0 finish:0] (this is harmless if it occurs once at the start per stream)
cur_dts is invalid st:0 (0) [init:1 i_done:0 finish:0] (this is harmless if it occurs once at the start per stream)
[dnxhd @ 000001a748d54780] 1920x1080, 4:2:2 8 bits, MBAFF=0 ACT=0
cur_dts is invalid st:0 (0) [init:1 i_done:0 finish:0] (this is harmless if it occurs once at the start per stream)
cur_dts is invalid st:0 (0) [init:1 i_done:0 finish:0] (this is harmless if it occurs once at the start per stream)
cur_dts is invalid st:0 (0) [init:1 i_done:0 finish:0] (this is harmless if it occurs once at the start per stream)
[dnxhd @ 000001a748d53540] 1920x1080, 4:2:2 8 bits, MBAFF=0 ACT=0
cur_dts is invalid st:0 (0) [init:1 i_done:0 finish:0] (this is harmless if it occurs once at the start per stream)
cur_dts is invalid st:0 (0) [init:1 i_done:0 finish:0] (this is harmless if it occurs once at the start per stream)
[dnxhd @ 000001a748d539c0] 1920x1080, 4:2:2 8 bits, MBAFF=0 ACT=0
cur_dts is invalid st:0 (0) [init:1 i_done:0 finish:0] (this is harmless if it occurs once at the start per stream)
cur_dts is invalid st:0 (0) [init:1 i_done:0 finish:0] (this is harmless if it occurs once at the start per stream)
cur_dts is invalid st:0 (0) [init:1 i_done:0 finish:0] (this is harmless if it occurs once at the start per stream)
[dnxhd @ 000001a748d55540] 1920x1080, 4:2:2 8 bits, MBAFF=0 ACT=0
cur_dts is invalid st:0 (0) [init:1 i_done:0 finish:0] (this is harmless if it occurs once at the start per stream)
cur_dts is invalid st:0 (0) [init:1 i_done:0 finish:0] (this is harmless if it occurs once at the start per stream)
cur_dts is invalid st:0 (0) [init:1 i_done:0 finish:0] (this is harmless if it occurs once at the start per stream)
[dnxhd @ 000001a748d530c0] 1920x1080, 4:2:2 8 bits, MBAFF=0 ACT=0
cur_dts is invalid st:0 (0) [init:1 i_done:0 finish:0] (this is harmless if it occurs once at the start per stream)
cur_dts is invalid st:0 (0) [init:1 i_done:0 finish:0] (this is harmless if it occurs once at the start per stream)
cur_dts is invalid st:0 (0) [init:1 i_done:0 finish:0] (this is harmless if it occurs once at the start per stream)
[dnxhd @ 000001a748d53e40] 1920x1080, 4:2:2 8 bits, MBAFF=0 ACT=0
cur_dts is invalid st:0 (0) [init:1 i_done:0 finish:0] (this is harmless if it occurs once at the start per stream)
cur_dts is invalid st:0 (0) [init:1 i_done:0 finish:0] (this is harmless if it occurs once at the start per stream)
cur_dts is invalid st:0 (0) [init:1 i_done:0 finish:0] (this is harmless if it occurs once at the start per stream)
[dnxhd @ 000001a748d54c00] 1920x1080, 4:2:2 8 bits, MBAFF=0 ACT=0
cur_dts is invalid st:0 (0) [init:1 i_done:0 finish:0] (this is harmless if it occurs once at the start per stream)
cur_dts is invalid st:0 (0) [init:1 i_done:0 finish:0] (this is harmless if it occurs once at the start per stream)
cur_dts is invalid st:0 (0) [init:1 i_done:0 finish:0] (this is harmless if it occurs once at the start per stream)
[dnxhd @ 000001a748d51e80] 1920x1080, 4:2:2 8 bits, MBAFF=0 ACT=0
cur_dts is invalid st:0 (0) [init:1 i_done:0 finish:0] (this is harmless if it occurs once at the start per stream)
cur_dts is invalid st:0 (0) [init:1 i_done:0 finish:0] (this is harmless if it occurs once at the start per stream)
cur_dts is invalid st:0 (0) [init:1 i_done:0 finish:0] (this is harmless if it occurs once at the start per stream)
[dnxhd @ 000001a746bd6e40] 1920x1080, 4:2:2 8 bits, MBAFF=0 ACT=0
cur_dts is invalid st:0 (0) [init:1 i_done:0 finish:0] (this is harmless if it occurs once at the start per stream)
cur_dts is invalid st:0 (0) [init:1 i_done:0 finish:0] (this is harmless if it occurs once at the start per stream)
cur_dts is invalid st:0 (0) [init:1 i_done:0 finish:0] (this is harmless if it occurs once at the start per stream)
[dnxhd @ 000001a748d50d00] 1920x1080, 4:2:2 8 bits, MBAFF=0 ACT=0
cur_dts is invalid st:0 (0) [init:1 i_done:0 finish:0] (this is harmless if it occurs once at the start per stream)
cur_dts is invalid st:0 (0) [init:1 i_done:0 finish:0] (this is harmless if it occurs once at the start per stream)
cur_dts is invalid st:0 (0) [init:1 i_done:0 finish:0] (this is harmless if it occurs once at the start per stream)
[dnxhd @ 000001a748d52c00] 1920x1080, 4:2:2 8 bits, MBAFF=0 ACT=0
cur_dts is invalid st:0 (0) [init:1 i_done:0 finish:0] (this is harmless if it occurs once at the start per stream)
cur_dts is invalid st:0 (0) [init:1 i_done:0 finish:0] (this is harmless if it occurs once at the start per stream)
cur_dts is invalid st:0 (0) [init:1 i_done:0 finish:0] (this is harmless if it occurs once at the start per stream)
[dnxhd @ 000001a748d55080] 1920x1080, 4:2:2 8 bits, MBAFF=0 ACT=0
cur_dts is invalid st:0 (0) [init:1 i_done:0 finish:0] (this is harmless if it occurs once at the start per stream)
cur_dts is invalid st:0 (0) [init:1 i_done:0 finish:0] (this is harmless if it occurs once at the start per stream)
cur_dts is invalid st:0 (0) [init:1 i_done:0 finish:0] (this is harmless if it occurs once at the start per stream)
[dnxhd @ 000001a748d54300] 1920x1080, 4:2:2 8 bits, MBAFF=0 ACT=0
cur_dts is invalid st:0 (0) [init:1 i_done:0 finish:0] (this is harmless if it occurs once at the start per stream)
cur_dts is invalid st:0 (0) [init:1 i_done:0 finish:0] (this is harmless if it occurs once at the start per stream)
cur_dts is invalid st:0 (0) [init:1 i_done:0 finish:0] (this is harmless if it occurs once at the start per stream)
[dnxhd @ 000001a748d54780] 1920x1080, 4:2:2 8 bits, MBAFF=0 ACT=0
cur_dts is invalid st:0 (0) [init:1 i_done:0 finish:0] (this is harmless if it occurs once at the start per stream)
cur_dts is invalid st:0 (0) [init:1 i_done:0 finish:0] (this is harmless if it occurs once at the start per stream)
cur_dts is invalid st:0 (0) [init:1 i_done:0 finish:0] (this is harmless if it occurs once at the start per stream)
[dnxhd @ 000001a748d53540] 1920x1080, 4:2:2 8 bits, MBAFF=0 ACT=0
cur_dts is invalid st:0 (0) [init:1 i_done:0 finish:0] (this is harmless if it occurs once at the start per stream)
cur_dts is invalid st:0 (0) [init:1 i_done:0 finish:0] (this is harmless if it occurs once at the start per stream)
[dnxhd @ 000001a748d539c0] 1920x1080, 4:2:2 8 bits, MBAFF=0 ACT=0
cur_dts is invalid st:0 (0) [init:1 i_done:0 finish:0] (this is harmless if it occurs once at the start per stream)
cur_dts is invalid st:0 (0) [init:1 i_done:0 finish:0] (this is harmless if it occurs once at the start per stream)
cur_dts is invalid st:0 (0) [init:1 i_done:0 finish:0] (this is harmless if it occurs once at the start per stream)
[dnxhd @ 000001a748d55540] 1920x1080, 4:2:2 8 bits, MBAFF=0 ACT=0
cur_dts is invalid st:0 (0) [init:1 i_done:0 finish:0] (this is harmless if it occurs once at the start per stream)
cur_dts is invalid st:0 (0) [init:1 i_done:0 finish:0] (this is harmless if it occurs once at the start per stream)
cur_dts is invalid st:0 (0) [init:1 i_done:0 finish:0] (this is harmless if it occurs once at the start per stream)
[dnxhd @ 000001a748d530c0] 1920x1080, 4:2:2 8 bits, MBAFF=0 ACT=0
cur_dts is invalid st:0 (0) [init:1 i_done:0 finish:0] (this is harmless if it occurs once at the start per stream)
cur_dts is invalid st:0 (0) [init:1 i_done:0 finish:0] (this is harmless if it occurs once at the start per stream)
cur_dts is invalid st:0 (0) [init:1 i_done:0 finish:0] (this is harmless if it occurs once at the start per stream)
[dnxhd @ 000001a748d53e40] 1920x1080, 4:2:2 8 bits, MBAFF=0 ACT=0
cur_dts is invalid st:0 (0) [init:1 i_done:0 finish:0] (this is harmless if it occurs once at the start per stream)
cur_dts is invalid st:0 (0) [init:1 i_done:0 finish:0] (this is harmless if it occurs once at the start per stream)
cur_dts is invalid st:0 (0) [init:1 i_done:0 finish:0] (this is harmless if it occurs once at the start per stream)
[dnxhd @ 000001a748d54c00] 1920x1080, 4:2:2 8 bits, MBAFF=0 ACT=0
cur_dts is invalid st:0 (0) [init:1 i_done:0 finish:0] (this is harmless if it occurs once at the start per stream)
cur_dts is invalid st:0 (0) [init:1 i_done:0 finish:0] (this is harmless if it occurs once at the start per stream)
cur_dts is invalid st:0 (0) [init:1 i_done:0 finish:0] (this is harmless if it occurs once at the start per stream)
[dnxhd @ 000001a748d51e80] 1920x1080, 4:2:2 8 bits, MBAFF=0 ACT=0
cur_dts is invalid st:0 (0) [init:1 i_done:0 finish:0] (this is harmless if it occurs once at the start per stream)
cur_dts is invalid st:0 (0) [init:1 i_done:0 finish:0] (this is harmless if it occurs once at the start per stream)
cur_dts is invalid st:0 (0) [init:1 i_done:0 finish:0] (this is harmless if it occurs once at the start per stream)
[dnxhd @ 000001a746bd6e40] 1920x1080, 4:2:2 8 bits, MBAFF=0 ACT=0
cur_dts is invalid st:0 (0) [init:1 i_done:0 finish:0] (this is harmless if it occurs once at the start per stream)
cur_dts is invalid st:0 (0) [init:1 i_done:0 finish:0] (this is harmless if it occurs once at the start per stream)
cur_dts is invalid st:0 (0) [init:1 i_done:0 finish:0] (this is harmless if it occurs once at the start per stream)
[dnxhd @ 000001a748d50d00] 1920x1080, 4:2:2 8 bits, MBAFF=0 ACT=0
cur_dts is invalid st:0 (0) [init:1 i_done:0 finish:0] (this is harmless if it occurs once at the start per stream)
cur_dts is invalid st:0 (0) [init:1 i_done:0 finish:0] (this is harmless if it occurs once at the start per stream)
cur_dts is invalid st:0 (0) [init:1 i_done:0 finish:0] (this is harmless if it occurs once at the start per stream)
[dnxhd @ 000001a748d52c00] 1920x1080, 4:2:2 8 bits, MBAFF=0 ACT=0
cur_dts is invalid st:0 (0) [init:1 i_done:0 finish:0] (this is harmless if it occurs once at the start per stream)
cur_dts is invalid st:0 (0) [init:1 i_done:0 finish:0] (this is harmless if it occurs once at the start per stream)
cur_dts is invalid st:0 (0) [init:1 i_done:0 finish:0] (this is harmless if it occurs once at the start per stream)
[dnxhd @ 000001a748d55080] 1920x1080, 4:2:2 8 bits, MBAFF=0 ACT=0
cur_dts is invalid st:0 (0) [init:1 i_done:0 finish:0] (this is harmless if it occurs once at the start per stream)
cur_dts is invalid st:0 (0) [init:1 i_done:0 finish:0] (this is harmless if it occurs once at the start per stream)
cur_dts is invalid st:0 (0) [init:1 i_done:0 finish:0] (this is harmless if it occurs once at the start per stream)
[dnxhd @ 000001a748d54300] 1920x1080, 4:2:2 8 bits, MBAFF=0 ACT=0
cur_dts is invalid st:0 (0) [init:1 i_done:0 finish:0] (this is harmless if it occurs once at the start per stream)
cur_dts is invalid st:0 (0) [init:1 i_done:0 finish:0] (this is harmless if it occurs once at the start per stream)
cur_dts is invalid st:0 (0) [init:1 i_done:0 finish:0] (this is harmless if it occurs once at the start per stream)
[dnxhd @ 000001a748d54780] 1920x1080, 4:2:2 8 bits, MBAFF=0 ACT=0
cur_dts is invalid st:0 (0) [init:1 i_done:0 finish:0] (this is harmless if it occurs once at the start per stream)
cur_dts is invalid st:0 (0) [init:1 i_done:0 finish:0] (this is harmless if it occurs once at the start per stream)
[dnxhd @ 000001a748d53540] 1920x1080, 4:2:2 8 bits, MBAFF=0 ACT=0
cur_dts is invalid st:0 (0) [init:1 i_done:0 finish:0] (this is harmless if it occurs once at the start per stream)
cur_dts is invalid st:0 (0) [init:1 i_done:0 finish:0] (this is harmless if it occurs once at the start per stream)
cur_dts is invalid st:0 (0) [init:1 i_done:0 finish:0] (this is harmless if it occurs once at the start per stream)
[dnxhd @ 000001a748d539c0] 1920x1080, 4:2:2 8 bits, MBAFF=0 ACT=0
cur_dts is invalid st:0 (0) [init:1 i_done:0 finish:0] (this is harmless if it occurs once at the start per stream)
cur_dts is invalid st:0 (0) [init:1 i_done:0 finish:0] (this is harmless if it occurs once at the start per stream)
cur_dts is invalid st:0 (0) [init:1 i_done:0 finish:0] (this is harmless if it occurs once at the start per stream)
[dnxhd @ 000001a748d55540] 1920x1080, 4:2:2 8 bits, MBAFF=0 ACT=0
cur_dts is invalid st:0 (0) [init:1 i_done:0 finish:0] (this is harmless if it occurs once at the start per stream)
cur_dts is invalid st:0 (0) [init:1 i_done:0 finish:0] (this is harmless if it occurs once at the start per stream)
cur_dts is invalid st:0 (0) [init:1 i_done:0 finish:0] (this is harmless if it occurs once at the start per stream)
[dnxhd @ 000001a748d530c0] 1920x1080, 4:2:2 8 bits, MBAFF=0 ACT=0
cur_dts is invalid st:0 (0) [init:1 i_done:0 finish:0] (this is harmless if it occurs once at the start per stream)
cur_dts is invalid st:0 (0) [init:1 i_done:0 finish:0] (this is harmless if it occurs once at the start per stream)
cur_dts is invalid st:0 (0) [init:1 i_done:0 finish:0] (this is harmless if it occurs once at the start per stream)
[dnxhd @ 000001a748d53e40] 1920x1080, 4:2:2 8 bits, MBAFF=0 ACT=0
cur_dts is invalid st:0 (0) [init:1 i_done:0 finish:0] (this is harmless if it occurs once at the start per stream)
cur_dts is invalid st:0 (0) [init:1 i_done:0 finish:0] (this is harmless if it occurs once at the start per stream)
cur_dts is invalid st:0 (0) [init:1 i_done:0 finish:0] (this is harmless if it occurs once at the start per stream)
[dnxhd @ 000001a748d54c00] 1920x1080, 4:2:2 8 bits, MBAFF=0 ACT=0
cur_dts is invalid st:0 (0) [init:1 i_done:0 finish:0] (this is harmless if it occurs once at the start per stream)
cur_dts is invalid st:0 (0) [init:1 i_done:0 finish:0] (this is harmless if it occurs once at the start per stream)
cur_dts is invalid st:0 (0) [init:1 i_done:0 finish:0] (this is harmless if it occurs once at the start per stream)
[dnxhd @ 000001a748d51e80] 1920x1080, 4:2:2 8 bits, MBAFF=0 ACT=0
cur_dts is invalid st:0 (0) [init:1 i_done:0 finish:0] (this is harmless if it occurs once at the start per stream)
cur_dts is invalid st:0 (0) [init:1 i_done:0 finish:0] (this is harmless if it occurs once at the start per stream)
cur_dts is invalid st:0 (0) [init:1 i_done:0 finish:0] (this is harmless if it occurs once at the start per stream)
[dnxhd @ 000001a746bd6e40] 1920x1080, 4:2:2 8 bits, MBAFF=0 ACT=0
cur_dts is invalid st:0 (0) [init:1 i_done:0 finish:0] (this is harmless if it occurs once at the start per stream)
cur_dts is invalid st:0 (0) [init:1 i_done:0 finish:0] (this is harmless if it occurs once at the start per stream)
cur_dts is invalid st:0 (0) [init:1 i_done:0 finish:0] (this is harmless if it occurs once at the start per stream)
[dnxhd @ 000001a748d50d00] 1920x1080, 4:2:2 8 bits, MBAFF=0 ACT=0
cur_dts is invalid st:0 (0) [init:1 i_done:0 finish:0] (this is harmless if it occurs once at the start per stream)
cur_dts is invalid st:0 (0) [init:1 i_done:0 finish:0] (this is harmless if it occurs once at the start per stream)
cur_dts is invalid st:0 (0) [init:1 i_done:0 finish:0] (this is harmless if it occurs once at the start per stream)
[dnxhd @ 000001a748d52c00] 1920x1080, 4:2:2 8 bits, MBAFF=0 ACT=0
cur_dts is invalid st:0 (0) [init:1 i_done:0 finish:0] (this is harmless if it occurs once at the start per stream)
cur_dts is invalid st:0 (0) [init:1 i_done:0 finish:0] (this is harmless if it occurs once at the start per stream)
cur_dts is invalid st:0 (0) [init:1 i_done:0 finish:0] (this is harmless if it occurs once at the start per stream)
[dnxhd @ 000001a748d55080] 1920x1080, 4:2:2 8 bits, MBAFF=0 ACT=0
cur_dts is invalid st:0 (0) [init:1 i_done:0 finish:0] (this is harmless if it occurs once at the start per stream)
cur_dts is invalid st:0 (0) [init:1 i_done:0 finish:0] (this is harmless if it occurs once at the start per stream)
cur_dts is invalid st:0 (0) [init:1 i_done:0 finish:0] (this is harmless if it occurs once at the start per stream)
[dnxhd @ 000001a748d54300] 1920x1080, 4:2:2 8 bits, MBAFF=0 ACT=0
cur_dts is invalid st:0 (0) [init:1 i_done:0 finish:0] (this is harmless if it occurs once at the start per stream)
cur_dts is invalid st:0 (0) [init:1 i_done:0 finish:0] (this is harmless if it occurs once at the start per stream)
cur_dts is invalid st:0 (0) [init:1 i_done:0 finish:0] (this is harmless if it occurs once at the start per stream)
[dnxhd @ 000001a748d54780] 1920x1080, 4:2:2 8 bits, MBAFF=0 ACT=0
cur_dts is invalid st:0 (0) [init:1 i_done:0 finish:0] (this is harmless if it occurs once at the start per stream)
cur_dts is invalid st:0 (0) [init:1 i_done:0 finish:0] (this is harmless if it occurs once at the start per stream)
[dnxhd @ 000001a748d53540] 1920x1080, 4:2:2 8 bits, MBAFF=0 ACT=0
cur_dts is invalid st:0 (0) [init:1 i_done:0 finish:0] (this is harmless if it occurs once at the start per stream)
cur_dts is invalid st:0 (0) [init:1 i_done:0 finish:0] (this is harmless if it occurs once at the start per stream)
cur_dts is invalid st:0 (0) [init:1 i_done:0 finish:0] (this is harmless if it occurs once at the start per stream)
[dnxhd @ 000001a748d539c0] 1920x1080, 4:2:2 8 bits, MBAFF=0 ACT=0
cur_dts is invalid st:0 (0) [init:1 i_done:0 finish:0] (this is harmless if it occurs once at the start per stream)
cur_dts is invalid st:0 (0) [init:1 i_done:0 finish:0] (this is harmless if it occurs once at the start per stream)
cur_dts is invalid st:0 (0) [init:1 i_done:0 finish:0] (this is harmless if it occurs once at the start per stream)
[dnxhd @ 000001a748d55540] 1920x1080, 4:2:2 8 bits, MBAFF=0 ACT=0
cur_dts is invalid st:0 (0) [init:1 i_done:0 finish:0] (this is harmless if it occurs once at the start per stream)
cur_dts is invalid st:0 (0) [init:1 i_done:0 finish:0] (this is harmless if it occurs once at the start per stream)
cur_dts is invalid st:0 (0) [init:1 i_done:0 finish:0] (this is harmless if it occurs once at the start per stream)
[dnxhd @ 000001a748d530c0] 1920x1080, 4:2:2 8 bits, MBAFF=0 ACT=0
[libx264 @ 000001a746be85c0] frame=   0 QP=18.85 NAL=3 Slice:I Poc:0   I:8160 P:0    SKIP:0    size=4715 bytes
[dnxhd @ 000001a748d53e40] 1920x1080, 4:2:2 8 bits, MBAFF=0 ACT=0
[libx264 @ 000001a746be85c0] frame=   1 QP=22.21 NAL=2 Slice:P Poc:8   I:17   P:148  SKIP:7995 size=471 bytes
[dnxhd @ 000001a748d54c00] 1920x1080, 4:2:2 8 bits, MBAFF=0 ACT=0
[libx264 @ 000001a746be85c0] frame=   2 QP=29.87 NAL=2 Slice:B Poc:4   I:1    P:141  SKIP:8017 size=272 bytes
[dnxhd @ 000001a748d51e80] 1920x1080, 4:2:2 8 bits, MBAFF=0 ACT=0
[libx264 @ 000001a746be85c0] frame=   3 QP=32.72 NAL=0 Slice:B Poc:2   I:1    P:126  SKIP:8032 size=179 bytes
[dnxhd @ 000001a746bd6e40] 1920x1080, 4:2:2 8 bits, MBAFF=0 ACT=0
[libx264 @ 000001a746be85c0] frame=   4 QP=32.72 NAL=0 Slice:B Poc:6   I:1    P:125  SKIP:8034 size=211 bytes
[dnxhd @ 000001a748d50d00] 1920x1080, 4:2:2 8 bits, MBAFF=0 ACT=0
[libx264 @ 000001a746be85c0] frame=   5 QP=22.34 NAL=2 Slice:P Poc:16  I:1    P:113  SKIP:8046 size=357 bytes
[dnxhd @ 000001a748d52c00] 1920x1080, 4:2:2 8 bits, MBAFF=0 ACT=0
[libx264 @ 000001a746be85c0] frame=   6 QP=31.72 NAL=2 Slice:B Poc:12  I:0    P:136  SKIP:8022 size=209 bytes
[dnxhd @ 000001a748d55080] 1920x1080, 4:2:2 8 bits, MBAFF=0 ACT=0
[libx264 @ 000001a746be85c0] frame=   7 QP=32.72 NAL=0 Slice:B Poc:10  I:0    P:121  SKIP:8036 size=192 bytes
[dnxhd @ 000001a748d54300] 1920x1080, 4:2:2 8 bits, MBAFF=0 ACT=0
[libx264 @ 000001a746be85c0] frame=   8 QP=32.72 NAL=0 Slice:B Poc:14  I:2    P:120  SKIP:8035 size=234 bytes
frame=   71 fps=0.0 q=28.0 size=       0kB time=00:00:02.26 bitrate=   0.2kbits/s speed=4.49x    
[dnxhd @ 000001a748d54780] 1920x1080, 4:2:2 8 bits, MBAFF=0 ACT=0
[libx264 @ 000001a746be85c0] frame=   9 QP=25.01 NAL=2 Slice:P Poc:24  I:5    P:19   SKIP:8136 size=440 bytes
[dnxhd @ 000001a748d53540] 1920x1080, 4:2:2 8 bits, MBAFF=0 ACT=0
[libx264 @ 000001a746be85c0] frame=  10 QP=29.87 NAL=2 Slice:B Poc:20  I:0    P:139  SKIP:8018 size=191 bytes
[dnxhd @ 000001a748d539c0] 1920x1080, 4:2:2 8 bits, MBAFF=0 ACT=0
[libx264 @ 000001a746be85c0] frame=  11 QP=32.72 NAL=0 Slice:B Poc:18  I:0    P:126  SKIP:8032 size=203 bytes
[dnxhd @ 000001a748d55540] 1920x1080, 4:2:2 8 bits, MBAFF=0 ACT=0
[libx264 @ 000001a746be85c0] frame=  12 QP=32.72 NAL=0 Slice:B Poc:22  I:0    P:122  SKIP:8035 size=211 bytes
[dnxhd @ 000001a748d530c0] 1920x1080, 4:2:2 8 bits, MBAFF=0 ACT=0
[libx264 @ 000001a746be85c0] frame=  13 QP=28.71 NAL=2 Slice:P Poc:32  I:0    P:20   SKIP:8140 size=218 bytes
[dnxhd @ 000001a748d53e40] 1920x1080, 4:2:2 8 bits, MBAFF=0 ACT=0
[libx264 @ 000001a746be85c0] frame=  14 QP=32.64 NAL=2 Slice:B Poc:28  I:2    P:135  SKIP:8020 size=301 bytes
[dnxhd @ 000001a748d54c00] 1920x1080, 4:2:2 8 bits, MBAFF=0 ACT=0
[libx264 @ 000001a746be85c0] frame=  15 QP=32.72 NAL=0 Slice:B Poc:26  I:0    P:126  SKIP:8033 size=200 bytes
[dnxhd @ 000001a748d51e80] 1920x1080, 4:2:2 8 bits, MBAFF=0 ACT=0
[libx264 @ 000001a746be85c0] frame=  16 QP=32.72 NAL=0 Slice:B Poc:30  I:0    P:123  SKIP:8034 size=199 bytes
[dnxhd @ 000001a746bd6e40] 1920x1080, 4:2:2 8 bits, MBAFF=0 ACT=0
[libx264 @ 000001a746be85c0] frame=  17 QP=28.75 NAL=2 Slice:P Poc:40  I:4    P:19   SKIP:8137 size=539 bytes
[dnxhd @ 000001a748d50d00] 1920x1080, 4:2:2 8 bits, MBAFF=0 ACT=0
[libx264 @ 000001a746be85c0] frame=  18 QP=32.67 NAL=2 Slice:B Poc:36  I:0    P:141  SKIP:8018 size=230 bytes
[dnxhd @ 000001a748d52c00] 1920x1080, 4:2:2 8 bits, MBAFF=0 ACT=0
[libx264 @ 000001a746be85c0] frame=  19 QP=32.72 NAL=0 Slice:B Poc:34  I:2    P:120  SKIP:8036 size=234 bytes
[dnxhd @ 000001a748d55080] 1920x1080, 4:2:2 8 bits, MBAFF=0 ACT=0
[libx264 @ 000001a746be85c0] frame=  20 QP=32.72 NAL=0 Slice:B Poc:38  I:1    P:126  SKIP:8033 size=222 bytes
[dnxhd @ 000001a748d54300] 1920x1080, 4:2:2 8 bits, MBAFF=0 ACT=0
[libx264 @ 000001a746be85c0] frame=  21 QP=22.35 NAL=2 Slice:P Poc:48  I:4    P:106  SKIP:8050 size=361 bytes
[dnxhd @ 000001a748d54780] 1920x1080, 4:2:2 8 bits, MBAFF=0 ACT=0
[libx264 @ 000001a746be85c0] frame=  22 QP=29.87 NAL=2 Slice:B Poc:44  I:1    P:136  SKIP:8020 size=266 bytes
[dnxhd @ 000001a748d53540] 1920x1080, 4:2:2 8 bits, MBAFF=0 ACT=0
[libx264 @ 000001a746be85c0] frame=  23 QP=32.72 NAL=0 Slice:B Poc:42  I:1    P:125  SKIP:8034 size=168 bytes
[dnxhd @ 000001a748d539c0] 1920x1080, 4:2:2 8 bits, MBAFF=0 ACT=0
[libx264 @ 000001a746be85c0] frame=  24 QP=32.72 NAL=0 Slice:B Poc:46  I:1    P:124  SKIP:8034 size=219 bytes
[dnxhd @ 000001a748d55540] 1920x1080, 4:2:2 8 bits, MBAFF=0 ACT=0
[libx264 @ 000001a746be85c0] frame=  25 QP=21.49 NAL=2 Slice:P Poc:56  I:6    P:24   SKIP:8130 size=981 bytes
[dnxhd @ 000001a748d530c0] 1920x1080, 4:2:2 8 bits, MBAFF=0 ACT=0
[libx264 @ 000001a746be85c0] frame=  26 QP=25.17 NAL=2 Slice:B Poc:52  I:1    P:148  SKIP:8010 size=209 bytes
[dnxhd @ 000001a748d53e40] 1920x1080, 4:2:2 8 bits, MBAFF=0 ACT=0
[libx264 @ 000001a746be85c0] frame=  27 QP=32.72 NAL=0 Slice:B Poc:50  I:1    P:142  SKIP:8015 size=182 bytes
[dnxhd @ 000001a748d54c00] 1920x1080, 4:2:2 8 bits, MBAFF=0 ACT=0
[libx264 @ 000001a746be85c0] frame=  28 QP=32.72 NAL=0 Slice:B Poc:54  I:0    P:133  SKIP:8024 size=240 bytes
[dnxhd @ 000001a748d51e80] 1920x1080, 4:2:2 8 bits, MBAFF=0 ACT=0
[libx264 @ 000001a746be85c0] frame=  29 QP=15.82 NAL=2 Slice:P Poc:64  I:1    P:21   SKIP:8138 size=279 bytes
[dnxhd @ 000001a746bd6e40] 1920x1080, 4:2:2 8 bits, MBAFF=0 ACT=0
[libx264 @ 000001a746be85c0] frame=  30 QP=31.72 NAL=2 Slice:B Poc:60  I:0    P:136  SKIP:8018 size=260 bytes
[dnxhd @ 000001a748d50d00] 1920x1080, 4:2:2 8 bits, MBAFF=0 ACT=0
[libx264 @ 000001a746be85c0] frame=  31 QP=32.72 NAL=0 Slice:B Poc:58  I:4    P:121  SKIP:8034 size=292 bytes
[dnxhd @ 000001a748d52c00] 1920x1080, 4:2:2 8 bits, MBAFF=0 ACT=0
[libx264 @ 000001a746be85c0] frame=  32 QP=32.72 NAL=0 Slice:B Poc:62  I:0    P:123  SKIP:8034 size=192 bytes
[dnxhd @ 000001a748d55080] 1920x1080, 4:2:2 8 bits, MBAFF=0 ACT=0
[libx264 @ 000001a746be85c0] frame=  33 QP=26.72 NAL=2 Slice:P Poc:72  I:6    P:17   SKIP:8137 size=404 bytes
[dnxhd @ 000001a748d54300] 1920x1080, 4:2:2 8 bits, MBAFF=0 ACT=0
[libx264 @ 000001a746be85c0] frame=  34 QP=29.87 NAL=2 Slice:B Poc:68  I:1    P:141  SKIP:8017 size=260 bytes
[dnxhd @ 000001a748d54780] 1920x1080, 4:2:2 8 bits, MBAFF=0 ACT=0
[libx264 @ 000001a746be85c0] frame=  35 QP=32.72 NAL=0 Slice:B Poc:66  I:0    P:126  SKIP:8034 size=216 bytes
[dnxhd @ 000001a748d53540] 1920x1080, 4:2:2 8 bits, MBAFF=0 ACT=0
[libx264 @ 000001a746be85c0] frame=  36 QP=32.72 NAL=0 Slice:B Poc:70  I:1    P:127  SKIP:8032 size=168 bytes
[dnxhd @ 000001a748d539c0] 1920x1080, 4:2:2 8 bits, MBAFF=0 ACT=0
[libx264 @ 000001a746be85c0] frame=  37 QP=27.80 NAL=2 Slice:P Poc:80  I:1    P:15   SKIP:8144 size=265 bytes
[dnxhd @ 000001a748d55540] 1920x1080, 4:2:2 8 bits, MBAFF=0 ACT=0
[libx264 @ 000001a746be85c0] frame=  38 QP=32.64 NAL=2 Slice:B Poc:76  I:0    P:137  SKIP:8022 size=201 bytes
[dnxhd @ 000001a748d530c0] 1920x1080, 4:2:2 8 bits, MBAFF=0 ACT=0
[libx264 @ 000001a746be85c0] frame=  39 QP=32.72 NAL=0 Slice:B Poc:74  I:2    P:124  SKIP:8034 size=254 bytes
[dnxhd @ 000001a748d53e40] 1920x1080, 4:2:2 8 bits, MBAFF=0 ACT=0
[libx264 @ 000001a746be85c0] frame=  40 QP=32.72 NAL=0 Slice:B Poc:78  I:1    P:121  SKIP:8035 size=239 bytes
[dnxhd @ 000001a748d54c00] 1920x1080, 4:2:2 8 bits, MBAFF=0 ACT=0
[libx264 @ 000001a746be85c0] frame=  41 QP=29.58 NAL=2 Slice:P Poc:88  I:0    P:15   SKIP:8145 size=232 bytes
[dnxhd @ 000001a748d51e80] 1920x1080, 4:2:2 8 bits, MBAFF=0 ACT=0
[libx264 @ 000001a746be85c0] frame=  42 QP=32.67 NAL=2 Slice:B Poc:84  I:1    P:135  SKIP:8022 size=262 bytes
[dnxhd @ 000001a746bd6e40] 1920x1080, 4:2:2 8 bits, MBAFF=0 ACT=0
[libx264 @ 000001a746be85c0] frame=  43 QP=32.72 NAL=0 Slice:B Poc:82  I:0    P:123  SKIP:8035 size=200 bytes
[dnxhd @ 000001a748d50d00] 1920x1080, 4:2:2 8 bits, MBAFF=0 ACT=0
[libx264 @ 000001a746be85c0] frame=  44 QP=32.72 NAL=0 Slice:B Poc:86  I:0    P:124  SKIP:8035 size=203 bytes
[dnxhd @ 000001a748d52c00] 1920x1080, 4:2:2 8 bits, MBAFF=0 ACT=0
[libx264 @ 000001a746be85c0] frame=  45 QP=28.72 NAL=2 Slice:P Poc:96  I:4    P:16   SKIP:8140 size=494 bytes
[dnxhd @ 000001a748d55080] 1920x1080, 4:2:2 8 bits, MBAFF=0 ACT=0
[libx264 @ 000001a746be85c0] frame=  46 QP=30.71 NAL=2 Slice:B Poc:92  I:2    P:140  SKIP:8017 size=237 bytes
[dnxhd @ 000001a748d54300] 1920x1080, 4:2:2 8 bits, MBAFF=0 ACT=0
[libx264 @ 000001a746be85c0] frame=  47 QP=32.72 NAL=0 Slice:B Poc:90  I:1    P:126  SKIP:8031 size=178 bytes
[dnxhd @ 000001a748d54780] 1920x1080, 4:2:2 8 bits, MBAFF=0 ACT=0
[libx264 @ 000001a746be85c0] frame=  48 QP=32.72 NAL=0 Slice:B Poc:94  I:2    P:125  SKIP:8033 size=254 bytes
[dnxhd @ 000001a748d53540] 1920x1080, 4:2:2 8 bits, MBAFF=0 ACT=0
[libx264 @ 000001a746be85c0] frame=  49 QP=22.57 NAL=2 Slice:P Poc:104 I:5    P:23   SKIP:8132 size=681 bytes
[dnxhd @ 000001a748d539c0] 1920x1080, 4:2:2 8 bits, MBAFF=0 ACT=0
[libx264 @ 000001a746be85c0] frame=  50 QP=32.67 NAL=2 Slice:B Poc:100 I:1    P:150  SKIP:8008 size=199 bytes
[dnxhd @ 000001a748d55540] 1920x1080, 4:2:2 8 bits, MBAFF=0 ACT=0
[libx264 @ 000001a746be85c0] frame=  51 QP=32.72 NAL=0 Slice:B Poc:98  I:2    P:128  SKIP:8027 size=259 bytes
[dnxhd @ 000001a748d530c0] 1920x1080, 4:2:2 8 bits, MBAFF=0 ACT=0
[libx264 @ 000001a746be85c0] frame=  52 QP=32.72 NAL=0 Slice:B Poc:102 I:1    P:120  SKIP:8035 size=215 bytes
[dnxhd @ 000001a748d53e40] 1920x1080, 4:2:2 8 bits, MBAFF=0 ACT=0
[libx264 @ 000001a746be85c0] frame=  53 QP=29.64 NAL=2 Slice:P Poc:112 I:0    P:19   SKIP:8141 size=203 bytes
[dnxhd @ 000001a748d54c00] 1920x1080, 4:2:2 8 bits, MBAFF=0 ACT=0
[libx264 @ 000001a746be85c0] frame=  54 QP=32.64 NAL=2 Slice:B Poc:108 I:2    P:135  SKIP:8020 size=279 bytes
[dnxhd @ 000001a748d51e80] 1920x1080, 4:2:2 8 bits, MBAFF=0 ACT=0
[libx264 @ 000001a746be85c0] frame=  55 QP=32.72 NAL=0 Slice:B Poc:106 I:0    P:128  SKIP:8032 size=197 bytes
[libx264 @ 000001a746be85c0] scene cut at 75 Icost:1448687 Pcost:1424301 ratio:0.0168 bias:0.1667 gop:75 (imb:7006 pmb:782)
[dnxhd @ 000001a746bd6e40] 1920x1080, 4:2:2 8 bits, MBAFF=0 ACT=0
[libx264 @ 000001a746be85c0] frame=  56 QP=32.72 NAL=0 Slice:B Poc:110 I:0    P:136  SKIP:8021 size=225 bytes
[dnxhd @ 000001a748d50d00] 1920x1080, 4:2:2 8 bits, MBAFF=0 ACT=0
[libx264 @ 000001a746be85c0] frame=  57 QP=27.85 NAL=2 Slice:P Poc:120 I:3    P:16   SKIP:8141 size=343 bytes
[dnxhd @ 000001a748d52c00] 1920x1080, 4:2:2 8 bits, MBAFF=0 ACT=0
[libx264 @ 000001a746be85c0] frame=  58 QP=32.67 NAL=2 Slice:B Poc:116 I:0    P:137  SKIP:8021 size=220 bytes
[dnxhd @ 000001a748d55080] 1920x1080, 4:2:2 8 bits, MBAFF=0 ACT=0
[libx264 @ 000001a746be85c0] frame=  59 QP=32.72 NAL=0 Slice:B Poc:114 I:2    P:134  SKIP:8023 size=256 bytes
[dnxhd @ 000001a748d54300] 1920x1080, 4:2:2 8 bits, MBAFF=0 ACT=0
[libx264 @ 000001a746be85c0] frame=  60 QP=32.72 NAL=0 Slice:B Poc:118 I:0    P:140  SKIP:8018 size=231 bytes
[dnxhd @ 000001a748d54780] 1920x1080, 4:2:2 8 bits, MBAFF=0 ACT=0
[libx264 @ 000001a746be85c0] frame=  61 QP=22.44 NAL=2 Slice:P Poc:128 I:6    P:6    SKIP:8148 size=285 bytes
[dnxhd @ 000001a748d53540] 1920x1080, 4:2:2 8 bits, MBAFF=0 ACT=0
[libx264 @ 000001a746be85c0] frame=  62 QP=29.87 NAL=2 Slice:B Poc:124 I:1    P:135  SKIP:8022 size=281 bytes
[dnxhd @ 000001a748d539c0] 1920x1080, 4:2:2 8 bits, MBAFF=0 ACT=0
[libx264 @ 000001a746be85c0] frame=  63 QP=32.72 NAL=0 Slice:B Poc:122 I:1    P:119  SKIP:8039 size=173 bytes
[dnxhd @ 000001a748d55540] 1920x1080, 4:2:2 8 bits, MBAFF=0 ACT=0
[libx264 @ 000001a746be85c0] frame=  64 QP=32.72 NAL=0 Slice:B Poc:126 I:1    P:120  SKIP:8039 size=215 bytes
[dnxhd @ 000001a748d530c0] 1920x1080, 4:2:2 8 bits, MBAFF=0 ACT=0
[libx264 @ 000001a746be85c0] frame=  65 QP=20.16 NAL=2 Slice:P Poc:136 I:1    P:13   SKIP:8146 size=236 bytes
[dnxhd @ 000001a748d53e40] 1920x1080, 4:2:2 8 bits, MBAFF=0 ACT=0
[libx264 @ 000001a746be85c0] frame=  66 QP=31.72 NAL=2 Slice:B Poc:132 I:0    P:136  SKIP:8023 size=194 bytes
[dnxhd @ 000001a748d54c00] 1920x1080, 4:2:2 8 bits, MBAFF=0 ACT=0
[libx264 @ 000001a746be85c0] frame=  67 QP=32.72 NAL=0 Slice:B Poc:130 I:0    P:120  SKIP:8037 size=198 bytes
[dnxhd @ 000001a748d51e80] 1920x1080, 4:2:2 8 bits, MBAFF=0 ACT=0
[libx264 @ 000001a746be85c0] frame=  68 QP=32.72 NAL=0 Slice:B Poc:134 I:2    P:118  SKIP:8038 size=224 bytes
[dnxhd @ 000001a746bd6e40] 1920x1080, 4:2:2 8 bits, MBAFF=0 ACT=0
[libx264 @ 000001a746be85c0] frame=  69 QP=27.38 NAL=2 Slice:P Poc:144 I:6    P:7    SKIP:8147 size=510 bytes
[dnxhd @ 000001a748d50d00] 1920x1080, 4:2:2 8 bits, MBAFF=0 ACT=0
[libx264 @ 000001a746be85c0] frame=  70 QP=29.87 NAL=2 Slice:B Poc:140 I:0    P:141  SKIP:8018 size=197 bytes
[dnxhd @ 000001a748d52c00] 1920x1080, 4:2:2 8 bits, MBAFF=0 ACT=0
[libx264 @ 000001a746be85c0] frame=  71 QP=32.72 NAL=0 Slice:B Poc:138 I:1    P:140  SKIP:8018 size=241 bytes
[dnxhd @ 000001a748d55080] 1920x1080, 4:2:2 8 bits, MBAFF=0 ACT=0
[libx264 @ 000001a746be85c0] frame=  72 QP=32.72 NAL=0 Slice:B Poc:142 I:1    P:137  SKIP:8021 size=231 bytes
[dnxhd @ 000001a748d54300] 1920x1080, 4:2:2 8 bits, MBAFF=0 ACT=0
[libx264 @ 000001a746be85c0] frame=  73 QP=32.72 NAL=2 Slice:P Poc:148 I:2    P:7    SKIP:8151 size=223 bytes
[dnxhd @ 000001a748d54780] 1920x1080, 4:2:2 8 bits, MBAFF=0 ACT=0
[libx264 @ 000001a746be85c0] frame=  74 QP=32.72 NAL=0 Slice:B Poc:146 I:1    P:118  SKIP:8041 size=204 bytes
[dnxhd @ 000001a748d53540] 1920x1080, 4:2:2 8 bits, MBAFF=0 ACT=0
[libx264 @ 000001a746be85c0] frame=  75 QP=7.98 NAL=3 Slice:I Poc:0   I:8160 P:0    SKIP:0    size=38066 bytes
[dnxhd @ 000001a748d539c0] 1920x1080, 4:2:2 8 bits, MBAFF=0 ACT=0
[libx264 @ 000001a746be85c0] frame=  76 QP=26.50 NAL=2 Slice:P Poc:8   I:8    P:6    SKIP:8146 size=269 bytes
[dnxhd @ 000001a748d55540] 1920x1080, 4:2:2 8 bits, MBAFF=0 ACT=0
[libx264 @ 000001a746be85c0] frame=  77 QP=32.03 NAL=2 Slice:B Poc:4   I:2    P:11   SKIP:8146 size=196 bytes
[dnxhd @ 000001a748d530c0] 1920x1080, 4:2:2 8 bits, MBAFF=0 ACT=0
[libx264 @ 000001a746be85c0] frame=  78 QP=32.12 NAL=0 Slice:B Poc:2   I:1    P:10   SKIP:8147 size=152 bytes
[dnxhd @ 000001a748d53e40] 1920x1080, 4:2:2 8 bits, MBAFF=0 ACT=0
[libx264 @ 000001a746be85c0] frame=  79 QP=33.97 NAL=0 Slice:B Poc:6   I:1    P:8    SKIP:8150 size=168 bytes
[dnxhd @ 000001a748d54c00] 1920x1080, 4:2:2 8 bits, MBAFF=0 ACT=0
[libx264 @ 000001a746be85c0] frame=  80 QP=31.10 NAL=2 Slice:P Poc:16  I:1    P:7    SKIP:8152 size=236 bytes
[dnxhd @ 000001a748d51e80] 1920x1080, 4:2:2 8 bits, MBAFF=0 ACT=0
[libx264 @ 000001a746be85c0] frame=  81 QP=30.16 NAL=2 Slice:B Poc:12  I:0    P:7    SKIP:8152 size=174 bytes
[dnxhd @ 000001a746bd6e40] 1920x1080, 4:2:2 8 bits, MBAFF=0 ACT=0
[libx264 @ 000001a746be85c0] frame=  82 QP=33.94 NAL=0 Slice:B Poc:10  I:0    P:7    SKIP:8151 size=169 bytes
[dnxhd @ 000001a748d50d00] 1920x1080, 4:2:2 8 bits, MBAFF=0 ACT=0
[libx264 @ 000001a746be85c0] frame=  83 QP=33.97 NAL=0 Slice:B Poc:14  I:1    P:8    SKIP:8150 size=183 bytes
[dnxhd @ 000001a748d52c00] 1920x1080, 4:2:2 8 bits, MBAFF=0 ACT=0
[libx264 @ 000001a746be85c0] frame=  84 QP=29.97 NAL=2 Slice:P Poc:24  I:7    P:5    SKIP:8148 size=313 bytes
frame=  147 fps=146 q=28.0 size=       0kB time=00:00:05.29 bitrate=   0.1kbits/s speed=5.24x    
[dnxhd @ 000001a748d55080] 1920x1080, 4:2:2 8 bits, MBAFF=0 ACT=0
[libx264 @ 000001a746be85c0] frame=  85 QP=31.05 NAL=2 Slice:B Poc:20  I:1    P:10   SKIP:8146 size=160 bytes
[dnxhd @ 000001a748d54300] 1920x1080, 4:2:2 8 bits, MBAFF=0 ACT=0
[libx264 @ 000001a746be85c0] frame=  86 QP=33.97 NAL=0 Slice:B Poc:18  I:0    P:11   SKIP:8147 size=160 bytes
[dnxhd @ 000001a748d54780] 1920x1080, 4:2:2 8 bits, MBAFF=0 ACT=0
[libx264 @ 000001a746be85c0] frame=  87 QP=32.12 NAL=0 Slice:B Poc:22  I:3    P:8    SKIP:8148 size=170 bytes
[dnxhd @ 000001a748d53540] 1920x1080, 4:2:2 8 bits, MBAFF=0 ACT=0
[libx264 @ 000001a746be85c0] frame=  88 QP=29.06 NAL=2 Slice:P Poc:32  I:1    P:9    SKIP:8150 size=197 bytes
[dnxhd @ 000001a748d539c0] 1920x1080, 4:2:2 8 bits, MBAFF=0 ACT=0
[libx264 @ 000001a746be85c0] frame=  89 QP=31.97 NAL=2 Slice:B Poc:28  I:3    P:7    SKIP:8147 size=220 bytes
[dnxhd @ 000001a748d55540] 1920x1080, 4:2:2 8 bits, MBAFF=0 ACT=0
[libx264 @ 000001a746be85c0] frame=  90 QP=33.97 NAL=0 Slice:B Poc:26  I:0    P:12   SKIP:8148 size=144 bytes
[dnxhd @ 000001a748d530c0] 1920x1080, 4:2:2 8 bits, MBAFF=0 ACT=0
[libx264 @ 000001a746be85c0] frame=  91 QP=33.94 NAL=0 Slice:B Poc:30  I:0    P:9    SKIP:8149 size=177 bytes
[dnxhd @ 000001a748d53e40] 1920x1080, 4:2:2 8 bits, MBAFF=0 ACT=0
[libx264 @ 000001a746be85c0] frame=  92 QP=29.07 NAL=2 Slice:P Poc:40  I:6    P:7    SKIP:8147 size=430 bytes
[dnxhd @ 000001a748d54c00] 1920x1080, 4:2:2 8 bits, MBAFF=0 ACT=0
[libx264 @ 000001a746be85c0] frame=  93 QP=33.92 NAL=2 Slice:B Poc:36  I:0    P:13   SKIP:8146 size=167 bytes
[dnxhd @ 000001a748d51e80] 1920x1080, 4:2:2 8 bits, MBAFF=0 ACT=0
[libx264 @ 000001a746be85c0] frame=  94 QP=33.97 NAL=0 Slice:B Poc:34  I:4    P:6    SKIP:8149 size=190 bytes
[dnxhd @ 000001a746bd6e40] 1920x1080, 4:2:2 8 bits, MBAFF=0 ACT=0
[libx264 @ 000001a746be85c0] frame=  95 QP=33.97 NAL=0 Slice:B Poc:38  I:0    P:11   SKIP:8147 size=169 bytes
[dnxhd @ 000001a748d50d00] 1920x1080, 4:2:2 8 bits, MBAFF=0 ACT=0
[libx264 @ 000001a746be85c0] frame=  96 QP=25.30 NAL=2 Slice:P Poc:48  I:5    P:2    SKIP:8153 size=233 bytes
[dnxhd @ 000001a748d52c00] 1920x1080, 4:2:2 8 bits, MBAFF=0 ACT=0
[libx264 @ 000001a746be85c0] frame=  97 QP=32.97 NAL=2 Slice:B Poc:44  I:1    P:8    SKIP:8150 size=185 bytes
[dnxhd @ 000001a748d55080] 1920x1080, 4:2:2 8 bits, MBAFF=0 ACT=0
[libx264 @ 000001a746be85c0] frame=  98 QP=32.12 NAL=0 Slice:B Poc:42  I:1    P:7    SKIP:8150 size=143 bytes
[dnxhd @ 000001a748d54300] 1920x1080, 4:2:2 8 bits, MBAFF=0 ACT=0
[libx264 @ 000001a746be85c0] frame=  99 QP=33.97 NAL=0 Slice:B Poc:46  I:0    P:9    SKIP:8151 size=161 bytes
[dnxhd @ 000001a748d54780] 1920x1080, 4:2:2 8 bits, MBAFF=0 ACT=0
[libx264 @ 000001a746be85c0] frame= 100 QP=19.25 NAL=2 Slice:P Poc:56  I:27   P:117  SKIP:8016 size=1817 bytes
[dnxhd @ 000001a748d53540] 1920x1080, 4:2:2 8 bits, MBAFF=0 ACT=0
[libx264 @ 000001a746be85c0] frame= 101 QP=31.90 NAL=2 Slice:B Poc:52  I:4    P:71   SKIP:8082 size=199 bytes
[dnxhd @ 000001a748d539c0] 1920x1080, 4:2:2 8 bits, MBAFF=0 ACT=0
[libx264 @ 000001a746be85c0] frame= 102 QP=32.12 NAL=0 Slice:B Poc:50  I:3    P:73   SKIP:8083 size=207 bytes
[dnxhd @ 000001a748d55540] 1920x1080, 4:2:2 8 bits, MBAFF=0 ACT=0
[libx264 @ 000001a746be85c0] frame= 103 QP=32.12 NAL=0 Slice:B Poc:54  I:5    P:14   SKIP:8140 size=201 bytes
[dnxhd @ 000001a748d530c0] 1920x1080, 4:2:2 8 bits, MBAFF=0 ACT=0
[libx264 @ 000001a746be85c0] frame= 104 QP=15.71 NAL=2 Slice:P Poc:64  I:5    P:16   SKIP:8139 size=247 bytes
[dnxhd @ 000001a748d53e40] 1920x1080, 4:2:2 8 bits, MBAFF=0 ACT=0
[libx264 @ 000001a746be85c0] frame= 105 QP=32.97 NAL=2 Slice:B Poc:60  I:2    P:17   SKIP:8137 size=207 bytes
[dnxhd @ 000001a748d54c00] 1920x1080, 4:2:2 8 bits, MBAFF=0 ACT=0
[libx264 @ 000001a746be85c0] frame= 106 QP=28.36 NAL=0 Slice:B Poc:58  I:10   P:6    SKIP:8143 size=226 bytes
[dnxhd @ 000001a748d51e80] 1920x1080, 4:2:2 8 bits, MBAFF=0 ACT=0
[libx264 @ 000001a746be85c0] frame= 107 QP=33.97 NAL=0 Slice:B Poc:62  I:5    P:10   SKIP:8142 size=171 bytes
[dnxhd @ 000001a746bd6e40] 1920x1080, 4:2:2 8 bits, MBAFF=0 ACT=0
[libx264 @ 000001a746be85c0] frame= 108 QP=29.80 NAL=2 Slice:P Poc:72  I:10   P:5    SKIP:8145 size=312 bytes
[dnxhd @ 000001a748d50d00] 1920x1080, 4:2:2 8 bits, MBAFF=0 ACT=0
[libx264 @ 000001a746be85c0] frame= 109 QP=32.01 NAL=2 Slice:B Poc:68  I:5    P:16   SKIP:8139 size=222 bytes
[dnxhd @ 000001a748d52c00] 1920x1080, 4:2:2 8 bits, MBAFF=0 ACT=0
[libx264 @ 000001a746be85c0] frame= 110 QP=33.97 NAL=0 Slice:B Poc:66  I:3    P:12   SKIP:8142 size=205 bytes
[dnxhd @ 000001a748d55080] 1920x1080, 4:2:2 8 bits, MBAFF=0 ACT=0
[libx264 @ 000001a746be85c0] frame= 111 QP=33.97 NAL=0 Slice:B Poc:70  I:3    P:17   SKIP:8140 size=145 bytes
[dnxhd @ 000001a748d54300] 1920x1080, 4:2:2 8 bits, MBAFF=0 ACT=0
[libx264 @ 000001a746be85c0] frame= 112 QP=29.08 NAL=2 Slice:P Poc:80  I:2    P:8    SKIP:8150 size=229 bytes
[dnxhd @ 000001a748d54780] 1920x1080, 4:2:2 8 bits, MBAFF=0 ACT=0
[libx264 @ 000001a746be85c0] frame= 113 QP=33.88 NAL=2 Slice:B Poc:76  I:3    P:13   SKIP:8143 size=169 bytes
[dnxhd @ 000001a748d53540] 1920x1080, 4:2:2 8 bits, MBAFF=0 ACT=0
[libx264 @ 000001a746be85c0] frame= 114 QP=32.12 NAL=0 Slice:B Poc:74  I:6    P:9    SKIP:8144 size=183 bytes
[dnxhd @ 000001a748d539c0] 1920x1080, 4:2:2 8 bits, MBAFF=0 ACT=0
[libx264 @ 000001a746be85c0] frame= 115 QP=28.36 NAL=0 Slice:B Poc:78  I:4    P:8    SKIP:8146 size=192 bytes
[dnxhd @ 000001a748d55540] 1920x1080, 4:2:2 8 bits, MBAFF=0 ACT=0
[libx264 @ 000001a746be85c0] frame= 116 QP=30.89 NAL=2 Slice:P Poc:88  I:2    P:7    SKIP:8151 size=208 bytes
[dnxhd @ 000001a748d530c0] 1920x1080, 4:2:2 8 bits, MBAFF=0 ACT=0
[libx264 @ 000001a746be85c0] frame= 117 QP=33.93 NAL=2 Slice:B Poc:84  I:7    P:9    SKIP:8142 size=202 bytes
[dnxhd @ 000001a748d53e40] 1920x1080, 4:2:2 8 bits, MBAFF=0 ACT=0
[libx264 @ 000001a746be85c0] frame= 118 QP=33.97 NAL=0 Slice:B Poc:82  I:1    P:11   SKIP:8145 size=173 bytes
[dnxhd @ 000001a748d54c00] 1920x1080, 4:2:2 8 bits, MBAFF=0 ACT=0
[libx264 @ 000001a746be85c0] frame= 119 QP=33.97 NAL=0 Slice:B Poc:86  I:1    P:10   SKIP:8147 size=177 bytes
[dnxhd @ 000001a748d51e80] 1920x1080, 4:2:2 8 bits, MBAFF=0 ACT=0
[libx264 @ 000001a746be85c0] frame= 120 QP=27.25 NAL=2 Slice:P Poc:96  I:9    P:10   SKIP:8141 size=417 bytes
[dnxhd @ 000001a746bd6e40] 1920x1080, 4:2:2 8 bits, MBAFF=0 ACT=0
[libx264 @ 000001a746be85c0] frame= 121 QP=32.08 NAL=2 Slice:B Poc:92  I:7    P:11   SKIP:8142 size=163 bytes
[dnxhd @ 000001a748d50d00] 1920x1080, 4:2:2 8 bits, MBAFF=0 ACT=0
[libx264 @ 000001a746be85c0] frame= 122 QP=33.97 NAL=0 Slice:B Poc:90  I:2    P:11   SKIP:8144 size=148 bytes
[dnxhd @ 000001a748d52c00] 1920x1080, 4:2:2 8 bits, MBAFF=0 ACT=0
[libx264 @ 000001a746be85c0] frame= 123 QP=32.12 NAL=0 Slice:B Poc:94  I:4    P:7    SKIP:8149 size=174 bytes
[dnxhd @ 000001a748d55080] 1920x1080, 4:2:2 8 bits, MBAFF=0 ACT=0
[libx264 @ 000001a746be85c0] frame= 124 QP=19.28 NAL=2 Slice:P Poc:100 I:36   P:98   SKIP:8026 size=1997 bytes
[dnxhd @ 000001a748d54300] 1920x1080, 4:2:2 8 bits, MBAFF=0 ACT=0
[libx264 @ 000001a746be85c0] frame= 125 QP=28.36 NAL=0 Slice:B Poc:98  I:5    P:76   SKIP:8079 size=238 bytes
[dnxhd @ 000001a748d54780] 1920x1080, 4:2:2 8 bits, MBAFF=0 ACT=0
[libx264 @ 000001a746be85c0] frame= 126 QP=22.45 NAL=2 Slice:P Poc:108 I:3    P:16   SKIP:8141 size=253 bytes
[dnxhd @ 000001a748d53540] 1920x1080, 4:2:2 8 bits, MBAFF=0 ACT=0
[libx264 @ 000001a746be85c0] frame= 127 QP=32.97 NAL=2 Slice:B Poc:104 I:2    P:18   SKIP:8140 size=202 bytes
[dnxhd @ 000001a748d539c0] 1920x1080, 4:2:2 8 bits, MBAFF=0 ACT=0
[libx264 @ 000001a746be85c0] frame= 128 QP=32.12 NAL=0 Slice:B Poc:102 I:3    P:9    SKIP:8146 size=143 bytes
[dnxhd @ 000001a748d55540] 1920x1080, 4:2:2 8 bits, MBAFF=0 ACT=0
[libx264 @ 000001a746be85c0] frame= 129 QP=33.97 NAL=0 Slice:B Poc:106 I:3    P:8    SKIP:8149 size=169 bytes
[dnxhd @ 000001a748d530c0] 1920x1080, 4:2:2 8 bits, MBAFF=0 ACT=0
[libx264 @ 000001a746be85c0] frame= 130 QP=25.00 NAL=2 Slice:P Poc:116 I:1    P:12   SKIP:8147 size=257 bytes
[dnxhd @ 000001a748d53e40] 1920x1080, 4:2:2 8 bits, MBAFF=0 ACT=0
[libx264 @ 000001a746be85c0] frame= 131 QP=32.93 NAL=2 Slice:B Poc:112 I:1    P:8    SKIP:8150 size=173 bytes
[dnxhd @ 000001a748d54c00] 1920x1080, 4:2:2 8 bits, MBAFF=0 ACT=0
[libx264 @ 000001a746be85c0] frame= 132 QP=33.94 NAL=0 Slice:B Poc:110 I:0    P:5    SKIP:8153 size=171 bytes
[dnxhd @ 000001a748d51e80] 1920x1080, 4:2:2 8 bits, MBAFF=0 ACT=0
[libx264 @ 000001a746be85c0] frame= 133 QP=33.97 NAL=0 Slice:B Poc:114 I:3    P:4    SKIP:8152 size=191 bytes
[dnxhd @ 000001a746bd6e40] 1920x1080, 4:2:2 8 bits, MBAFF=0 ACT=0
[libx264 @ 000001a746be85c0] frame= 134 QP=19.92 NAL=2 Slice:P Poc:124 I:8    P:7    SKIP:8145 size=321 bytes
[dnxhd @ 000001a748d50d00] 1920x1080, 4:2:2 8 bits, MBAFF=0 ACT=0
[libx264 @ 000001a746be85c0] frame= 135 QP=31.05 NAL=2 Slice:B Poc:120 I:2    P:11   SKIP:8145 size=177 bytes
[dnxhd @ 000001a748d52c00] 1920x1080, 4:2:2 8 bits, MBAFF=0 ACT=0
[libx264 @ 000001a746be85c0] frame= 136 QP=34.59 NAL=0 Slice:B Poc:118 I:0    P:10   SKIP:8148 size=154 bytes
[dnxhd @ 000001a748d55080] 1920x1080, 4:2:2 8 bits, MBAFF=0 ACT=0
[libx264 @ 000001a746be85c0] frame= 137 QP=32.12 NAL=0 Slice:B Poc:122 I:4    P:6    SKIP:8149 size=171 bytes
[dnxhd @ 000001a748d54300] 1920x1080, 4:2:2 8 bits, MBAFF=0 ACT=0
[libx264 @ 000001a746be85c0] frame= 138 QP=20.44 NAL=2 Slice:P Poc:132 I:2    P:10   SKIP:8148 size=207 bytes
[dnxhd @ 000001a748d54780] 1920x1080, 4:2:2 8 bits, MBAFF=0 ACT=0
[libx264 @ 000001a746be85c0] frame= 139 QP=28.28 NAL=2 Slice:B Poc:128 I:3    P:7    SKIP:8147 size=221 bytes
[dnxhd @ 000001a748d53540] 1920x1080, 4:2:2 8 bits, MBAFF=0 ACT=0
[libx264 @ 000001a746be85c0] frame= 140 QP=33.97 NAL=0 Slice:B Poc:126 I:0    P:11   SKIP:8149 size=152 bytes
[dnxhd @ 000001a748d539c0] 1920x1080, 4:2:2 8 bits, MBAFF=0 ACT=0
[libx264 @ 000001a746be85c0] frame= 141 QP=33.94 NAL=0 Slice:B Poc:130 I:1    P:8    SKIP:8149 size=174 bytes
[dnxhd @ 000001a748d55540] 1920x1080, 4:2:2 8 bits, MBAFF=0 ACT=0
[libx264 @ 000001a746be85c0] frame= 142 QP=29.06 NAL=2 Slice:P Poc:140 I:6    P:7    SKIP:8147 size=431 bytes
[dnxhd @ 000001a748d530c0] 1920x1080, 4:2:2 8 bits, MBAFF=0 ACT=0
[libx264 @ 000001a746be85c0] frame= 143 QP=33.92 NAL=2 Slice:B Poc:136 I:0    P:14   SKIP:8145 size=170 bytes
[dnxhd @ 000001a748d53e40] 1920x1080, 4:2:2 8 bits, MBAFF=0 ACT=0
[libx264 @ 000001a746be85c0] frame= 144 QP=33.97 NAL=0 Slice:B Poc:134 I:4    P:6    SKIP:8149 size=184 bytes
[dnxhd @ 000001a748d54c00] 1920x1080, 4:2:2 8 bits, MBAFF=0 ACT=0
[libx264 @ 000001a746be85c0] frame= 145 QP=33.97 NAL=0 Slice:B Poc:138 I:0    P:11   SKIP:8148 size=164 bytes
[dnxhd @ 000001a748d51e80] 1920x1080, 4:2:2 8 bits, MBAFF=0 ACT=0
[libx264 @ 000001a746be85c0] frame= 146 QP=25.30 NAL=2 Slice:P Poc:148 I:5    P:2    SKIP:8153 size=239 bytes
[dnxhd @ 000001a746bd6e40] 1920x1080, 4:2:2 8 bits, MBAFF=0 ACT=0
[libx264 @ 000001a746be85c0] frame= 147 QP=32.97 NAL=2 Slice:B Poc:144 I:1    P:8    SKIP:8149 size=194 bytes
[dnxhd @ 000001a748d50d00] 1920x1080, 4:2:2 8 bits, MBAFF=0 ACT=0
[libx264 @ 000001a746be85c0] frame= 148 QP=32.12 NAL=0 Slice:B Poc:142 I:1    P:6    SKIP:8151 size=134 bytes
[dnxhd @ 000001a748d52c00] 1920x1080, 4:2:2 8 bits, MBAFF=0 ACT=0
[libx264 @ 000001a746be85c0] frame= 149 QP=33.97 NAL=0 Slice:B Poc:146 I:1    P:8    SKIP:8151 size=163 bytes
[dnxhd @ 000001a748d55080] 1920x1080, 4:2:2 8 bits, MBAFF=0 ACT=0
[libx264 @ 000001a746be85c0] frame= 150 QP=18.29 NAL=2 Slice:P Poc:156 I:34   P:105  SKIP:8021 size=2109 bytes
[dnxhd @ 000001a748d54300] 1920x1080, 4:2:2 8 bits, MBAFF=0 ACT=0
[libx264 @ 000001a746be85c0] frame= 151 QP=31.90 NAL=2 Slice:B Poc:152 I:5    P:76   SKIP:8077 size=209 bytes
[dnxhd @ 000001a748d54780] 1920x1080, 4:2:2 8 bits, MBAFF=0 ACT=0
[libx264 @ 000001a746be85c0] frame= 152 QP=32.12 NAL=0 Slice:B Poc:150 I:3    P:69   SKIP:8086 size=203 bytes
[dnxhd @ 000001a748d53540] 1920x1080, 4:2:2 8 bits, MBAFF=0 ACT=0
[libx264 @ 000001a746be85c0] frame= 153 QP=32.12 NAL=0 Slice:B Poc:154 I:5    P:17   SKIP:8138 size=194 bytes
[dnxhd @ 000001a748d539c0] 1920x1080, 4:2:2 8 bits, MBAFF=0 ACT=0
[libx264 @ 000001a746be85c0] frame= 154 QP=18.02 NAL=2 Slice:P Poc:164 I:7    P:17   SKIP:8136 size=285 bytes
[dnxhd @ 000001a748d55540] 1920x1080, 4:2:2 8 bits, MBAFF=0 ACT=0
[libx264 @ 000001a746be85c0] frame= 155 QP=32.97 NAL=2 Slice:B Poc:160 I:4    P:18   SKIP:8135 size=229 bytes
[dnxhd @ 000001a748d530c0] 1920x1080, 4:2:2 8 bits, MBAFF=0 ACT=0
[libx264 @ 000001a746be85c0] frame= 156 QP=28.36 NAL=0 Slice:B Poc:158 I:10   P:10   SKIP:8140 size=232 bytes
[dnxhd @ 000001a748d53e40] 1920x1080, 4:2:2 8 bits, MBAFF=0 ACT=0
[libx264 @ 000001a746be85c0] frame= 157 QP=33.97 NAL=0 Slice:B Poc:162 I:4    P:10   SKIP:8143 size=176 bytes
[dnxhd @ 000001a748d54c00] 1920x1080, 4:2:2 8 bits, MBAFF=0 ACT=0
[libx264 @ 000001a746be85c0] frame= 158 QP=21.95 NAL=2 Slice:P Poc:172 I:10   P:11   SKIP:8139 size=341 bytes
[dnxhd @ 000001a748d51e80] 1920x1080, 4:2:2 8 bits, MBAFF=0 ACT=0
[libx264 @ 000001a746be85c0] frame= 159 QP=32.01 NAL=2 Slice:B Poc:168 I:4    P:15   SKIP:8141 size=216 bytes
[dnxhd @ 000001a746bd6e40] 1920x1080, 4:2:2 8 bits, MBAFF=0 ACT=0
[libx264 @ 000001a746be85c0] frame= 160 QP=33.97 NAL=0 Slice:B Poc:166 I:3    P:11   SKIP:8144 size=197 bytes
[dnxhd @ 000001a748d50d00] 1920x1080, 4:2:2 8 bits, MBAFF=0 ACT=0
[libx264 @ 000001a746be85c0] frame= 161 QP=33.97 NAL=0 Slice:B Poc:170 I:4    P:14   SKIP:8142 size=149 bytes
[dnxhd @ 000001a748d52c00] 1920x1080, 4:2:2 8 bits, MBAFF=0 ACT=0
[libx264 @ 000001a746be85c0] frame= 162 QP=25.12 NAL=2 Slice:P Poc:180 I:2    P:13   SKIP:8145 size=246 bytes
[dnxhd @ 000001a748d55080] 1920x1080, 4:2:2 8 bits, MBAFF=0 ACT=0
[libx264 @ 000001a746be85c0] frame= 163 QP=33.88 NAL=2 Slice:B Poc:176 I:2    P:12   SKIP:8145 size=166 bytes
[dnxhd @ 000001a748d54300] 1920x1080, 4:2:2 8 bits, MBAFF=0 ACT=0
[libx264 @ 000001a746be85c0] frame= 164 QP=32.12 NAL=0 Slice:B Poc:174 I:4    P:9    SKIP:8147 size=184 bytes
[dnxhd @ 000001a748d54780] 1920x1080, 4:2:2 8 bits, MBAFF=0 ACT=0
[libx264 @ 000001a746be85c0] frame= 165 QP=28.36 NAL=0 Slice:B Poc:178 I:4    P:7    SKIP:8147 size=192 bytes
[dnxhd @ 000001a748d53540] 1920x1080, 4:2:2 8 bits, MBAFF=0 ACT=0
[libx264 @ 000001a746be85c0] frame= 166 QP=11.59 NAL=2 Slice:P Poc:188 I:3    P:8    SKIP:8149 size=224 bytes
[dnxhd @ 000001a748d539c0] 1920x1080, 4:2:2 8 bits, MBAFF=0 ACT=0
[libx264 @ 000001a746be85c0] frame= 167 QP=33.93 NAL=2 Slice:B Poc:184 I:5    P:11   SKIP:8142 size=205 bytes
[dnxhd @ 000001a748d55540] 1920x1080, 4:2:2 8 bits, MBAFF=0 ACT=0
[libx264 @ 000001a746be85c0] frame= 168 QP=33.97 NAL=0 Slice:B Poc:182 I:3    P:14   SKIP:8141 size=176 bytes
frame=  231 fps=153 q=28.0 size=       0kB time=00:00:08.66 bitrate=   0.0kbits/s speed=5.74x    
[dnxhd @ 000001a748d530c0] 1920x1080, 4:2:2 8 bits, MBAFF=0 ACT=0
[libx264 @ 000001a746be85c0] frame= 169 QP=33.97 NAL=0 Slice:B Poc:186 I:4    P:13   SKIP:8141 size=190 bytes
[dnxhd @ 000001a748d53e40] 1920x1080, 4:2:2 8 bits, MBAFF=0 ACT=0
[libx264 @ 000001a746be85c0] frame= 170 QP=27.25 NAL=2 Slice:P Poc:196 I:9    P:10   SKIP:8141 size=417 bytes
[dnxhd @ 000001a748d54c00] 1920x1080, 4:2:2 8 bits, MBAFF=0 ACT=0
[libx264 @ 000001a746be85c0] frame= 171 QP=32.08 NAL=2 Slice:B Poc:192 I:4    P:13   SKIP:8141 size=171 bytes
[dnxhd @ 000001a748d51e80] 1920x1080, 4:2:2 8 bits, MBAFF=0 ACT=0
[libx264 @ 000001a746be85c0] frame= 172 QP=33.97 NAL=0 Slice:B Poc:190 I:2    P:14   SKIP:8142 size=141 bytes
[dnxhd @ 000001a746bd6e40] 1920x1080, 4:2:2 8 bits, MBAFF=0 ACT=0
[libx264 @ 000001a746be85c0] frame= 173 QP=32.12 NAL=0 Slice:B Poc:194 I:4    P:9    SKIP:8146 size=183 bytes
[dnxhd @ 000001a748d50d00] 1920x1080, 4:2:2 8 bits, MBAFF=0 ACT=0
[libx264 @ 000001a746be85c0] frame= 174 QP=16.98 NAL=2 Slice:P Poc:200 I:42   P:98   SKIP:8020 size=2258 bytes
[dnxhd @ 000001a748d52c00] 1920x1080, 4:2:2 8 bits, MBAFF=0 ACT=0
[libx264 @ 000001a746be85c0] frame= 175 QP=28.36 NAL=0 Slice:B Poc:198 I:3    P:78   SKIP:8078 size=237 bytes
[libx264 @ 000001a746be85c0] frame= 176 QP=21.36 NAL=2 Slice:P Poc:208 I:5    P:15   SKIP:8140 size=258 bytes
[libx264 @ 000001a746be85c0] frame= 177 QP=32.97 NAL=2 Slice:B Poc:204 I:4    P:17   SKIP:8138 size=195 bytes
[libx264 @ 000001a746be85c0] frame= 178 QP=32.12 NAL=0 Slice:B Poc:202 I:3    P:14   SKIP:8141 size=157 bytes
[libx264 @ 000001a746be85c0] frame= 179 QP=33.97 NAL=0 Slice:B Poc:206 I:3    P:12   SKIP:8144 size=168 bytes
[libx264 @ 000001a746be85c0] frame= 180 QP=29.96 NAL=2 Slice:P Poc:216 I:1    P:7    SKIP:8152 size=239 bytes
[libx264 @ 000001a746be85c0] frame= 181 QP=32.90 NAL=2 Slice:B Poc:212 I:5    P:9    SKIP:8145 size=189 bytes
[libx264 @ 000001a746be85c0] frame= 182 QP=33.94 NAL=0 Slice:B Poc:210 I:2    P:8    SKIP:8148 size=185 bytes
[libx264 @ 000001a746be85c0] frame= 183 QP=33.97 NAL=0 Slice:B Poc:214 I:4    P:9    SKIP:8146 size=189 bytes
[libx264 @ 000001a746be85c0] frame= 184 QP=21.18 NAL=2 Slice:P Poc:224 I:6    P:9    SKIP:8145 size=329 bytes
[libx264 @ 000001a746be85c0] frame= 185 QP=31.05 NAL=2 Slice:B Poc:220 I:1    P:17   SKIP:8141 size=163 bytes
[libx264 @ 000001a746be85c0] frame= 186 QP=33.97 NAL=0 Slice:B Poc:218 I:1    P:12   SKIP:8144 size=176 bytes
[libx264 @ 000001a746be85c0] frame= 187 QP=32.12 NAL=0 Slice:B Poc:222 I:3    P:11   SKIP:8145 size=176 bytes
[out_0_0 @ 000001a749155cc0] EOF on sink link out_0_0:default.
[out_0_1 @ 000001a74915b0c0] EOF on sink link out_0_1:default.
No more output streams to write to, finishing.
[libx264 @ 000001a746be85c0] frame= 188 QP=20.12 NAL=2 Slice:P Poc:232 I:2    P:10   SKIP:8148 size=207 bytes
[libx264 @ 000001a746be85c0] frame= 189 QP=28.28 NAL=2 Slice:B Poc:228 I:4    P:10   SKIP:8143 size=236 bytes
[libx264 @ 000001a746be85c0] frame= 190 QP=33.97 NAL=0 Slice:B Poc:226 I:1    P:15   SKIP:8144 size=151 bytes
[libx264 @ 000001a746be85c0] frame= 191 QP=33.94 NAL=0 Slice:B Poc:230 I:1    P:9    SKIP:8147 size=184 bytes
[libx264 @ 000001a746be85c0] frame= 192 QP=14.29 NAL=2 Slice:P Poc:240 I:7    P:9    SKIP:8144 size=449 bytes
[libx264 @ 000001a746be85c0] frame= 193 QP=33.92 NAL=2 Slice:B Poc:236 I:1    P:17   SKIP:8141 size=169 bytes
[libx264 @ 000001a746be85c0] frame= 194 QP=32.73 NAL=0 Slice:B Poc:234 I:7    P:8    SKIP:8144 size=193 bytes
[libx264 @ 000001a746be85c0] frame= 195 QP=33.97 NAL=0 Slice:B Poc:238 I:1    P:15   SKIP:8143 size=177 bytes
[libx264 @ 000001a746be85c0] frame= 196 QP=14.30 NAL=2 Slice:P Poc:248 I:5    P:4    SKIP:8151 size=246 bytes
[libx264 @ 000001a746be85c0] frame= 197 QP=32.97 NAL=2 Slice:B Poc:244 I:2    P:11   SKIP:8146 size=188 bytes
[libx264 @ 000001a746be85c0] frame= 198 QP=32.12 NAL=0 Slice:B Poc:242 I:2    P:9    SKIP:8147 size=140 bytes
[libx264 @ 000001a746be85c0] frame= 199 QP=32.12 NAL=0 Slice:B Poc:246 I:1    P:10   SKIP:8147 size=180 bytes
[libx264 @ 000001a746be85c0] frame= 200 QP=18.02 NAL=2 Slice:P Poc:256 I:38   P:77   SKIP:8045 size=1530 bytes
[libx264 @ 000001a746be85c0] frame= 201 QP=19.62 NAL=2 Slice:B Poc:252 I:6    P:71   SKIP:8080 size=210 bytes
[libx264 @ 000001a746be85c0] frame= 202 QP=33.97 NAL=0 Slice:B Poc:250 I:1    P:74   SKIP:8085 size=188 bytes
[libx264 @ 000001a746be85c0] frame= 203 QP=32.12 NAL=0 Slice:B Poc:254 I:2    P:18   SKIP:8140 size=186 bytes
[libx264 @ 000001a746be85c0] frame= 204 QP=24.74 NAL=2 Slice:P Poc:264 I:4    P:13   SKIP:8143 size=236 bytes
[libx264 @ 000001a746be85c0] frame= 205 QP=32.97 NAL=2 Slice:B Poc:260 I:1    P:23   SKIP:8134 size=224 bytes
[libx264 @ 000001a746be85c0] frame= 206 QP=28.36 NAL=0 Slice:B Poc:258 I:6    P:8    SKIP:8145 size=226 bytes
[libx264 @ 000001a746be85c0] frame= 207 QP=33.97 NAL=0 Slice:B Poc:262 I:1    P:11   SKIP:8145 size=164 bytes
[libx264 @ 000001a746be85c0] frame= 208 QP=23.51 NAL=2 Slice:P Poc:272 I:10   P:5    SKIP:8145 size=309 bytes
[libx264 @ 000001a746be85c0] frame= 209 QP=28.31 NAL=2 Slice:B Poc:268 I:4    P:18   SKIP:8138 size=229 bytes
[libx264 @ 000001a746be85c0] frame= 210 QP=33.97 NAL=0 Slice:B Poc:266 I:2    P:12   SKIP:8145 size=191 bytes
[libx264 @ 000001a746be85c0] frame= 211 QP=33.97 NAL=0 Slice:B Poc:270 I:2    P:15   SKIP:8142 size=149 bytes
[libx264 @ 000001a746be85c0] frame= 212 QP=29.08 NAL=2 Slice:P Poc:280 I:1    P:8    SKIP:8151 size=227 bytes
[libx264 @ 000001a746be85c0] frame= 213 QP=33.88 NAL=2 Slice:B Poc:276 I:1    P:15   SKIP:8143 size=171 bytes
[libx264 @ 000001a746be85c0] frame= 214 QP=32.12 NAL=0 Slice:B Poc:274 I:3    P:9    SKIP:8148 size=186 bytes
[libx264 @ 000001a746be85c0] frame= 215 QP=28.36 NAL=0 Slice:B Poc:278 I:3    P:8    SKIP:8148 size=195 bytes
[libx264 @ 000001a746be85c0] frame= 216 QP=30.89 NAL=2 Slice:P Poc:288 I:1    P:8    SKIP:8151 size=213 bytes
[libx264 @ 000001a746be85c0] frame= 217 QP=33.93 NAL=2 Slice:B Poc:284 I:4    P:13   SKIP:8141 size=204 bytes
[libx264 @ 000001a746be85c0] frame= 218 QP=33.97 NAL=0 Slice:B Poc:282 I:1    P:11   SKIP:8145 size=165 bytes
[libx264 @ 000001a746be85c0] frame= 219 QP=33.97 NAL=0 Slice:B Poc:286 I:1    P:12   SKIP:8145 size=178 bytes
[libx264 @ 000001a746be85c0] frame= 220 QP=31.87 NAL=2 Slice:P Poc:296 I:7    P:11   SKIP:8142 size=420 bytes
[libx264 @ 000001a746be85c0] frame= 221 QP=32.08 NAL=2 Slice:B Poc:292 I:4    P:14   SKIP:8141 size=163 bytes
[libx264 @ 000001a746be85c0] frame= 222 QP=33.97 NAL=0 Slice:B Poc:290 I:1    P:11   SKIP:8145 size=139 bytes
[libx264 @ 000001a746be85c0] frame= 223 QP=32.12 NAL=0 Slice:B Poc:294 I:3    P:8    SKIP:8149 size=178 bytes
[libx264 @ 000001a746be85c0] frame= 224 QP=16.47 NAL=2 Slice:P Poc:300 I:41   P:72   SKIP:8047 size=2212 bytes
[libx264 @ 000001a746be85c0] frame= 225 QP=28.36 NAL=0 Slice:B Poc:298 I:6    P:72   SKIP:8081 size=241 bytes
[libx264 @ 000001a746be85c0] frame= 226 QP=22.49 NAL=2 Slice:P Poc:308 I:3    P:15   SKIP:8142 size=246 bytes
[libx264 @ 000001a746be85c0] frame= 227 QP=32.97 NAL=2 Slice:B Poc:304 I:1    P:19   SKIP:8139 size=197 bytes
[libx264 @ 000001a746be85c0] frame= 228 QP=33.97 NAL=0 Slice:B Poc:302 I:1    P:13   SKIP:8144 size=143 bytes
[libx264 @ 000001a746be85c0] frame= 229 QP=33.97 NAL=0 Slice:B Poc:306 I:1    P:12   SKIP:8145 size=161 bytes
[libx264 @ 000001a746be85c0] frame= 230 QP=24.19 NAL=2 Slice:P Poc:316 I:1    P:9    SKIP:8150 size=237 bytes
[libx264 @ 000001a746be85c0] frame= 231 QP=30.13 NAL=2 Slice:B Poc:312 I:1    P:12   SKIP:8145 size=194 bytes
[libx264 @ 000001a746be85c0] frame= 232 QP=33.94 NAL=0 Slice:B Poc:310 I:1    P:9    SKIP:8148 size=177 bytes
[libx264 @ 000001a746be85c0] frame= 233 QP=33.97 NAL=0 Slice:B Poc:314 I:2    P:9    SKIP:8147 size=191 bytes
[libx264 @ 000001a746be85c0] frame= 234 QP=20.51 NAL=2 Slice:P Poc:324 I:6    P:8    SKIP:8146 size=327 bytes
[libx264 @ 000001a746be85c0] frame= 235 QP=31.05 NAL=2 Slice:B Poc:320 I:2    P:17   SKIP:8140 size=166 bytes
[libx264 @ 000001a746be85c0] frame= 236 QP=34.59 NAL=0 Slice:B Poc:318 I:0    P:13   SKIP:8145 size=153 bytes
[libx264 @ 000001a746be85c0] frame= 237 QP=32.12 NAL=0 Slice:B Poc:322 I:2    P:10   SKIP:8145 size=176 bytes
[libx264 @ 000001a746be85c0] frame= 238 QP=29.11 NAL=2 Slice:P Poc:332 I:0    P:10   SKIP:8150 size=208 bytes
[libx264 @ 000001a746be85c0] frame= 239 QP=28.28 NAL=2 Slice:B Poc:328 I:3    P:12   SKIP:8143 size=227 bytes
[libx264 @ 000001a746be85c0] frame= 240 QP=32.12 NAL=0 Slice:B Poc:326 I:1    P:12   SKIP:8147 size=154 bytes
[libx264 @ 000001a746be85c0] frame= 241 QP=33.94 NAL=0 Slice:B Poc:330 I:1    P:10   SKIP:8148 size=183 bytes
[libx264 @ 000001a746be85c0] frame= 242 QP=29.16 NAL=2 Slice:P Poc:340 I:6    P:6    SKIP:8148 size=407 bytes
[libx264 @ 000001a746be85c0] frame= 243 QP=33.92 NAL=2 Slice:B Poc:336 I:0    P:16   SKIP:8142 size=170 bytes
[libx264 @ 000001a746be85c0] frame= 244 QP=33.97 NAL=0 Slice:B Poc:334 I:3    P:8    SKIP:8149 size=184 bytes
[libx264 @ 000001a746be85c0] frame= 245 QP=33.97 NAL=0 Slice:B Poc:338 I:0    P:13   SKIP:8146 size=173 bytes
[libx264 @ 000001a746be85c0] frame= 246 QP=28.36 NAL=2 Slice:P Poc:348 I:5    P:2    SKIP:8153 size=226 bytes
[libx264 @ 000001a746be85c0] frame= 247 QP=32.97 NAL=2 Slice:B Poc:344 I:1    P:17   SKIP:8141 size=194 bytes
[libx264 @ 000001a746be85c0] frame= 248 QP=32.12 NAL=0 Slice:B Poc:342 I:1    P:10   SKIP:8147 size=147 bytes
[libx264 @ 000001a746be85c0] frame= 249 QP=32.12 NAL=0 Slice:B Poc:346 I:0    P:14   SKIP:8145 size=172 bytes
[aac @ 000001a746bd41c0] Trying to remove 256 more samples than there are in the queue
frame=  250 fps=139 q=-1.0 Lsize=     121kB time=00:00:10.00 bitrate=  99.0kbits/s speed=5.55x    
video:107kB audio:5kB subtitle:0kB other streams:0kB global headers:0kB muxing overhead: 8.329615%
Input file #0 (\\farmyard.loc\users\jpa\Desktop\ffmpeg frame error\Shifted Audio - MXF Export Original 1.mov):
  Input stream #0:0 (video): 250 packets read (47104000 bytes); 250 frames decoded; 
  Input stream #0:1 (audio): 480 packets read (2880000 bytes); 480 frames decoded (480000 samples); 
  Input stream #0:2 (data): 0 packets read (0 bytes); 
  Total: 730 packets (49984000 bytes) demuxed
Output file #0 (\\farmyard.loc\users\jpa\Desktop\ffmpeg frame error\Shifted Audio - MXF Export Original 1.mp4):
  Output stream #0:0 (video): 250 frames encoded; 250 packets muxed (109651 bytes); 
  Output stream #0:1 (audio): 469 frames encoded (480000 samples); 470 packets muxed (4628 bytes); 
  Total: 720 packets (114279 bytes) muxed
730 frames successfully decoded, 0 decoding errors
[AVIOContext @ 000001a746bd6300] Statistics: 2 seeks, 4 writeouts
[libx264 @ 000001a746be85c0] frame I:2     Avg QP:13.42  size: 21390
[libx264 @ 000001a746be85c0] frame P:64    Avg QP:24.30  size:   477
[libx264 @ 000001a746be85c0] frame B:184   Avg QP:32.43  size:   194
[libx264 @ 000001a746be85c0] consecutive B-frames:  0.8%  3.2%  0.0% 96.0%
[libx264 @ 000001a746be85c0] mb I  I16..4: 53.0% 43.0%  4.0%
[libx264 @ 000001a746be85c0] mb P  I16..4:  0.0%  0.0%  0.0%  P16..4:  0.2%  0.1%  0.0%  0.0%  0.0%    skip:99.6%
[libx264 @ 000001a746be85c0] mb B  I16..4:  0.0%  0.0%  0.0%  B16..8:  0.6%  0.0%  0.0%  direct: 0.0%  skip:99.3%  L0:39.6% L1:60.0% BI: 0.4%
[libx264 @ 000001a746be85c0] 8x8 transform intra:43.1% inter:18.7%
[libx264 @ 000001a746be85c0] coded y,uvDC,uvAC intra: 4.4% 5.1% 3.5% inter: 0.0% 0.1% 0.0%
[libx264 @ 000001a746be85c0] i16 v,h,dc,p: 97%  1%  2%  0%
[libx264 @ 000001a746be85c0] i8 v,h,dc,ddl,ddr,vr,hd,vl,hu: 90%  1%  7%  0%  0%  0%  0%  0%  0%
[libx264 @ 000001a746be85c0] i4 v,h,dc,ddl,ddr,vr,hd,vl,hu: 34% 21% 17%  6%  4%  5%  5%  7%  2%
[libx264 @ 000001a746be85c0] i8c dc,h,v,p: 89%  2%  8%  0%
[libx264 @ 000001a746be85c0] Weighted P-Frames: Y:0.0% UV:0.0%
[libx264 @ 000001a746be85c0] ref P L0: 73.9%  2.9% 14.1%  9.1%
[libx264 @ 000001a746be85c0] ref B L0: 81.0% 16.6%  2.3%
[libx264 @ 000001a746be85c0] ref B L1: 96.5%  3.5%
[libx264 @ 000001a746be85c0] kb/s:87.17
[aac @ 000001a746bd41c0] Qavg: 65009.410
[AVIOContext @ 000001a746bdb900] Statistics: 54813886 bytes read, 452 seeks
Last edited 3 years ago by Carl Eugen Hoyos (previous) (diff)

comment:3 by Carl Eugen Hoyos, 3 years ago

Keywords: Async 1 frame removed

Is the issue reproducible with current FFmpeg git head, the only version supported here?

comment:4 by Marton Balint, 3 years ago

Probably this is caused by the audio priming of AAC codec. For dubbing you should be using uncompressed audio...

comment:5 by mkver, 3 years ago

Resolution: invalid
Status: newclosed

This is indeed priming/encoder delay:

  1. Your input mov file is pretty simple: The audio's edit list says: "Play the very first audio sample from the beginning for 480000 ticks of a 48kHz clock (i.e. for 10s)." The video of said file also has no delay/reordering and is constant 25fps for 10s.
  2. The output file is more complicated:

a) The video track uses two reorder frames: It has two reorder frames so that the pts of the first frame is 1024 (with a 12800 Hz timescale); but there is also an edit list that shifts this to 0.
b) The audio track consists of 470 audio frames: 469 with a duration of 1024 and one with a duration of 768. An edit list exists that says that the actual output starts only at sample 1024 (i.e. decode, but don't output the first frame (which has a duration of 1024 samples)). This is done in order to counter encoder delay. So everything is right at the beginning if you use a tool that correctly trims according to the edit list (whatever tool you use to decode the audio from the reencoded file ignores the edit list and is the real culprit for your asynchronity).
c) I am btw not certain whether everything is right at the end: I would expect the last frame to also declare a duration of 1024, because it contains 1024 samples like all the other frames, and to rely on the edit list to trim the end padding away. (The edit list for this track says that it has a duration of exactly 10s.) If one claims the last frame to have a duration of 768/48000 s, does one not actually say that the 1024 samples from this frame (with a natural duration of 1024/48000 s) should be stretched to fit into 768/48000 s (i.e. played at a faster speed)?
d) It follows from b) that your issue is invalid.
e) You should also look at #7185 for what happens when the first audio sample does not have a timestamp of zero before reencoding.

Note: See TracTickets for help on using tickets.