Changes between Initial Version and Version 1 of Ticket #798


Ignore:
Timestamp:
Dec 20, 2011, 3:04:01 PM (5 years ago)
Author:
cehoyos
Comment:

Probably two unrelated issues, codecs.conf claims that CMP is (M)JPEG and CMW is wavelet.

Legend:

Unmodified
Added
Removed
Modified
  • Ticket #798

    • Property Status changed from new to open
    • Property Component changed from FFmpeg to avcodec
    • Property Summary changed from cmp avi not opened to LEAD codecs not supported
    • Property Priority changed from normal to wish
    • Property Version changed from unspecified to git-master
    • Property Keywords LEAD LCW2 added
    • Property Type changed from defect to enhancement
    • Property Reproduced by developer set
  • Ticket #798 – Description

    initial v1  
    11windows media player play such files fine 
    2  
     2{{{ 
    33ffmpeg version N-35462-g61b1d85, Copyright (c) 2000-2011 the FFmpeg developers 
    44  built on Dec  5 2011 14:28:46 with gcc 4.6.2 
     
    2626    Stream #0:1, 703, 5/689: Audio: gsm_ms (1[0][0][0] / 0x0031), 44100 Hz, 1 channels, s16, 71 kb/s 
    2727Video pixel format is unknown, stream cannot be encoded 
    28  
     28}}} 
    2929 
    3030 
     
    3232 
    3333 
    34  
     34{{{ 
    3535ffmpeg version N-35462-g61b1d85, Copyright (c) 2000-2011 the FFmpeg developers 
    3636  built on Dec  5 2011 14:28:46 with gcc 4.6.2 
     
    5858    Stream #0:1, 703, 5/689: Audio: gsm_ms (1[0][0][0] / 0x0031), 44100 Hz, 1 channels, s16, 71 kb/s 
    5959Video pixel format is unknown, stream cannot be encoded 
     60}}} 
    6061 
    6162 
    6263 
    63