Opened 6 years ago

Closed 6 years ago

#79 closed defect (fixed)

ffplay - qpeg codec playback regression

Reported by: ami_stuff Owned by:
Priority: important Component: avcodec
Version: git-master Keywords: regression
Cc: Blocked By:
Blocking: Reproduced by developer: no
Analyzed by developer: no

Description

gfx bugs while playing avi file encoded with qpeg video codec

most likely libavfilter-caused regression

http://samples.multimedia.cx/V-codecs/QPEG/Clock.avi

C:\>ffmpeg -i "C:\Clock.avi"
FFmpeg version git-N-29181-ga304071, Copyright (c) 2000-2011 the FFmpeg develope
rs

built on Apr 18 2011 21:24:03 with gcc 4.5.2
configuration: --enable-gpl --enable-version3 --enable-runtime-cpudetect --ena

ble-memalign-hack --enable-avisynth --enable-bzlib --enable-frei0r --enable-libo
pencore-amrnb --enable-libopencore-amrwb --enable-libfreetype --enable-libgsm --
enable-libmp3lame --enable-libopenjpeg --enable-librtmp --enable-libschroedinger

--enable-libspeex --enable-libtheora --enable-libvorbis --enable-libvpx --enabl

e-libx264 --enable-libxavs --enable-libxvid --enable-zlib --cross-prefix=i686-w6
4-mingw32- --target-os=mingw32 --arch=x86_32 --extra-cflags=-I/home/kyle/softwar
e/ffmpeg/external-libraries/win32/include --extra-ldflags=-L/home/kyle/software/
ffmpeg/external-libraries/win32/lib --pkg-config=pkg-config

libavutil 50. 40. 1 / 50. 40. 1
libavcodec 52.120. 0 / 52.120. 0
libavformat 52.108. 0 / 52.108. 0
libavdevice 52. 4. 0 / 52. 4. 0
libavfilter 1. 79. 0 / 1. 79. 0
libswscale 0. 13. 0 / 0. 13. 0

Input #0, avi, from 'C:\Clock.avi':

Duration: 00:00:04.00, start: 0.000000, bitrate: 3885 kb/s

Stream #0.0: Video: qpeg, pal8, 320x240, 25 tbr, 25 tbn, 25 tbc
Metadata:

title : QPEG« Video #0

Stream #0.1: Audio: pcm_u8, 22050 Hz, 1 channels, u8, 176 kb/s
Metadata:

title : clock.avi Audio #1

At least one output file must be specified

Change History (1)

comment:1 Changed 6 years ago by cehoyos

  • Component changed from undetermined to avcodec
  • Keywords regression added
  • Priority changed from normal to important
  • Resolution set to fixed
  • Status changed from new to closed
  • Version changed from unspecified to git-master
Note: See TracTickets for help on using tickets.