Changes between Initial Version and Version 4 of Ticket #7744


Ignore:
Timestamp:
Feb 19, 2019, 9:44:47 PM (8 months ago)
Author:
cehoyos
Comment:

The tag option cannot work for all formats, it does not work for mpegts. What is wrong with the output file you get?

Legend:

Unmodified
Added
Removed
Modified
  • Ticket #7744

    • Property Version changed from 4.1 to unspecified
  • Ticket #7744 – Description

    initial v4  
    99How to reproduce:
    1010
    11 {{{/usr/bin/ffmpeg -hide_banner -i /5000-000.ts -vtag HEVC -vcodec copy -acodec copy -sn -f mpegts 50.ts}}}
     11{{{
     12/usr/bin/ffmpeg -hide_banner -i /5000-000.ts -vtag HEVC -vcodec copy -acodec copy -sn -f mpegts 50.ts
    1213Input #0, mpegts, from '/5000-000.ts':
    1314  Duration: 00:00:05.31, start: 1.400000, bitrate: 13307 kb/s
     
    2930frame=  192 fps=0.0 q=-1.0 Lsize=    9101kB time=00:00:05.26 bitrate=14149.7kbits/s speed= 304x
    3031video:8334kB audio:84kB subtitle:0kB other streams:0kB global headers:0kB muxing overhead: 8.112041%
     32}}}
    3133
    32 
    33 {{{ffprobe -hide_banner 50.ts}}}
     34{{{
     35ffprobe -hide_banner 50.ts
    3436Input #0, mpegts, from '50.ts':
    3537  Duration: 00:00:05.31, start: 1.400000, bitrate: 14038 kb/s
     
    4042    Stream #0:0[0x100]: Video: hevc (Main 10) ([36][0][0][0] / 0x0024), yuv420p10le(tv, bt709), 3840x2160 [SAR 1:1 DAR 16:9], 50 fps, 50 tbr, 90k tbn, 50 tbc
    4143    Stream #0:1[0x101](eng): Audio: aac (LC) ([15][0][0][0] / 0x000F), 48000 Hz, stereo, fltp, 126 kb/s
     44}}}