#7360 closed defect (duplicate)

feature request - support for subtitle codec hdmv_pgs_subtitle

Reported by: hackler756 Owned by:
Priority: normal Component: undetermined
Version: unspecified Keywords:
Cc: Blocked By:
Blocking: Reproduced by developer: no
Analyzed by developer: no

Description

please add enhance support for subtitle codec hdmv_pgs_subtitle

the respective streams (6,7) are copied (without warning) by ffmpeg.exe and changed from

Stream #0:6[0x12a0]: Subtitle: hdmv_pgs_subtitle ([144][0][0][0] / 0x0090), 1920x1080
Stream #0:7[0x12a1]: Subtitle: hdmv_pgs_subtitle ([144][0][0][0] / 0x0090), 1920x1080

to (reported as unsupported codec by ffprobe.exe)

Stream #0:6[0x106]: Data: bin_data ([6][0][0][0] / 0x0006)
Stream #0:7[0x107]: Data: bin_data ([6][0][0][0] / 0x0006)

Unsupported codec with id 100359 for input stream 6
Unsupported codec with id 100359 for input stream 7

********************* latest release

C:\temp\ffmpg\ffmpeg-4.0.2-win64-static\bin>ffmpeg -ss 300 -i "d:\test\UHD\00018.m2ts" -t 10 -c:v copy -c:a copy -c:s copy -map 0:0 -map 0:1 -map 0:2 -map 0:3 -map 0:4 -map 0:5 -map 0:6 -map 0:7 "d:\test\UHD\test.m2ts"
ffmpeg version 4.0.2 Copyright (c) 2000-2018 the FFmpeg developers
  built with gcc 7.3.1 (GCC) 20180722
  configuration: --enable-gpl --enable-version3 --enable-sdl2 --enable-bzlib --enable-fontconfig --enable-gnutls --enable-iconv --enable-libass --enable-libbluray --enable-libfreetype --enable-libmp3lame --enable-libopencore-amrnb --enable-libopencore-amrwb --enable-libopenjpeg --enable-libopus --enable-libshine --enable-libsnappy --enable-libsoxr --enable-libtheora --enable-libtwolame --enable-libvpx --enable-libwavpack --enable-libwebp --enable-libx264 --enable-libx265 --enable-libxml2 --enable-libzimg --enable-lzma --enable-zlib --enable-gmp --enable-libvidstab --enable-libvorbis --enable-libvo-amrwbenc --enable-libmysofa --enable-libspeex --enable-libxvid --enable-libaom --enable-libmfx --enable-amf --enable-ffnvcodec --enable-cuvid --enable-d3d11va --enable-nvenc --enable-nvdec --enable-dxva2 --enable-avisynth
  libavutil      56. 14.100 / 56. 14.100
  libavcodec     58. 18.100 / 58. 18.100
  libavformat    58. 12.100 / 58. 12.100
  libavdevice    58.  3.100 / 58.  3.100
  libavfilter     7. 16.100 /  7. 16.100
  libswscale      5.  1.100 /  5.  1.100
  libswresample   3.  1.100 /  3.  1.100
  libpostproc    55.  1.100 / 55.  1.100
[hevc @ 000001a3e904c380] Skipping NAL unit 62
[NULL @ 000001a3e90723c0] missing picture in access unit
[NULL @ 000001a3e904c380] missing picture in access unit
[NULL @ 000001a3e90723c0] missing picture in access unit
[NULL @ 000001a3e904c380] missing picture in access unit
Input #0, mpegts, from 'd:\test\UHD\00018.m2ts':
  Duration: 02:29:45.95, start: 4323.791222, bitrate: 56289 kb/s
  Program 1
    Stream #0:0[0x1011]: Video: hevc (Main 10) (HDMV / 0x564D4448), yuv420p10le(tv, bt2020nc/bt2020/smpte2084), 3840x2160 [SAR 1:1 DAR 16:9], 23.98 fps, 23.98 tbr, 90k tbn, 23.98 tbc
    Stream #0:1[0x1015]: Video: hevc (Main 10) (HDMV / 0x564D4448), yuv420p10le(tv, bt2020nc/bt2020/smpte2084), 1920x1080 [SAR 1:1 DAR 16:9], 23.98 fps, 23.98 tbr, 90k tbn, 23.98 tbc
    Stream #0:2[0x1100]: Audio: truehd (AC-3 / 0x332D4341), 48000 Hz, 7.1, s32 (24 bit)
    Stream #0:3[0x1100]: Audio: ac3 (AC-3 / 0x332D4341), 48000 Hz, 5.1(side), fltp, 640 kb/s
    Stream #0:4[0x1101]: Audio: eac3 (AC-3 / 0x332D4341), 48000 Hz, 7.1, fltp, 1024 kb/s
    Stream #0:5[0x1102]: Audio: eac3 (AC-3 / 0x332D4341), 48000 Hz, 7.1, fltp, 896 kb/s
    Stream #0:6[0x12a0]: Subtitle: hdmv_pgs_subtitle ([144][0][0][0] / 0x0090), 1920x1080
    Stream #0:7[0x12a1]: Subtitle: hdmv_pgs_subtitle ([144][0][0][0] / 0x0090), 1920x1080
File 'd:\test\UHD\test.m2ts' already exists. Overwrite ? [y/N] y
Output #0, mpegts, to 'd:\test\UHD\test.m2ts':
  Metadata:
    encoder         : Lavf58.12.100
    Stream #0:0: Video: hevc (Main 10) (HDMV / 0x564D4448), yuv420p10le(tv, bt2020nc/bt2020/smpte2084), 3840x2160 [SAR 1:1 DAR 16:9], q=2-31, 23.98 fps, 23.98 tbr, 90k tbn, 90k tbc
    Stream #0:1: Video: hevc (Main 10) (HDMV / 0x564D4448), yuv420p10le(tv, bt2020nc/bt2020/smpte2084), 1920x1080 [SAR 1:1 DAR 16:9], q=2-31, 23.98 fps, 23.98 tbr, 90k tbn, 90k tbc
    Stream #0:2: Audio: truehd (AC-3 / 0x332D4341), 48000 Hz, 7.1, s32 (24 bit)
    Stream #0:3: Audio: ac3 (AC-3 / 0x332D4341), 48000 Hz, 5.1(side), fltp, 640 kb/s
    Stream #0:4: Audio: eac3 (AC-3 / 0x332D4341), 48000 Hz, 7.1, fltp, 1024 kb/s
    Stream #0:5: Audio: eac3 (AC-3 / 0x332D4341), 48000 Hz, 7.1, fltp, 896 kb/s
    Stream #0:6: Subtitle: hdmv_pgs_subtitle ([144][0][0][0] / 0x0090), 1920x1080
    Stream #0:7: Subtitle: hdmv_pgs_subtitle ([144][0][0][0] / 0x0090), 1920x1080
Stream mapping:
  Stream #0:0 -> #0:0 (copy)
  Stream #0:1 -> #0:1 (copy)
  Stream #0:2 -> #0:2 (copy)
  Stream #0:3 -> #0:3 (copy)
  Stream #0:4 -> #0:4 (copy)
  Stream #0:5 -> #0:5 (copy)
  Stream #0:6 -> #0:6 (copy)
  Stream #0:7 -> #0:7 (copy)
Press [q] to stop, [?] for help
frame=  239 fps=0.0 q=-1.0 Lq=-1.0 size=   60694kB time=00:00:09.99 bitrate=49724.8kbits/s speed=13.1x
video:45773kB audio:8908kB subtitle:52kB other streams:0kB global headers:0kB muxing overhead: 10.889162%

C:\temp\ffmpg\ffmpeg-4.0.2-win64-static\bin>ffprobe.exe "d:\test\UHD\00018.m2ts"
ffprobe version 4.0.2 Copyright (c) 2007-2018 the FFmpeg developers
  built with gcc 7.3.1 (GCC) 20180722
  configuration: --enable-gpl --enable-version3 --enable-sdl2 --enable-bzlib --enable-fontconfig --enable-gnutls --enable-iconv --enable-libass --enable-libbluray --enable-libfreetype --enable-libmp3lame --enable-libopencore-amrnb --enable-libopencore-amrwb --enable-libopenjpeg --enable-libopus --enable-libshine --enable-libsnappy --enable-libsoxr --enable-libtheora --enable-libtwolame --enable-libvpx --enable-libwavpack --enable-libwebp --enable-libx264 --enable-libx265 --enable-libxml2 --enable-libzimg --enable-lzma --enable-zlib --enable-gmp --enable-libvidstab --enable-libvorbis --enable-libvo-amrwbenc --enable-libmysofa --enable-libspeex --enable-libxvid --enable-libaom --enable-libmfx --enable-amf --enable-ffnvcodec --enable-cuvid --enable-d3d11va --enable-nvenc --enable-nvdec --enable-dxva2 --enable-avisynth
  libavutil      56. 14.100 / 56. 14.100
  libavcodec     58. 18.100 / 58. 18.100
  libavformat    58. 12.100 / 58. 12.100
  libavdevice    58.  3.100 / 58.  3.100
  libavfilter     7. 16.100 /  7. 16.100
  libswscale      5.  1.100 /  5.  1.100
  libswresample   3.  1.100 /  3.  1.100
  libpostproc    55.  1.100 / 55.  1.100
[hevc @ 000001ed8714fbc0] Skipping NAL unit 62
Input #0, mpegts, from 'd:\test\UHD\00018.m2ts':
  Duration: 02:29:45.95, start: 4323.791222, bitrate: 56289 kb/s
  Program 1
    Stream #0:0[0x1011]: Video: hevc (Main 10) (HDMV / 0x564D4448), yuv420p10le(tv, bt2020nc/bt2020/smpte2084), 3840x2160 [SAR 1:1 DAR 16:9], 23.98 fps, 23.98 tbr, 90k tbn, 23.98 tbc
    Stream #0:1[0x1015]: Video: hevc (Main 10) (HDMV / 0x564D4448), yuv420p10le(tv, bt2020nc/bt2020/smpte2084), 1920x1080 [SAR 1:1 DAR 16:9], 23.98 fps, 23.98 tbr, 90k tbn, 23.98 tbc
    Stream #0:2[0x1100]: Audio: truehd (AC-3 / 0x332D4341), 48000 Hz, 7.1, s32 (24 bit)
    Stream #0:3[0x1100]: Audio: ac3 (AC-3 / 0x332D4341), 48000 Hz, 5.1(side), fltp, 640 kb/s
    Stream #0:4[0x1101]: Audio: eac3 (AC-3 / 0x332D4341), 48000 Hz, 7.1, fltp, 1024 kb/s
    Stream #0:5[0x1102]: Audio: eac3 (AC-3 / 0x332D4341), 48000 Hz, 7.1, fltp, 896 kb/s
    Stream #0:6[0x12a0]: Subtitle: hdmv_pgs_subtitle ([144][0][0][0] / 0x0090), 1920x1080
    Stream #0:7[0x12a1]: Subtitle: hdmv_pgs_subtitle ([144][0][0][0] / 0x0090), 1920x1080

C:\temp\ffmpg\ffmpeg-4.0.2-win64-static\bin>ffprobe.exe "d:\test\UHD\test.m2ts"
ffprobe version 4.0.2 Copyright (c) 2007-2018 the FFmpeg developers
  built with gcc 7.3.1 (GCC) 20180722
  configuration: --enable-gpl --enable-version3 --enable-sdl2 --enable-bzlib --enable-fontconfig --enable-gnutls --enable-iconv --enable-libass --enable-libbluray --enable-libfreetype --enable-libmp3lame --enable-libopencore-amrnb --enable-libopencore-amrwb --enable-libopenjpeg --enable-libopus --enable-libshine --enable-libsnappy --enable-libsoxr --enable-libtheora --enable-libtwolame --enable-libvpx --enable-libwavpack --enable-libwebp --enable-libx264 --enable-libx265 --enable-libxml2 --enable-libzimg --enable-lzma --enable-zlib --enable-gmp --enable-libvidstab --enable-libvorbis --enable-libvo-amrwbenc --enable-libmysofa --enable-libspeex --enable-libxvid --enable-libaom --enable-libmfx --enable-amf --enable-ffnvcodec --enable-cuvid --enable-d3d11va --enable-nvenc --enable-nvdec --enable-dxva2 --enable-avisynth
  libavutil      56. 14.100 / 56. 14.100
  libavcodec     58. 18.100 / 58. 18.100
  libavformat    58. 12.100 / 58. 12.100
  libavdevice    58.  3.100 / 58.  3.100
  libavfilter     7. 16.100 /  7. 16.100
  libswscale      5.  1.100 /  5.  1.100
  libswresample   3.  1.100 /  3.  1.100
  libpostproc    55.  1.100 / 55.  1.100
[eac3 @ 000001fdf3592f40] Ignoring dependent frame without independent frame.
[eac3 @ 000001fdf3594040] Ignoring dependent frame without independent frame.
[hevc @ 000001fdf358fc40] Skipping NAL unit 62
Input #0, mpegts, from 'd:\test\UHD\test.m2ts':
  Duration: 00:00:10.98, start: 1.400000, bitrate: 45302 kb/s
  Program 1
    Metadata:
      service_name    : Service01
      service_provider: FFmpeg
    Stream #0:0[0x100]: Video: hevc (Main 10) ([36][0][0][0] / 0x0024), yuv420p10le(tv, bt2020nc/bt2020/smpte2084), 3840x2160 [SAR 1:1 DAR 16:9], 23.98 fps, 23.98 tbr, 90k tbn, 23.98 tbc
    Stream #0:1[0x101]: Video: hevc (Main 10) ([36][0][0][0] / 0x0024), yuv420p10le(tv, bt2020nc/bt2020/smpte2084), 1920x1080 [SAR 1:1 DAR 16:9], 23.98 fps, 23.98 tbr, 90k tbn, 23.98 tbc
    Stream #0:2[0x102]: Audio: truehd ([131][0][0][0] / 0x0083), 48000 Hz, 7.1, s32 (24 bit)
    Stream #0:3[0x103]: Audio: ac3 ([129][0][0][0] / 0x0081), 48000 Hz, 5.1(side), fltp, 640 kb/s
    Stream #0:4[0x104]: Audio: eac3 ([135][0][0][0] / 0x0087), 48000 Hz, 7.1, fltp, 1024 kb/s
    Stream #0:5[0x105]: Audio: eac3 ([135][0][0][0] / 0x0087), 48000 Hz, 7.1, fltp, 896 kb/s
    Stream #0:6[0x106]: Data: bin_data ([6][0][0][0] / 0x0006)
    Stream #0:7[0x107]: Data: bin_data ([6][0][0][0] / 0x0006)
Unsupported codec with id 100359 for input stream 6
Unsupported codec with id 100359 for input stream 7


********************* nightly build

C:\temp\ffmpg\ffmpeg-20180816-fe06ed2-win64-static\bin>ffmpeg -ss 300 -i "d:\test\UHD\00018.m2ts" -t 10 -c:v copy -c:a copy -c:s copy -map 0:0 -map 0:1 -map 0:2 -map 0:3 -map 0:4 -map 0:5 -map 0:6 -map 0:7 "d:\test\UHD\test.m2ts"
ffmpeg version N-91618-gfe06ed22e6 Copyright (c) 2000-2018 the FFmpeg developers
  built with gcc 8.2.1 (GCC) 20180813
  configuration: --enable-gpl --enable-version3 --enable-sdl2 --enable-fontconfig --enable-gnutls --enable-iconv --enable-libass --enable-libbluray --enable-libfreetype --enable-libmp3lame --enable-libopencore-amrnb --enable-libopencore-amrwb --enable-libopenjpeg --enable-libopus --enable-libshine --enable-libsnappy --enable-libsoxr --enable-libtheora --enable-libtwolame --enable-libvpx --enable-libwavpack --enable-libwebp --enable-libx264 --enable-libx265 --enable-libxml2 --enable-libzimg --enable-lzma --enable-zlib --enable-gmp --enable-libvidstab --enable-libvorbis --enable-libvo-amrwbenc --enable-libmysofa --enable-libspeex --enable-libxvid --enable-libaom --enable-libmfx --enable-amf --enable-ffnvcodec --enable-cuvid --enable-d3d11va --enable-nvenc --enable-nvdec --enable-dxva2 --enable-avisynth
  libavutil      56. 19.100 / 56. 19.100
  libavcodec     58. 22.101 / 58. 22.101
  libavformat    58. 17.101 / 58. 17.101
  libavdevice    58.  4.101 / 58.  4.101
  libavfilter     7. 26.100 /  7. 26.100
  libswscale      5.  2.100 /  5.  2.100
  libswresample   3.  2.100 /  3.  2.100
  libpostproc    55.  2.100 / 55.  2.100
[hevc @ 000001edbc5bc0c0] Skipping NAL unit 62
[NULL @ 000001edbc5e2200] missing picture in access unit
[NULL @ 000001edbc5bc0c0] missing picture in access unit
[NULL @ 000001edbc5e2200] missing picture in access unit
[NULL @ 000001edbc5bc0c0] missing picture in access unit
Input #0, mpegts, from 'd:\test\UHD\00018.m2ts':
  Duration: 02:29:45.95, start: 4323.791222, bitrate: 56289 kb/s
  Program 1
    Stream #0:0[0x1011]: Video: hevc (Main 10) (HDMV / 0x564D4448), yuv420p10le(tv, bt2020nc/bt2020/smpte2084), 3840x2160 [SAR 1:1 DAR 16:9], 23.98 fps, 23.98 tbr, 90k tbn, 23.98 tbc
    Stream #0:1[0x1015]: Video: hevc (Main 10) (HDMV / 0x564D4448), yuv420p10le(tv, bt2020nc/bt2020/smpte2084), 1920x1080 [SAR 1:1 DAR 16:9], 23.98 fps, 23.98 tbr, 90k tbn, 23.98 tbc
    Stream #0:2[0x1100]: Audio: truehd (AC-3 / 0x332D4341), 48000 Hz, 7.1, s32 (24 bit)
    Stream #0:3[0x1100]: Audio: ac3 (AC-3 / 0x332D4341), 48000 Hz, 5.1(side), fltp, 640 kb/s
    Stream #0:4[0x1101]: Audio: eac3 (AC-3 / 0x332D4341), 48000 Hz, 7.1, fltp, 1024 kb/s
    Stream #0:5[0x1102]: Audio: eac3 (AC-3 / 0x332D4341), 48000 Hz, 7.1, fltp, 896 kb/s
    Stream #0:6[0x12a0]: Subtitle: hdmv_pgs_subtitle ([144][0][0][0] / 0x0090), 1920x1080
    Stream #0:7[0x12a1]: Subtitle: hdmv_pgs_subtitle ([144][0][0][0] / 0x0090), 1920x1080
Output #0, mpegts, to 'd:\test\UHD\test.m2ts':
  Metadata:
    encoder         : Lavf58.17.101
    Stream #0:0: Video: hevc (Main 10) (HDMV / 0x564D4448), yuv420p10le(tv, bt2020nc/bt2020/smpte2084), 3840x2160 [SAR 1:1 DAR 16:9], q=2-31, 23.98 fps, 23.98 tbr, 90k tbn, 90k tbc
    Stream #0:1: Video: hevc (Main 10) (HDMV / 0x564D4448), yuv420p10le(tv, bt2020nc/bt2020/smpte2084), 1920x1080 [SAR 1:1 DAR 16:9], q=2-31, 23.98 fps, 23.98 tbr, 90k tbn, 90k tbc
    Stream #0:2: Audio: truehd (AC-3 / 0x332D4341), 48000 Hz, 7.1, s32 (24 bit)
    Stream #0:3: Audio: ac3 (AC-3 / 0x332D4341), 48000 Hz, 5.1(side), fltp, 640 kb/s
    Stream #0:4: Audio: eac3 (AC-3 / 0x332D4341), 48000 Hz, 7.1, fltp, 1024 kb/s
    Stream #0:5: Audio: eac3 (AC-3 / 0x332D4341), 48000 Hz, 7.1, fltp, 896 kb/s
    Stream #0:6: Subtitle: hdmv_pgs_subtitle ([144][0][0][0] / 0x0090), 1920x1080
    Stream #0:7: Subtitle: hdmv_pgs_subtitle ([144][0][0][0] / 0x0090), 1920x1080
Stream mapping:
  Stream #0:0 -> #0:0 (copy)
  Stream #0:1 -> #0:1 (copy)
  Stream #0:2 -> #0:2 (copy)
  Stream #0:3 -> #0:3 (copy)
  Stream #0:4 -> #0:4 (copy)
  Stream #0:5 -> #0:5 (copy)
  Stream #0:6 -> #0:6 (copy)
  Stream #0:7 -> #0:7 (copy)
Press [q] to stop, [?] for help
[mpegts @ 000001edbd3b9c40] Non-monotonous DTS in output stream 0:6; previous: 13639, current: 13637; changing to 13640. This may result in incorrect timestamps in the output file.
[mpegts @ 000001edbd3b9c40] Non-monotonous DTS in output stream 0:7; previous: 13628, current: 13626; changing to 13629. This may result in incorrect timestamps in the output file.
[mpegts @ 000001edbd3b9c40] Non-monotonous DTS in output stream 0:7; previous: 148787, current: 148785; changing to 148788. This may result in incorrect timestamps in the output file.
[mpegts @ 000001edbd3b9c40] Non-monotonous DTS in output stream 0:6; previous: 148777, current: 148775; changing to 148778. This may result in incorrect timestamps in the output file.
[mpegts @ 000001edbd3b9c40] Non-monotonous DTS in output stream 0:6; previous: 257616, current: 257614; changing to 257617. This may result in incorrect timestamps in the output file.
frame=  239 fps=0.0 q=-1.0 Lq=-1.0 size=   60694kB time=00:00:09.99 bitrate=49724.8kbits/s speed=12.8x
video:45773kB audio:8908kB subtitle:52kB other streams:0kB global headers:0kB muxing overhead: 10.889162%

C:\temp\ffmpg\ffmpeg-20180816-fe06ed2-win64-static\bin>ffprobe.exe "d:\test\UHD\00018.m2ts"
ffprobe version N-91618-gfe06ed22e6 Copyright (c) 2007-2018 the FFmpeg developers
  built with gcc 8.2.1 (GCC) 20180813
  configuration: --enable-gpl --enable-version3 --enable-sdl2 --enable-fontconfig --enable-gnutls --enable-iconv --enable-libass --enable-libbluray --enable-libfreetype --enable-libmp3lame --enable-libopencore-amrnb --enable-libopencore-amrwb --enable-libopenjpeg --enable-libopus --enable-libshine --enable-libsnappy --enable-libsoxr --enable-libtheora --enable-libtwolame --enable-libvpx --enable-libwavpack --enable-libwebp --enable-libx264 --enable-libx265 --enable-libxml2 --enable-libzimg --enable-lzma --enable-zlib --enable-gmp --enable-libvidstab --enable-libvorbis --enable-libvo-amrwbenc --enable-libmysofa --enable-libspeex --enable-libxvid --enable-libaom --enable-libmfx --enable-amf --enable-ffnvcodec --enable-cuvid --enable-d3d11va --enable-nvenc --enable-nvdec --enable-dxva2 --enable-avisynth
  libavutil      56. 19.100 / 56. 19.100
  libavcodec     58. 22.101 / 58. 22.101
  libavformat    58. 17.101 / 58. 17.101
  libavdevice    58.  4.101 / 58.  4.101
  libavfilter     7. 26.100 /  7. 26.100
  libswscale      5.  2.100 /  5.  2.100
  libswresample   3.  2.100 /  3.  2.100
  libpostproc    55.  2.100 / 55.  2.100
[hevc @ 00000185bd61f940] Skipping NAL unit 62
Input #0, mpegts, from 'd:\test\UHD\00018.m2ts':
  Duration: 02:29:45.95, start: 4323.791222, bitrate: 56289 kb/s
  Program 1
    Stream #0:0[0x1011]: Video: hevc (Main 10) (HDMV / 0x564D4448), yuv420p10le(tv, bt2020nc/bt2020/smpte2084), 3840x2160 [SAR 1:1 DAR 16:9], 23.98 fps, 23.98 tbr, 90k tbn, 23.98 tbc
    Stream #0:1[0x1015]: Video: hevc (Main 10) (HDMV / 0x564D4448), yuv420p10le(tv, bt2020nc/bt2020/smpte2084), 1920x1080 [SAR 1:1 DAR 16:9], 23.98 fps, 23.98 tbr, 90k tbn, 23.98 tbc
    Stream #0:2[0x1100]: Audio: truehd (AC-3 / 0x332D4341), 48000 Hz, 7.1, s32 (24 bit)
    Stream #0:3[0x1100]: Audio: ac3 (AC-3 / 0x332D4341), 48000 Hz, 5.1(side), fltp, 640 kb/s
    Stream #0:4[0x1101]: Audio: eac3 (AC-3 / 0x332D4341), 48000 Hz, 7.1, fltp, 1024 kb/s
    Stream #0:5[0x1102]: Audio: eac3 (AC-3 / 0x332D4341), 48000 Hz, 7.1, fltp, 896 kb/s
    Stream #0:6[0x12a0]: Subtitle: hdmv_pgs_subtitle ([144][0][0][0] / 0x0090), 1920x1080
    Stream #0:7[0x12a1]: Subtitle: hdmv_pgs_subtitle ([144][0][0][0] / 0x0090), 1920x1080

C:\temp\ffmpg\ffmpeg-20180816-fe06ed2-win64-static\bin>ffprobe.exe "d:\test\UHD\test.m2ts"
ffprobe version N-91618-gfe06ed22e6 Copyright (c) 2007-2018 the FFmpeg developers
  built with gcc 8.2.1 (GCC) 20180813
  configuration: --enable-gpl --enable-version3 --enable-sdl2 --enable-fontconfig --enable-gnutls --enable-iconv --enable-libass --enable-libbluray --enable-libfreetype --enable-libmp3lame --enable-libopencore-amrnb --enable-libopencore-amrwb --enable-libopenjpeg --enable-libopus --enable-libshine --enable-libsnappy --enable-libsoxr --enable-libtheora --enable-libtwolame --enable-libvpx --enable-libwavpack --enable-libwebp --enable-libx264 --enable-libx265 --enable-libxml2 --enable-libzimg --enable-lzma --enable-zlib --enable-gmp --enable-libvidstab --enable-libvorbis --enable-libvo-amrwbenc --enable-libmysofa --enable-libspeex --enable-libxvid --enable-libaom --enable-libmfx --enable-amf --enable-ffnvcodec --enable-cuvid --enable-d3d11va --enable-nvenc --enable-nvdec --enable-dxva2 --enable-avisynth
  libavutil      56. 19.100 / 56. 19.100
  libavcodec     58. 22.101 / 58. 22.101
  libavformat    58. 17.101 / 58. 17.101
  libavdevice    58.  4.101 / 58.  4.101
  libavfilter     7. 26.100 /  7. 26.100
  libswscale      5.  2.100 /  5.  2.100
  libswresample   3.  2.100 /  3.  2.100
  libpostproc    55.  2.100 / 55.  2.100
[eac3 @ 000001d55c392c80] Ignoring dependent frame without independent frame.
[eac3 @ 000001d55c393d80] Ignoring dependent frame without independent frame.
[hevc @ 000001d55c38f940] Skipping NAL unit 62
Input #0, mpegts, from 'd:\test\UHD\test.m2ts':
  Duration: 00:00:10.98, start: 1.400000, bitrate: 45302 kb/s
  Program 1
    Metadata:
      service_name    : Service01
      service_provider: FFmpeg
    Stream #0:0[0x100]: Video: hevc (Main 10) ([36][0][0][0] / 0x0024), yuv420p10le(tv, bt2020nc/bt2020/smpte2084), 3840x2160 [SAR 1:1 DAR 16:9], 23.98 fps, 23.98 tbr, 90k tbn, 23.98 tbc
    Stream #0:1[0x101]: Video: hevc (Main 10) ([36][0][0][0] / 0x0024), yuv420p10le(tv, bt2020nc/bt2020/smpte2084), 1920x1080 [SAR 1:1 DAR 16:9], 23.98 fps, 23.98 tbr, 90k tbn, 23.98 tbc
    Stream #0:2[0x102]: Audio: truehd ([131][0][0][0] / 0x0083), 48000 Hz, 7.1, s32 (24 bit)
    Stream #0:3[0x103]: Audio: ac3 ([129][0][0][0] / 0x0081), 48000 Hz, 5.1(side), fltp, 640 kb/s
    Stream #0:4[0x104]: Audio: eac3 ([135][0][0][0] / 0x0087), 48000 Hz, 7.1, fltp, 1024 kb/s
    Stream #0:5[0x105]: Audio: eac3 ([135][0][0][0] / 0x0087), 48000 Hz, 7.1, fltp, 896 kb/s
    Stream #0:6[0x106]: Data: bin_data ([6][0][0][0] / 0x0006)
    Stream #0:7[0x107]: Data: bin_data ([6][0][0][0] / 0x0006)
Unsupported codec with id 100359 for input stream 6
Unsupported codec with id 100359 for input stream 7

Change History (1)

comment:1 Changed 10 months ago by cehoyos

  • Component changed from avcodec to undetermined
  • Keywords subtitle hdmv_pgs_subtitle removed
  • Priority changed from wish to normal
  • Resolution set to duplicate
  • Status changed from new to closed
  • Type changed from enhancement to defect
  • Version set to unspecified

Duplicate of #2622.

Note: See TracTickets for help on using tickets.