Opened 4 months ago

Last modified 4 months ago

#7174 open defect

H.264 decoding turns blocky, "Out of range weight"+"decode_slice_header error"+more

Reported by: sneaker Owned by:
Priority: important Component: avcodec
Version: git-master Keywords: h264 regression
Cc: Blocked By:
Blocking: Reproduced by developer: yes
Analyzed by developer: no

Description

Summary of the bug:
When decoding a specific H.264 sample (irregardless of container, i.e. mkv, mp4 or elementary stream) the picture exhibits lots of blocks and ffmpeg throws several error messages. This applies both to the standard sw H.264 decoder as well as the DXVA2 decoder (I'm using AMD GPU, HD5850). Decoding works absolutely fine on an Android phone.

Sample download:
https://mega.nz/#!gxNzhaJZ!0xXguojCNvrJ3ARAq9XZTEhgg9hI6UgX5t4VSMQEstY

How to reproduce:

ffmpeg started on 2018-04-29 at 11:26:19
Report written to "ffmpeg-20180429-112619.log"
Command line:
ffmpeg -report -i "ffmpeg H.264 decoding bug blocking.mkv" -c:v libx264 output.mkv
ffmpeg version N-90884-g19c3df0cd6 Copyright (c) 2000-2018 the FFmpeg developers
  built with gcc 7.3.0 (GCC)
  configuration: --enable-gpl --enable-version3 --enable-sdl2 --enable-bzlib --enable-fontconfig --enable-gnutls --enable-iconv --enable-libass --enable-libbluray --enable-libfreetype --enable-libmp3lame --enable-libopencore-amrnb --enable-libopencore-amrwb --enable-libopenjpeg --enable-libopus --enable-libshine --enable-libsnappy --enable-libsoxr --enable-libtheora --enable-libtwolame --enable-libvpx --enable-libwavpack --enable-libwebp --enable-libx264 --enable-libx265 --enable-libxml2 --enable-libzimg --enable-lzma --enable-zlib --enable-gmp --enable-libvidstab --enable-libvorbis --enable-libvo-amrwbenc --enable-libmysofa --enable-libspeex --enable-libxvid --enable-libaom --enable-libmfx --enable-amf --enable-ffnvcodec --enable-cuvid --enable-d3d11va --enable-nvenc --enable-nvdec --enable-dxva2 --enable-avisynth
  libavutil      56. 17.100 / 56. 17.100
  libavcodec     58. 19.100 / 58. 19.100
  libavformat    58. 13.100 / 58. 13.100
  libavdevice    58.  4.100 / 58.  4.100
  libavfilter     7. 20.100 /  7. 20.100
  libswscale      5.  2.100 /  5.  2.100
  libswresample   3.  2.100 /  3.  2.100
  libpostproc    55.  2.100 / 55.  2.100
Splitting the commandline.
Reading option '-report' ... matched as option 'report' (generate a report) with argument '1'.
Reading option '-i' ... matched as input url with argument 'ffmpeg H.264 decoding bug blocking.mkv'.
Reading option '-c:v' ... matched as option 'c' (codec name) with argument 'libx264'.
Reading option 'output.mkv' ... matched as output url.
Finished splitting the commandline.
Parsing a group of options: global .
Applying option report (generate a report) with argument 1.
Successfully parsed a group of options.
Parsing a group of options: input url ffmpeg H.264 decoding bug blocking.mkv.
Successfully parsed a group of options.
Opening an input file: ffmpeg H.264 decoding bug blocking.mkv.
[NULL @ 00000000005a3b00] Opening 'ffmpeg H.264 decoding bug blocking.mkv' for reading
[file @ 00000000005a5480] Setting default whitelist 'file,crypto'
[matroska,webm @ 00000000005a3b00] Format matroska,webm probed with size=2048 and score=100
st:0 removing common factor 1000000 from timebase
[matroska,webm @ 00000000005a3b00] Before avformat_find_stream_info() pos: 5438 bytes read:33170 seeks:2 nb_streams:1
[h264 @ 00000000005b7ac0] nal_unit_type: 7, nal_ref_idc: 3
[h264 @ 00000000005b7ac0] nal_unit_type: 8, nal_ref_idc: 3
[h264 @ 00000000005b7ac0] nal_unit_type: 7, nal_ref_idc: 3
[h264 @ 00000000005b7ac0] nal_unit_type: 8, nal_ref_idc: 3
[h264 @ 00000000005b7ac0] nal_unit_type: 7, nal_ref_idc: 3
[h264 @ 00000000005b7ac0] nal_unit_type: 8, nal_ref_idc: 3
[h264 @ 00000000005b7ac0] nal_unit_type: 5, nal_ref_idc: 3
[h264 @ 00000000005b7ac0] Format yuv420p chosen by get_format().
[h264 @ 00000000005b7ac0] Reinit context to 1920x1040, pix_fmt: yuv420p
[h264 @ 00000000005b7ac0] no picture 
[matroska,webm @ 00000000005a3b00] All info found
[matroska,webm @ 00000000005a3b00] After avformat_find_stream_info() pos: 296306 bytes read:324038 seeks:2 frames:3
Input #0, matroska,webm, from 'ffmpeg H.264 decoding bug blocking.mkv':
  Metadata:
    encoder         : libebml v1.3.5 + libmatroska v1.4.8
    creation_time   : 2018-04-29T01:04:32.000000Z
  Duration: 00:00:06.22, start: 0.000000, bitrate: 22260 kb/s
    Stream #0:0, 3, 1/1000: Video: h264 (High), yuv420p(progressive), 1920x1040, SAR 1:1 DAR 24:13, 23.98 fps, 23.98 tbr, 1k tbn, 47.95 tbc (default)
    Metadata:
      BPS-eng         : 22251324
      DURATION-eng    : 00:00:06.215000000
      NUMBER_OF_FRAMES-eng: 149
      NUMBER_OF_BYTES-eng: 17286498
      _STATISTICS_WRITING_APP-eng: mkvmerge v22.0.0 ('At The End Of The World') 32-bit
      _STATISTICS_WRITING_DATE_UTC-eng: 2018-04-29 01:04:32
      _STATISTICS_TAGS-eng: BPS DURATION NUMBER_OF_FRAMES NUMBER_OF_BYTES
Successfully opened the file.
Parsing a group of options: output url output.mkv.
Applying option c:v (codec name) with argument libx264.
Successfully parsed a group of options.
Opening an output file: output.mkv.
[file @ 00000000005acd00] Setting default whitelist 'file,crypto'
Successfully opened the file.
detected 4 logical cores
[h264 @ 00000000005fd8c0] nal_unit_type: 7, nal_ref_idc: 3
[h264 @ 00000000005fd8c0] nal_unit_type: 8, nal_ref_idc: 3
Stream mapping:
  Stream #0:0 -> #0:0 (h264 (native) -> h264 (libx264))
Press [q] to stop, [?] for help
cur_dts is invalid (this is harmless if it occurs once at the start per stream)
cur_dts is invalid (this is harmless if it occurs once at the start per stream)
[h264 @ 00000000005fd8c0] nal_unit_type: 7, nal_ref_idc: 3
[h264 @ 00000000005fd8c0] nal_unit_type: 8, nal_ref_idc: 3
[h264 @ 00000000005fd8c0] nal_unit_type: 5, nal_ref_idc: 3
[h264 @ 00000000005fd8c0] Format yuv420p chosen by get_format().
[h264 @ 00000000005fd8c0] Reinit context to 1920x1040, pix_fmt: yuv420p
[h264 @ 00000000005fd8c0] no picture 
cur_dts is invalid (this is harmless if it occurs once at the start per stream)
[h264 @ 00000000005fdd40] nal_unit_type: 1, nal_ref_idc: 2
cur_dts is invalid (this is harmless if it occurs once at the start per stream)
[h264 @ 00000000005fe480] nal_unit_type: 1, nal_ref_idc: 2
cur_dts is invalid (this is harmless if it occurs once at the start per stream)
[h264 @ 00000000005cad80] nal_unit_type: 1, nal_ref_idc: 2
cur_dts is invalid (this is harmless if it occurs once at the start per stream)
[h264 @ 00000000005cb4c0] nal_unit_type: 1, nal_ref_idc: 0
[h264 @ 00000000005fd8c0] nal_unit_type: 1, nal_ref_idc: 0
[graph 0 input from stream 0:0 @ 0000000002c8fd80] Setting 'video_size' to value '1920x1040'
[graph 0 input from stream 0:0 @ 0000000002c8fd80] Setting 'pix_fmt' to value '0'
[graph 0 input from stream 0:0 @ 0000000002c8fd80] Setting 'time_base' to value '1/1000'
[graph 0 input from stream 0:0 @ 0000000002c8fd80] Setting 'pixel_aspect' to value '1/1'
[graph 0 input from stream 0:0 @ 0000000002c8fd80] Setting 'sws_param' to value 'flags=2'
[graph 0 input from stream 0:0 @ 0000000002c8fd80] Setting 'frame_rate' to value '24000/1001'
[graph 0 input from stream 0:0 @ 0000000002c8fd80] w:1920 h:1040 pixfmt:yuv420p tb:1/1000 fr:24000/1001 sar:1/1 sws_param:flags=2
[format @ 0000000002aba440] Setting 'pix_fmts' to value 'yuv420p|yuvj420p|yuv422p|yuvj422p|yuv444p|yuvj444p|nv12|nv16|nv21|yuv420p10le|yuv422p10le|yuv444p10le|nv20le'
[AVFilterGraph @ 00000000005a85c0] query_formats: 4 queried, 3 merged, 0 already done, 0 delayed
[libx264 @ 00000000005abe00] using mv_range_thread = 88
[libx264 @ 00000000005abe00] using SAR=1/1
[libx264 @ 00000000005abe00] using cpu capabilities: MMX2 SSE2Fast SSSE3 SSE4.2 AVX
[libx264 @ 00000000005abe00] profile High, level 4.0
[libx264 @ 00000000005abe00] 264 - core 155 r2901 7d0ff22 - H.264/MPEG-4 AVC codec - Copyleft 2003-2018 - http://www.videolan.org/x264.html - options: cabac=1 ref=3 deblock=1:0:0 analyse=0x3:0x113 me=hex subme=7 psy=1 psy_rd=1.00:0.00 mixed_ref=1 me_range=16 chroma_me=1 trellis=1 8x8dct=1 cqm=0 deadzone=21,11 fast_pskip=1 chroma_qp_offset=-2 threads=6 lookahead_threads=1 sliced_threads=0 nr=0 decimate=1 interlaced=0 bluray_compat=0 constrained_intra=0 bframes=3 b_pyramid=2 b_adapt=1 b_bias=0 direct=1 weightb=1 open_gop=0 weightp=2 keyint=250 keyint_min=23 scenecut=40 intra_refresh=0 rc_lookahead=40 rc=crf mbtree=1 crf=23.0 qcomp=0.60 qpmin=0 qpmax=69 qpstep=4 ip_ratio=1.40 aq=1:1.00
[matroska @ 0000000003008040] get_metadata_duration returned: 0
Output #0, matroska, to 'output.mkv':
  Metadata:
    encoder         : Lavf58.13.100
    Stream #0:0, 0, 1/1000: Video: h264 (libx264) (H264 / 0x34363248), yuv420p, 1920x1040 [SAR 1:1 DAR 24:13], q=-1--1, 23.98 fps, 1k tbn, 23.98 tbc (default)
    Metadata:
      BPS-eng         : 22251324
      DURATION-eng    : 00:00:06.215000000
      NUMBER_OF_FRAMES-eng: 149
      NUMBER_OF_BYTES-eng: 17286498
      _STATISTICS_WRITING_APP-eng: mkvmerge v22.0.0 ('At The End Of The World') 32-bit
      _STATISTICS_WRITING_DATE_UTC-eng: 2018-04-29 01:04:32
      _STATISTICS_TAGS-eng: BPS DURATION NUMBER_OF_FRAMES NUMBER_OF_BYTES
      encoder         : Lavc58.19.100 libx264
    Side data:
      cpb: bitrate max/min/avg: 0/0/0 buffer size: 0 vbv_delay: -1
Clipping frame in rate conversion by 0.000008
cur_dts is invalid (this is harmless if it occurs once at the start per stream)
[h264 @ 00000000005fdd40] nal_unit_type: 1, nal_ref_idc: 2
cur_dts is invalid (this is harmless if it occurs once at the start per stream)
Clipping frame in rate conversion by 0.009972
[h264 @ 00000000005fe480] nal_unit_type: 1, nal_ref_idc: 2
cur_dts is invalid (this is harmless if it occurs once at the start per stream)
Clipping frame in rate conversion by 0.002983
[h264 @ 00000000005cad80] nal_unit_type: 1, nal_ref_idc: 2
cur_dts is invalid (this is harmless if it occurs once at the start per stream)
[h264 @ 00000000005cb4c0] nal_unit_type: 1, nal_ref_idc: 0
cur_dts is invalid (this is harmless if it occurs once at the start per stream)
[h264 @ 00000000005fd8c0] nal_unit_type: 1, nal_ref_idc: 0
cur_dts is invalid (this is harmless if it occurs once at the start per stream)
Clipping frame in rate conversion by 0.005974
[h264 @ 00000000005fdd40] nal_unit_type: 1, nal_ref_idc: 2
cur_dts is invalid (this is harmless if it occurs once at the start per stream)
[h264 @ 00000000005fe480] nal_unit_type: 1, nal_ref_idc: 2
cur_dts is invalid (this is harmless if it occurs once at the start per stream)
[h264 @ 00000000005cad80] nal_unit_type: 1, nal_ref_idc: 2
cur_dts is invalid (this is harmless if it occurs once at the start per stream)
[h264 @ 00000000005cb4c0] nal_unit_type: 1, nal_ref_idc: 2
Clipping frame in rate conversion by 0.008995
cur_dts is invalid (this is harmless if it occurs once at the start per stream)
Clipping frame in rate conversion by 0.001976
[h264 @ 00000000005fd8c0] nal_unit_type: 1, nal_ref_idc: 0
cur_dts is invalid (this is harmless if it occurs once at the start per stream)
[h264 @ 00000000005fdd40] nal_unit_type: 1, nal_ref_idc: 0
cur_dts is invalid (this is harmless if it occurs once at the start per stream)
[h264 @ 00000000005fe480] nal_unit_type: 1, nal_ref_idc: 2
cur_dts is invalid (this is harmless if it occurs once at the start per stream)
[h264 @ 00000000005cad80] nal_unit_type: 1, nal_ref_idc: 2
Clipping frame in rate conversion by 0.004997
cur_dts is invalid (this is harmless if it occurs once at the start per stream)
[h264 @ 00000000005cb4c0] nal_unit_type: 1, nal_ref_idc: 0
cur_dts is invalid (this is harmless if it occurs once at the start per stream)
[h264 @ 00000000005fd8c0] nal_unit_type: 1, nal_ref_idc: 2
cur_dts is invalid (this is harmless if it occurs once at the start per stream)
Clipping frame in rate conversion by 0.007988
[h264 @ 00000000005fdd40] nal_unit_type: 1, nal_ref_idc: 2
cur_dts is invalid (this is harmless if it occurs once at the start per stream)
Clipping frame in rate conversion by 0.000999
[h264 @ 00000000005fe480] nal_unit_type: 1, nal_ref_idc: 2
cur_dts is invalid (this is harmless if it occurs once at the start per stream)
[h264 @ 00000000005cad80] nal_unit_type: 1, nal_ref_idc: 2
cur_dts is invalid (this is harmless if it occurs once at the start per stream)
Clipping frame in rate conversion by 0.010979
[h264 @ 00000000005cb4c0] nal_unit_type: 1, nal_ref_idc: 2
cur_dts is invalid (this is harmless if it occurs once at the start per stream)
Clipping frame in rate conversion by 0.003990
[h264 @ 00000000005fd8c0] nal_unit_type: 1, nal_ref_idc: 0
cur_dts is invalid (this is harmless if it occurs once at the start per stream)
[h264 @ 00000000005fdd40] nal_unit_type: 1, nal_ref_idc: 2
cur_dts is invalid (this is harmless if it occurs once at the start per stream)
[h264 @ 00000000005fe480] nal_unit_type: 1, nal_ref_idc: 2
cur_dts is invalid (this is harmless if it occurs once at the start per stream)
Clipping frame in rate conversion by 0.006981
[h264 @ 00000000005cad80] nal_unit_type: 1, nal_ref_idc: 2
cur_dts is invalid (this is harmless if it occurs once at the start per stream)
[h264 @ 00000000005cb4c0] nal_unit_type: 1, nal_ref_idc: 2
cur_dts is invalid (this is harmless if it occurs once at the start per stream)
[h264 @ 00000000005fd8c0] nal_unit_type: 1, nal_ref_idc: 0
cur_dts is invalid (this is harmless if it occurs once at the start per stream)
Clipping frame in rate conversion by 0.009972
[h264 @ 00000000005fdd40] nal_unit_type: 1, nal_ref_idc: 2
cur_dts is invalid (this is harmless if it occurs once at the start per stream)
[h264 @ 00000000005fe480] nal_unit_type: 1, nal_ref_idc: 0
Clipping frame in rate conversion by 0.002983
cur_dts is invalid (this is harmless if it occurs once at the start per stream)
[h264 @ 00000000005cad80] nal_unit_type: 5, nal_ref_idc: 3
cur_dts is invalid (this is harmless if it occurs once at the start per stream)
[h264 @ 00000000005cb4c0] nal_unit_type: 1, nal_ref_idc: 2
cur_dts is invalid (this is harmless if it occurs once at the start per stream)
Clipping frame in rate conversion by 0.005974
[h264 @ 00000000005fd8c0] nal_unit_type: 1, nal_ref_idc: 0
cur_dts is invalid (this is harmless if it occurs once at the start per stream)
[h264 @ 00000000005fdd40] nal_unit_type: 1, nal_ref_idc: 2
cur_dts is invalid (this is harmless if it occurs once at the start per stream)
[h264 @ 00000000005fe480] nal_unit_type: 1, nal_ref_idc: 0
cur_dts is invalid (this is harmless if it occurs once at the start per stream)
Clipping frame in rate conversion by 0.008995
[h264 @ 00000000005cad80] nal_unit_type: 1, nal_ref_idc: 0
cur_dts is invalid (this is harmless if it occurs once at the start per stream)
Clipping frame in rate conversion by 0.001976
cur_dts is invalid (this is harmless if it occurs once at the start per stream)
[h264 @ 00000000005cb4c0] nal_unit_type: 1, nal_ref_idc: 0
[h264 @ 00000000005fd8c0] nal_unit_type: 1, nal_ref_idc: 2
cur_dts is invalid (this is harmless if it occurs once at the start per stream)
[h264 @ 00000000005fdd40] nal_unit_type: 1, nal_ref_idc: 0
cur_dts is invalid (this is harmless if it occurs once at the start per stream)
Clipping frame in rate conversion by 0.004997
[h264 @ 00000000005fe480] nal_unit_type: 1, nal_ref_idc: 2
cur_dts is invalid (this is harmless if it occurs once at the start per stream)
[h264 @ 00000000005cad80] nal_unit_type: 1, nal_ref_idc: 0
cur_dts is invalid (this is harmless if it occurs once at the start per stream)
[h264 @ 00000000005cb4c0] nal_unit_type: 1, nal_ref_idc: 2
cur_dts is invalid (this is harmless if it occurs once at the start per stream)
Clipping frame in rate conversion by 0.007988
[h264 @ 00000000005fd8c0] nal_unit_type: 1, nal_ref_idc: 2
cur_dts is invalid (this is harmless if it occurs once at the start per stream)
Clipping frame in rate conversion by 0.000999
[h264 @ 00000000005fdd40] nal_unit_type: 1, nal_ref_idc: 0
cur_dts is invalid (this is harmless if it occurs once at the start per stream)
cur_dts is invalid (this is harmless if it occurs once at the start per stream)
[h264 @ 00000000005fe480] nal_unit_type: 1, nal_ref_idc: 2
Clipping frame in rate conversion by 0.010979
cur_dts is invalid (this is harmless if it occurs once at the start per stream)
[h264 @ 00000000005cad80] nal_unit_type: 1, nal_ref_idc: 0
Clipping frame in rate conversion by 0.003990
cur_dts is invalid (this is harmless if it occurs once at the start per stream)
[h264 @ 00000000005cb4c0] nal_unit_type: 1, nal_ref_idc: 2
[h264 @ 00000000005fd8c0] nal_unit_type: 1, nal_ref_idc: 0
cur_dts is invalid (this is harmless if it occurs once at the start per stream)
[h264 @ 00000000005fdd40] nal_unit_type: 1, nal_ref_idc: 2
[libx264 @ 00000000005abe00] scene cut at 2 Icost:1943282 Pcost:1931325 ratio:0.0062 bias:0.0250 gop:2 (imb:7272 pmb:162)
frame=   47 fps= 43 q=0.0 size=       1kB time=00:00:00.00 bitrate=N/A speed=   0x    
cur_dts is invalid (this is harmless if it occurs once at the start per stream)
Clipping frame in rate conversion by 0.006981
[h264 @ 00000000005fe480] nal_unit_type: 1, nal_ref_idc: 0
cur_dts is invalid (this is harmless if it occurs once at the start per stream)
[NULL @ 00000000005b7ac0] Out of range weight
[NULL @ 00000000005b7ac0]  is not implemented. Update your FFmpeg version to the newest one from Git. If the problem still occurs, it means that your file has a feature which has not been implemented.
[NULL @ 00000000005b7ac0] If you want to help, upload a sample of this file to ftp://upload.ffmpeg.org/incoming/ and contact the ffmpeg-devel mailing list. (ffmpeg-devel@ffmpeg.org)
[h264 @ 00000000005cad80] nal_unit_type: 1, nal_ref_idc: 2
[h264 @ 00000000005cad80] Out of range weight
[h264 @ 00000000005cad80]  is not implemented. Update your FFmpeg version to the newest one from Git. If the problem still occurs, it means that your file has a feature which has not been implemented.
[h264 @ 00000000005cad80] If you want to help, upload a sample of this file to ftp://upload.ffmpeg.org/incoming/ and contact the ffmpeg-devel mailing list. (ffmpeg-devel@ffmpeg.org)
[h264 @ 00000000005cad80] decode_slice_header error
[h264 @ 00000000005cad80] no frame!
cur_dts is invalid (this is harmless if it occurs once at the start per stream)
[h264 @ 00000000005cb4c0] nal_unit_type: 1, nal_ref_idc: 2
[h264 @ 00000000005cb4c0] reference picture missing during reorder
[h264 @ 00000000005cb4c0] reference picture missing during reorder
[h264 @ 00000000005cb4c0] reference picture missing during reorder
[h264 @ 00000000005cb4c0] Missing reference picture, default is 65574
[h264 @ 00000000005cb4c0] Missing reference picture, default is 65574
[h264 @ 00000000005cb4c0] Missing reference picture, default is 65574
cur_dts is invalid (this is harmless if it occurs once at the start per stream)
Clipping frame in rate conversion by 0.009972
[h264 @ 00000000005fd8c0] nal_unit_type: 1, nal_ref_idc: 2
[h264 @ 00000000005fd8c0] reference picture missing during reorder
[h264 @ 00000000005fd8c0] Missing reference picture, default is 65578
[libx264 @ 00000000005abe00] frame=   0 QP=23.54 NAL=3 Slice:I Poc:0   I:7800 P:0    SKIP:0    size=45359 bytes
[matroska @ 0000000003008040] Writing block at offset 9, size 46048, pts 0, dts -83, duration 42, keyframe 1
Clipping frame in rate conversion by 0.002983
[h264 @ 00000000005fdd40] nal_unit_type: 1, nal_ref_idc: 2
[h264 @ 00000000005fdd40] reference picture missing during reorder
[h264 @ 00000000005fdd40] Missing reference picture, default is 65580
[libx264 @ 00000000005abe00] frame=   1 QP=23.81 NAL=2 Slice:P Poc:2   I:4215 P:2679 SKIP:906  size=38067 bytes
[matroska @ 0000000003008040] Writing block at offset 46066, size 38067, pts 42, dts -42, duration 42, keyframe 0
[h264 @ 00000000005fe480] nal_unit_type: 1, nal_ref_idc: 2
Error while decoding stream #0:0: Invalid data found when processing input
[h264 @ 00000000005fe480] reference picture missing during reorder
[h264 @ 00000000005fe480] Missing reference picture, default is 65582
[h264 @ 00000000005cad80] nal_unit_type: 1, nal_ref_idc: 0
[libx264 @ 00000000005abe00] frame=   2 QP=23.63 NAL=2 Slice:I Poc:4   I:7800 P:0    SKIP:0    size=87787 bytes
[matroska @ 0000000003008040] Writing block at offset 84141, size 87787, pts 83, dts 0, duration 42, keyframe 0
[h264 @ 00000000005cb4c0] nal_unit_type: 1, nal_ref_idc: 0
[libx264 @ 00000000005abe00] scene cut at 10 Icost:1111777 Pcost:1096643 ratio:0.0136 bias:0.0435 gop:10 (imb:7356 pmb:78)
[libx264 @ 00000000005abe00] frame=   3 QP=23.95 NAL=2 Slice:P Poc:6   I:7635 P:165  SKIP:0    size=47773 bytes
[matroska @ 0000000003008040] Writing block at offset 171936, size 47773, pts 125, dts 42, duration 42, keyframe 0
[h264 @ 00000000005fd8c0] nal_unit_type: 1, nal_ref_idc: 2
[libx264 @ 00000000005abe00] frame=   4 QP=24.50 NAL=2 Slice:P Poc:8   I:5876 P:1800 SKIP:124  size=50902 bytes
[matroska @ 0000000003008040] Writing block at offset 219717, size 50902, pts 167, dts 83, duration 42, keyframe 0
frame=   55 fps= 34 q=28.0 size=       1kB time=00:00:00.08 bitrate= 109.0kbits/s speed=0.0522x    
[h264 @ 00000000005fdd40] nal_unit_type: 1, nal_ref_idc: 0
[libx264 @ 00000000005abe00] frame=   5 QP=23.75 NAL=2 Slice:P Poc:10  I:3888 P:3842 SKIP:70   size=40290 bytes
[matroska @ 0000000003008040] Writing block at offset 270627, size 40290, pts 209, dts 125, duration 42, keyframe 0
Clipping frame in rate conversion by 0.008995
[h264 @ 00000000005fe480] nal_unit_type: 1, nal_ref_idc: 2
[libx264 @ 00000000005abe00] frame=   6 QP=23.92 NAL=2 Slice:P Poc:12  I:3363 P:3763 SKIP:674  size=37947 bytes
[matroska @ 0000000003008040] Writing block at offset 310925, size 37947, pts 250, dts 167, duration 42, keyframe 0
Clipping frame in rate conversion by 0.001976
[h264 @ 00000000005cad80] nal_unit_type: 1, nal_ref_idc: 0
[libx264 @ 00000000005abe00] frame=   7 QP=25.13 NAL=2 Slice:P Poc:14  I:7384 P:415  SKIP:1    size=62906 bytes
[matroska @ 0000000003008040] Writing block at offset 348880, size 62906, pts 292, dts 209, duration 42, keyframe 0
[h264 @ 00000000005cb4c0] nal_unit_type: 1, nal_ref_idc: 2
[libx264 @ 00000000005abe00] frame=   8 QP=23.83 NAL=2 Slice:P Poc:16  I:5037 P:2755 SKIP:8    size=44050 bytes
[matroska @ 0000000003008040] Writing block at offset 411794, size 44050, pts 334, dts 250, duration 42, keyframe 0
[h264 @ 00000000005fd8c0] nal_unit_type: 1, nal_ref_idc: 0
[libx264 @ 00000000005abe00] frame=   9 QP=25.15 NAL=2 Slice:P Poc:18  I:2913 P:4885 SKIP:2    size=47929 bytes
[matroska @ 0000000003008040] Writing block at offset 455852, size 47929, pts 375, dts 292, duration 42, keyframe 0
Clipping frame in rate conversion by 0.004997
[h264 @ 00000000005fdd40] nal_unit_type: 1, nal_ref_idc: 2
[libx264 @ 00000000005abe00] frame=  10 QP=20.69 NAL=2 Slice:I Poc:20  I:7800 P:0    SKIP:0    size=78977 bytes
[matroska @ 0000000003008040] Writing block at offset 503789, size 78977, pts 417, dts 334, duration 42, keyframe 0
[h264 @ 00000000005fe480] nal_unit_type: 1, nal_ref_idc: 2
[libx264 @ 00000000005abe00] scene cut at 20 Icost:523817 Pcost:523073 ratio:0.0014 bias:0.0870 gop:20 (imb:7396 pmb:38)
[libx264 @ 00000000005abe00] frame=  11 QP=24.15 NAL=2 Slice:P Poc:22  I:4365 P:3106 SKIP:329  size=47713 bytes
[matroska @ 0000000003008040] Writing block at offset 582774, size 47713, pts 459, dts 375, duration 42, keyframe 0
[h264 @ 00000000005cad80] nal_unit_type: 1, nal_ref_idc: 0
[libx264 @ 00000000005abe00] frame=  12 QP=24.57 NAL=2 Slice:P Poc:24  I:4762 P:2878 SKIP:160  size=53198 bytes
[matroska @ 0000000003008040] Writing block at offset 630495, size 53198, pts 501, dts 417, duration 42, keyframe 0
frame=   63 fps= 28 q=28.0 size=       1kB time=00:00:00.41 bitrate=  21.9kbits/s speed=0.186x    
Clipping frame in rate conversion by 0.007988
[h264 @ 00000000005cb4c0] nal_unit_type: 1, nal_ref_idc: 0
[libx264 @ 00000000005abe00] frame=  13 QP=24.05 NAL=2 Slice:P Poc:26  I:4159 P:3529 SKIP:112  size=46353 bytes
[matroska @ 0000000003008040] Writing block at offset 683701, size 46353, pts 542, dts 459, duration 42, keyframe 0
Clipping frame in rate conversion by 0.000999
[h264 @ 00000000005fd8c0] nal_unit_type: 1, nal_ref_idc: 2
[libx264 @ 00000000005abe00] scene cut at 23 Icost:520022 Pcost:491874 ratio:0.0541 bias:0.1000 gop:23 (imb:6340 pmb:1094)
[libx264 @ 00000000005abe00] frame=  14 QP=25.40 NAL=2 Slice:P Poc:28  I:7186 P:614  SKIP:0    size=65197 bytes
[matroska @ 0000000003008040] Writing block at offset 730062, size 65197, pts 584, dts 501, duration 42, keyframe 0
[h264 @ 00000000005fdd40] nal_unit_type: 1, nal_ref_idc: 0
[libx264 @ 00000000005abe00] frame=  15 QP=24.12 NAL=2 Slice:P Poc:30  I:3219 P:4581 SKIP:0    size=44430 bytes
[matroska @ 0000000003008040] Writing block at offset 795267, size 44430, pts 626, dts 542, duration 42, keyframe 0
Clipping frame in rate conversion by 0.010979
[h264 @ 00000000005fe480] nal_unit_type: 1, nal_ref_idc: 0
[libx264 @ 00000000005abe00] frame=  16 QP=25.24 NAL=2 Slice:P Poc:32  I:5348 P:2451 SKIP:1    size=56900 bytes
[matroska @ 0000000003008040] Writing block at offset 839705, size 56900, pts 667, dts 584, duration 42, keyframe 0
Clipping frame in rate conversion by 0.003990
[h264 @ 00000000005cad80] nal_unit_type: 1, nal_ref_idc: 2
[libx264 @ 00000000005abe00] frame=  17 QP=23.95 NAL=2 Slice:P Poc:36  I:3468 P:4332 SKIP:0    size=40766 bytes
[matroska @ 0000000003008040] Writing block at offset 896613, size 40766, pts 751, dts 626, duration 42, keyframe 0
[h264 @ 00000000005cb4c0] nal_unit_type: 1, nal_ref_idc: 0
[libx264 @ 00000000005abe00] frame=  18 QP=24.07 NAL=0 Slice:B Poc:34  I:576  P:4523 SKIP:2604 size=24605 bytes
[matroska @ 0000000003008040] Writing block at offset 937387, size 24605, pts 709, dts 667, duration 42, keyframe 0
frame=   69 fps= 25 q=25.0 size=       1kB time=00:00:00.66 bitrate=  13.7kbits/s speed=0.241x    
[h264 @ 00000000005fd8c0] nal_unit_type: 1, nal_ref_idc: 2
[libx264 @ 00000000005abe00] frame=  19 QP=24.64 NAL=2 Slice:P Poc:38  I:4945 P:2714 SKIP:141  size=51115 bytes
[matroska @ 0000000003008040] Writing block at offset 962000, size 51115, pts 792, dts 709, duration 42, keyframe 0
Clipping frame in rate conversion by 0.006981
[h264 @ 00000000005fdd40] nal_unit_type: 1, nal_ref_idc: 0
[libx264 @ 00000000005abe00] frame=  20 QP=16.79 NAL=2 Slice:I Poc:40  I:7800 P:0    SKIP:0    size=46407 bytes
[matroska @ 0000000003008040] Writing block at offset 1013123, size 46407, pts 834, dts 751, duration 42, keyframe 0
[libx264 @ 00000000005abe00] frame=  21 QP=20.70 NAL=2 Slice:P Poc:42  I:662  P:2353 SKIP:4785 size=7632 bytes
[matroska @ 0000000003008040] Writing block at offset 1059538, size 7632, pts 876, dts 792, duration 42, keyframe 0
[h264 @ 00000000005fe480] nal_unit_type: 1, nal_ref_idc: 2
[h264 @ 00000000005cad80] nal_unit_type: 1, nal_ref_idc: 0
[libx264 @ 00000000005abe00] frame=  22 QP=21.34 NAL=2 Slice:P Poc:44  I:3770 P:2341 SKIP:1689 size=22624 bytes
[matroska @ 0000000003008040] Writing block at offset 1067177, size 22624, pts 918, dts 834, duration 42, keyframe 0
Clipping frame in rate conversion by 0.009972
[h264 @ 00000000005cb4c0] nal_unit_type: 1, nal_ref_idc: 2
[libx264 @ 00000000005abe00] frame=  23 QP=16.87 NAL=3 Slice:I Poc:0   I:7800 P:0    SKIP:0    size=41042 bytes
[matroska @ 0000000003008040] Starting new cluster at offset 1090965 bytes, pts 959dts 876
[matroska @ 0000000003008040] Writing block at offset 10, size 41042, pts 959, dts 876, duration 42, keyframe 1
Clipping frame in rate conversion by 0.002983
[h264 @ 00000000005fd8c0] nal_unit_type: 1, nal_ref_idc: 0
[libx264 @ 00000000005abe00] frame=  24 QP=20.32 NAL=2 Slice:P Poc:4   I:3598 P:1720 SKIP:2482 size=15907 bytes
[matroska @ 0000000003008040] Writing block at offset 41060, size 15907, pts 1043, dts 918, duration 42, keyframe 0
[h264 @ 00000000005fdd40] nal_unit_type: 1, nal_ref_idc: 2
[libx264 @ 00000000005abe00] scene cut at 33 Icost:1593121 Pcost:1591148 ratio:0.0012 bias:0.0435 gop:10 (imb:7390 pmb:44)
[libx264 @ 00000000005abe00] frame=  25 QP=20.10 NAL=0 Slice:B Poc:2   I:828  P:2818 SKIP:4141 size=10643 bytes
[matroska @ 0000000003008040] Writing block at offset 56974, size 10643, pts 1001, dts 959, duration 42, keyframe 0
[h264 @ 00000000005fe480] nal_unit_type: 1, nal_ref_idc: 0
[libx264 @ 00000000005abe00] frame=  26 QP=22.06 NAL=2 Slice:P Poc:6   I:7613 P:99   SKIP:88   size=30817 bytes
[matroska @ 0000000003008040] Writing block at offset 67624, size 30817, pts 1084, dts 1001, duration 42, keyframe 0
Clipping frame in rate conversion by 0.005974
[h264 @ 00000000005cad80] nal_unit_type: 1, nal_ref_idc: 2
[libx264 @ 00000000005abe00] frame=  27 QP=23.94 NAL=2 Slice:P Poc:8   I:7570 P:229  SKIP:1    size=51094 bytes
[matroska @ 0000000003008040] Writing block at offset 98449, size 51094, pts 1126, dts 1043, duration 42, keyframe 0
[h264 @ 00000000005cb4c0] nal_unit_type: 1, nal_ref_idc: 0
[libx264 @ 00000000005abe00] frame=  28 QP=24.78 NAL=2 Slice:P Poc:10  I:7406 P:394  SKIP:0    size=65618 bytes
[matroska @ 0000000003008040] Writing block at offset 149551, size 65618, pts 1168, dts 1084, duration 42, keyframe 0
frame=   79 fps= 23 q=25.0 size=    1065kB time=00:00:01.08 bitrate=8044.0kbits/s speed=0.318x    
[h264 @ 00000000005fd8c0] nal_unit_type: 1, nal_ref_idc: 0
[libx264 @ 00000000005abe00] frame=  29 QP=25.10 NAL=2 Slice:P Poc:12  I:6530 P:1269 SKIP:1    size=67908 bytes
[matroska @ 0000000003008040] Writing block at offset 215177, size 67908, pts 1210, dts 1126, duration 42, keyframe 0
Clipping frame in rate conversion by 0.008995
[h264 @ 00000000005fdd40] nal_unit_type: 1, nal_ref_idc: 2
[libx264 @ 00000000005abe00] frame=  30 QP=24.94 NAL=2 Slice:P Poc:14  I:6274 P:1526 SKIP:0    size=66881 bytes
[matroska @ 0000000003008040] Writing block at offset 283093, size 66881, pts 1251, dts 1168, duration 42, keyframe 0
Clipping frame in rate conversion by 0.001976
[h264 @ 00000000005fe480] nal_unit_type: 1, nal_ref_idc: 0
[libx264 @ 00000000005abe00] frame=  31 QP=25.36 NAL=2 Slice:P Poc:16  I:5768 P:2032 SKIP:0    size=68679 bytes
[matroska @ 0000000003008040] Writing block at offset 349982, size 68679, pts 1293, dts 1210, duration 42, keyframe 0
[h264 @ 00000000005cad80] nal_unit_type: 1, nal_ref_idc: 2
[libx264 @ 00000000005abe00] frame=  32 QP=25.39 NAL=2 Slice:P Poc:18  I:5295 P:2502 SKIP:3    size=72328 bytes
[matroska @ 0000000003008040] Writing block at offset 418669, size 72328, pts 1335, dts 1251, duration 42, keyframe 0
[h264 @ 00000000005cb4c0] nal_unit_type: 1, nal_ref_idc: 0
[libx264 @ 00000000005abe00] frame=  33 QP=20.10 NAL=2 Slice:I Poc:20  I:7800 P:0    SKIP:0    size=58691 bytes
[matroska @ 0000000003008040] Writing block at offset 491005, size 58691, pts 1376, dts 1293, duration 42, keyframe 0
Clipping frame in rate conversion by 0.004997
[h264 @ 00000000005fd8c0] nal_unit_type: 1, nal_ref_idc: 2
[libx264 @ 00000000005abe00] scene cut at 43 Icost:2089137 Pcost:1963711 ratio:0.0600 bias:0.0870 gop:20 (imb:6096 pmb:1338)
[libx264 @ 00000000005abe00] frame=  34 QP=23.50 NAL=2 Slice:P Poc:24  I:6886 P:914  SKIP:0    size=68098 bytes
[matroska @ 0000000003008040] Writing block at offset 549704, size 68098, pts 1460, dts 1335, duration 42, keyframe 0
[h264 @ 00000000005fdd40] nal_unit_type: 1, nal_ref_idc: 2
[libx264 @ 00000000005abe00] frame=  35 QP=23.80 NAL=0 Slice:B Poc:22  I:640  P:3598 SKIP:3513 size=20597 bytes
[matroska @ 0000000003008040] Writing block at offset 617810, size 20597, pts 1418, dts 1376, duration 42, keyframe 0
frame=   86 fps= 21 q=28.0 size=    1065kB time=00:00:01.37 bitrate=6338.2kbits/s speed=0.339x    
[h264 @ 00000000005fe480] nal_unit_type: 1, nal_ref_idc: 0
[libx264 @ 00000000005abe00] frame=  36 QP=23.83 NAL=2 Slice:P Poc:32  I:5599 P:2191 SKIP:10   size=54597 bytes
[matroska @ 0000000003008040] Writing block at offset 638415, size 54597, pts 1627, dts 1418, duration 42, keyframe 0
Clipping frame in rate conversion by 0.007988
[h264 @ 00000000005cad80] nal_unit_type: 1, nal_ref_idc: 2
[libx264 @ 00000000005abe00] frame=  37 QP=24.04 NAL=2 Slice:B Poc:28  I:1037 P:4975 SKIP:1701 size=37761 bytes
[matroska @ 0000000003008040] Writing block at offset 693020, size 37761, pts 1543, dts 1460, duration 42, keyframe 0
Clipping frame in rate conversion by 0.000999
[h264 @ 00000000005cb4c0] nal_unit_type: 1, nal_ref_idc: 0
[libx264 @ 00000000005abe00] frame=  38 QP=24.37 NAL=0 Slice:B Poc:26  I:999  P:5600 SKIP:1098 size=39769 bytes
[matroska @ 0000000003008040] Writing block at offset 730789, size 39769, pts 1502, dts 1502, duration 42, keyframe 0
[h264 @ 00000000005fd8c0] nal_unit_type: 1, nal_ref_idc: 2
[libx264 @ 00000000005abe00] frame=  39 QP=24.28 NAL=0 Slice:B Poc:30  I:762  P:4073 SKIP:2852 size=27677 bytes
[matroska @ 0000000003008040] Writing block at offset 770566, size 27677, pts 1585, dts 1543, duration 42, keyframe 0
Clipping frame in rate conversion by 0.010979
[h264 @ 00000000005fdd40] nal_unit_type: 1, nal_ref_idc: 0
[libx264 @ 00000000005abe00] frame=  40 QP=24.50 NAL=2 Slice:P Poc:36  I:3697 P:3000 SKIP:1103 size=44048 bytes
[matroska @ 0000000003008040] Writing block at offset 798251, size 44048, pts 1710, dts 1585, duration 42, keyframe 0
Clipping frame in rate conversion by 0.003990
[h264 @ 00000000005fe480] nal_unit_type: 1, nal_ref_idc: 2
[libx264 @ 00000000005abe00] frame=  41 QP=24.28 NAL=0 Slice:B Poc:34  I:804  P:3781 SKIP:3100 size=26456 bytes
[matroska @ 0000000003008040] Writing block at offset 842307, size 26456, pts 1668, dts 1627, duration 42, keyframe 0
[h264 @ 00000000005cad80] nal_unit_type: 1, nal_ref_idc: 0
[libx264 @ 00000000005abe00] frame=  42 QP=24.75 NAL=2 Slice:P Poc:38  I:3536 P:4218 SKIP:46   size=45455 bytes
[matroska @ 0000000003008040] Writing block at offset 868771, size 45455, pts 1752, dts 1668, duration 42, keyframe 0
[libx264 @ 00000000005abe00] frame=  43 QP=22.11 NAL=2 Slice:I Poc:40  I:7800 P:0    SKIP:0    size=101310 bytes
[matroska @ 0000000003008040] Writing block at offset 914234, size 101310, pts 1793, dts 1710, duration 42, keyframe 0
[h264 @ 00000000005cb4c0] nal_unit_type: 1, nal_ref_idc: 2
frame=   94 fps= 20 q=28.0 size=    1065kB time=00:00:01.71 bitrate=5100.9kbits/s speed=0.366x    
Clipping frame in rate conversion by 0.006981
[h264 @ 00000000005fd8c0] nal_unit_type: 1, nal_ref_idc: 0
[libx264 @ 00000000005abe00] scene cut at 53 Icost:4355784 Pcost:3977501 ratio:0.0868 bias:0.1093 gop:30 (imb:6304 pmb:1130)
[libx264 @ 00000000005abe00] frame=  44 QP=25.39 NAL=2 Slice:P Poc:42  I:3601 P:4162 SKIP:37   size=52174 bytes
[matroska @ 0000000003008040] Writing block at offset 1015552, size 52174, pts 1835, dts 1752, duration 42, keyframe 0
frame=   95 fps= 13 q=28.0 size=    1065kB time=00:00:01.75 bitrate=4978.7kbits/s speed=0.238x    
[h264 @ 00000000005fdd40] nal_unit_type: 1, nal_ref_idc: 2
[libx264 @ 00000000005abe00] frame=  45 QP=25.07 NAL=2 Slice:P Poc:44  I:5897 P:1903 SKIP:0    size=63055 bytes
[matroska @ 0000000003008040] Writing block at offset 1067734, size 63055, pts 1877, dts 1793, duration 42, keyframe 0
[h264 @ 00000000005fe480] nal_unit_type: 1, nal_ref_idc: 0
[libx264 @ 00000000005abe00] frame=  46 QP=24.89 NAL=2 Slice:P Poc:46  I:5668 P:2128 SKIP:4    size=68138 bytes
[matroska @ 0000000003008040] Writing block at offset 1130797, size 68138, pts 1919, dts 1835, duration 42, keyframe 0
Clipping frame in rate conversion by 0.009972
[libx264 @ 00000000005abe00] frame=  47 QP=25.05 NAL=2 Slice:P Poc:48  I:4275 P:3375 SKIP:150  size=63956 bytes
[matroska @ 0000000003008040] Writing block at offset 1198943, size 63956, pts 1960, dts 1877, duration 42, keyframe 0
[h264 @ 00000000005cad80] nal_unit_type: 1, nal_ref_idc: 0
Clipping frame in rate conversion by 0.002983
[libx264 @ 00000000005abe00] frame=  48 QP=25.21 NAL=2 Slice:P Poc:50  I:4230 P:3491 SKIP:79   size=63004 bytes
[matroska @ 0000000003008040] Writing block at offset 1262907, size 63004, pts 2002, dts 1919, duration 42, keyframe 0
[h264 @ 00000000005cb4c0] nal_unit_type: 1, nal_ref_idc: 2
[h264 @ 00000000005fd8c0] nal_unit_type: 1, nal_ref_idc: 0
[libx264 @ 00000000005abe00] frame=  49 QP=25.66 NAL=2 Slice:P Poc:52  I:4379 P:3173 SKIP:248  size=69821 bytes
[matroska @ 0000000003008040] Writing block at offset 1325919, size 69821, pts 2044, dts 1960, duration 42, keyframe 0
[h264 @ 00000000005fdd40] nal_unit_type: 1, nal_ref_idc: 0
[libx264 @ 00000000005abe00] frame=  50 QP=25.85 NAL=2 Slice:P Poc:54  I:4940 P:2857 SKIP:3    size=75773 bytes
[matroska @ 0000000003008040] Writing block at offset 1395748, size 75773, pts 2085, dts 2002, duration 42, keyframe 0
Clipping frame in rate conversion by 0.005974
[h264 @ 00000000005fe480] nal_unit_type: 1, nal_ref_idc: 2
[libx264 @ 00000000005abe00] frame=  51 QP=25.93 NAL=2 Slice:P Poc:56  I:5371 P:2427 SKIP:2    size=74631 bytes
[matroska @ 0000000003008040] Writing block at offset 1471529, size 74631, pts 2127, dts 2044, duration 42, keyframe 0
frame=  102 fps= 13 q=28.0 size=    1065kB time=00:00:02.04 bitrate=4267.8kbits/s speed=0.257x    
[h264 @ 00000000005cad80] nal_unit_type: 1, nal_ref_idc: 0
[libx264 @ 00000000005abe00] frame=  52 QP=23.37 NAL=2 Slice:P Poc:58  I:6966 P:831  SKIP:3    size=114654 bytes
[matroska @ 0000000003008040] Writing block at offset 1546168, size 114654, pts 2169, dts 2085, duration 42, keyframe 0
[h264 @ 00000000005cb4c0] nal_unit_type: 1, nal_ref_idc: 2
[libx264 @ 00000000005abe00] frame=  53 QP=22.72 NAL=3 Slice:I Poc:0   I:7800 P:0    SKIP:0    size=144180 bytes
[matroska @ 0000000003008040] Starting new cluster at offset 2751807 bytes, pts 2252dts 2127
[matroska @ 0000000003008040] Writing block at offset 10, size 144180, pts 2252, dts 2127, duration 42, keyframe 1
Clipping frame in rate conversion by 0.008995
[libx264 @ 00000000005abe00] frame=  54 QP=25.31 NAL=2 Slice:P Poc:8   I:7397 P:403  SKIP:0    size=142335 bytes
[matroska @ 0000000003008040] Writing block at offset 144198, size 142335, pts 2419, dts 2169, duration 42, keyframe 0
[h264 @ 00000000005fd8c0] nal_unit_type: 1, nal_ref_idc: 0
Clipping frame in rate conversion by 0.001976
[libx264 @ 00000000005abe00] frame=  55 QP=26.24 NAL=2 Slice:B Poc:4   I:2639 P:3957 SKIP:878  size=61289 bytes
[matroska @ 0000000003008040] Writing block at offset 286541, size 61289, pts 2336, dts 2252, duration 42, keyframe 0
[h264 @ 00000000005fdd40] nal_unit_type: 1, nal_ref_idc: 0
[h264 @ 00000000005fe480] nal_unit_type: 1, nal_ref_idc: 2
[libx264 @ 00000000005abe00] frame=  56 QP=27.27 NAL=0 Slice:B Poc:2   I:2143 P:4550 SKIP:877  size=55424 bytes
[matroska @ 0000000003008040] Writing block at offset 347838, size 55424, pts 2294, dts 2294, duration 42, keyframe 0
[h264 @ 00000000005cad80] nal_unit_type: 1, nal_ref_idc: 0
[libx264 @ 00000000005abe00] frame=  57 QP=27.40 NAL=0 Slice:B Poc:6   I:1048 P:5330 SKIP:1277 size=47485 bytes
[matroska @ 0000000003008040] Writing block at offset 403270, size 47485, pts 2377, dts 2336, duration 42, keyframe 0
Clipping frame in rate conversion by 0.004997
[h264 @ 00000000005cb4c0] nal_unit_type: 1, nal_ref_idc: 0
[libx264 @ 00000000005abe00] frame=  58 QP=26.67 NAL=2 Slice:P Poc:16  I:4031 P:3630 SKIP:139  size=96957 bytes
[matroska @ 0000000003008040] Writing block at offset 450763, size 96957, pts 2586, dts 2377, duration 42, keyframe 0
[h264 @ 00000000005fd8c0] nal_unit_type: 1, nal_ref_idc: 2
[libx264 @ 00000000005abe00] frame=  59 QP=26.31 NAL=2 Slice:B Poc:12  I:1816 P:4929 SKIP:767  size=71486 bytes
[matroska @ 0000000003008040] Writing block at offset 547728, size 71486, pts 2503, dts 2419, duration 42, keyframe 0
frame=  110 fps= 13 q=28.0 size=    2687kB time=00:00:02.42 bitrate=9096.9kbits/s speed=0.282x    
[h264 @ 00000000005fdd40] nal_unit_type: 1, nal_ref_idc: 0
[libx264 @ 00000000005abe00] frame=  60 QP=27.44 NAL=0 Slice:B Poc:10  I:1395 P:4242 SKIP:1922 size=41062 bytes
[matroska @ 0000000003008040] Writing block at offset 619222, size 41062, pts 2461, dts 2461, duration 42, keyframe 0
Clipping frame in rate conversion by 0.007988
[h264 @ 00000000005fe480] nal_unit_type: 1, nal_ref_idc: 2
[libx264 @ 00000000005abe00] frame=  61 QP=27.83 NAL=0 Slice:B Poc:14  I:1622 P:4201 SKIP:1757 size=49969 bytes
[matroska @ 0000000003008040] Writing block at offset 660292, size 49969, pts 2544, dts 2503, duration 42, keyframe 0
Clipping frame in rate conversion by 0.000999
[h264 @ 00000000005cad80] nal_unit_type: 1, nal_ref_idc: 0
[libx264 @ 00000000005abe00] frame=  62 QP=26.39 NAL=2 Slice:P Poc:24  I:6016 P:1784 SKIP:0    size=139973 bytes
[matroska @ 0000000003008040] Writing block at offset 710269, size 139973, pts 2753, dts 2544, duration 42, keyframe 0
[h264 @ 00000000005cb4c0] nal_unit_type: 1, nal_ref_idc: 0
[libx264 @ 00000000005abe00] frame=  63 QP=27.42 NAL=2 Slice:B Poc:20  I:3244 P:4012 SKIP:247  size=94080 bytes
[matroska @ 0000000003008040] Writing block at offset 850250, size 94080, pts 2669, dts 2586, duration 42, keyframe 0
Clipping frame in rate conversion by 0.010979
[h264 @ 00000000005fd8c0] nal_unit_type: 1, nal_ref_idc: 2
[libx264 @ 00000000005abe00] frame=  64 QP=27.74 NAL=0 Slice:B Poc:18  I:2954 P:3856 SKIP:723  size=72362 bytes
[matroska @ 0000000003008040] Writing block at offset 944338, size 72362, pts 2628, dts 2628, duration 42, keyframe 0
Clipping frame in rate conversion by 0.003990
[h264 @ 00000000005fdd40] nal_unit_type: 1, nal_ref_idc: 0
[libx264 @ 00000000005abe00] frame=  65 QP=27.91 NAL=0 Slice:B Poc:22  I:2772 P:3800 SKIP:924  size=71384 bytes
[matroska @ 0000000003008040] Writing block at offset 1016708, size 71384, pts 2711, dts 2669, duration 42, keyframe 0
frame=  116 fps= 13 q=28.0 size=    2687kB time=00:00:02.67 bitrate=8245.1kbits/s speed=0.293x    
[h264 @ 00000000005fe480] nal_unit_type: 1, nal_ref_idc: 0
[libx264 @ 00000000005abe00] frame=  66 QP=27.55 NAL=2 Slice:P Poc:32  I:4531 P:3249 SKIP:20   size=108677 bytes
[matroska @ 0000000003008040] Writing block at offset 1088100, size 108677, pts 2920, dts 2711, duration 42, keyframe 0
[h264 @ 00000000005cad80] nal_unit_type: 1, nal_ref_idc: 2
[libx264 @ 00000000005abe00] frame=  67 QP=27.64 NAL=2 Slice:B Poc:28  I:2782 P:3939 SKIP:786  size=86864 bytes
[matroska @ 0000000003008040] Writing block at offset 1196785, size 86864, pts 2836, dts 2753, duration 42, keyframe 0
Clipping frame in rate conversion by 0.006981
[h264 @ 00000000005cb4c0] nal_unit_type: 1, nal_ref_idc: 0
[libx264 @ 00000000005abe00] frame=  68 QP=28.27 NAL=0 Slice:B Poc:26  I:2062 P:5085 SKIP:373  size=73580 bytes
[matroska @ 0000000003008040] Writing block at offset 1283657, size 73580, pts 2794, dts 2794, duration 42, keyframe 0
[h264 @ 00000000005fd8c0] nal_unit_type: 1, nal_ref_idc: 2
[libx264 @ 00000000005abe00] frame=  69 QP=28.46 NAL=0 Slice:B Poc:30  I:2496 P:3680 SKIP:1293 size=72634 bytes
[matroska @ 0000000003008040] Writing block at offset 1357245, size 72634, pts 2878, dts 2836, duration 42, keyframe 0
[h264 @ 00000000005fdd40] nal_unit_type: 1, nal_ref_idc: 0
[libx264 @ 00000000005abe00] frame=  70 QP=27.23 NAL=2 Slice:P Poc:40  I:6380 P:1419 SKIP:1    size=133955 bytes
[matroska @ 0000000003008040] Writing block at offset 1429887, size 133955, pts 3086, dts 2878, duration 42, keyframe 0
Clipping frame in rate conversion by 0.009972
[h264 @ 00000000005fe480] nal_unit_type: 1, nal_ref_idc: 2
[libx264 @ 00000000005abe00] frame=  71 QP=27.72 NAL=2 Slice:B Poc:36  I:4713 P:2703 SKIP:194  size=107811 bytes
[matroska @ 0000000003008040] Writing block at offset 1563850, size 107811, pts 3003, dts 2920, duration 42, keyframe 0
frame=  122 fps= 13 q=28.0 size=    2687kB time=00:00:02.92 bitrate=7536.6kbits/s speed=0.302x    
Clipping frame in rate conversion by 0.002983
[h264 @ 00000000005cad80] nal_unit_type: 1, nal_ref_idc: 0
[libx264 @ 00000000005abe00] frame=  72 QP=28.70 NAL=0 Slice:B Poc:34  I:2742 P:3953 SKIP:774  size=87238 bytes
[matroska @ 0000000003008040] Writing block at offset 1671669, size 87238, pts 2961, dts 2961, duration 42, keyframe 0
frame=  123 fps=7.0 q=28.0 size=    2687kB time=00:00:02.96 bitrate=7432.3kbits/s speed=0.168x    
[h264 @ 00000000005cb4c0] nal_unit_type: 1, nal_ref_idc: 0
[libx264 @ 00000000005abe00] frame=  73 QP=28.55 NAL=0 Slice:B Poc:38  I:3118 P:3726 SKIP:703  size=86088 bytes
[matroska @ 0000000003008040] Writing block at offset 1758915, size 86088, pts 3045, dts 3003, duration 42, keyframe 0
[libx264 @ 00000000005abe00] frame=  74 QP=27.09 NAL=2 Slice:P Poc:48  I:5688 P:2111 SKIP:1    size=120435 bytes
[matroska @ 0000000003008040] Writing block at offset 1845011, size 120435, pts 3253, dts 3045, duration 42, keyframe 0
[h264 @ 00000000005fd8c0] nal_unit_type: 1, nal_ref_idc: 2
Clipping frame in rate conversion by 0.005974
[h264 @ 00000000005fdd40] nal_unit_type: 1, nal_ref_idc: 0
[libx264 @ 00000000005abe00] frame=  75 QP=27.43 NAL=2 Slice:B Poc:44  I:3973 P:3076 SKIP:580  size=92655 bytes
[matroska @ 0000000003008040] Writing block at offset 1965454, size 92655, pts 3170, dts 3086, duration 42, keyframe 0
[h264 @ 00000000005fe480] nal_unit_type: 1, nal_ref_idc: 2
[libx264 @ 00000000005abe00] frame=  76 QP=28.24 NAL=0 Slice:B Poc:42  I:3035 P:3894 SKIP:592  size=78427 bytes
[matroska @ 0000000003008040] Writing block at offset 2058117, size 78427, pts 3128, dts 3128, duration 42, keyframe 0
[h264 @ 00000000005cad80] nal_unit_type: 1, nal_ref_idc: 0
[libx264 @ 00000000005abe00] frame=  77 QP=28.28 NAL=0 Slice:B Poc:46  I:2740 P:3866 SKIP:920  size=79196 bytes
[matroska @ 0000000003008040] Writing block at offset 2136552, size 79196, pts 3212, dts 3170, duration 42, keyframe 0
Clipping frame in rate conversion by 0.008995
[h264 @ 00000000005cb4c0] nal_unit_type: 1, nal_ref_idc: 2
[libx264 @ 00000000005abe00] frame=  78 QP=27.34 NAL=2 Slice:P Poc:56  I:5743 P:2056 SKIP:1    size=108723 bytes
[matroska @ 0000000003008040] Writing block at offset 2215756, size 108723, pts 3420, dts 3212, duration 42, keyframe 0
Clipping frame in rate conversion by 0.001976
[h264 @ 00000000005fd8c0] nal_unit_type: 1, nal_ref_idc: 0
[libx264 @ 00000000005abe00] frame=  79 QP=27.57 NAL=2 Slice:B Poc:52  I:4156 P:3270 SKIP:174  size=97134 bytes
[matroska @ 0000000003008040] Writing block at offset 2324487, size 97134, pts 3337, dts 3253, duration 42, keyframe 0
frame=  130 fps=7.1 q=28.0 size=    2687kB time=00:00:03.25 bitrate=6765.4kbits/s speed=0.179x    
[h264 @ 00000000005fdd40] nal_unit_type: 1, nal_ref_idc: 2
[libx264 @ 00000000005abe00] frame=  80 QP=28.43 NAL=0 Slice:B Poc:50  I:2717 P:3748 SKIP:1016 size=83584 bytes
[matroska @ 0000000003008040] Writing block at offset 2421629, size 83584, pts 3295, dts 3295, duration 42, keyframe 0
[h264 @ 00000000005fe480] nal_unit_type: 1, nal_ref_idc: 0
[libx264 @ 00000000005abe00] frame=  81 QP=28.35 NAL=0 Slice:B Poc:54  I:2986 P:3739 SKIP:809  size=81982 bytes
[matroska @ 0000000003008040] Writing block at offset 2505221, size 81982, pts 3378, dts 3337, duration 42, keyframe 0
Clipping frame in rate conversion by 0.004997
[h264 @ 00000000005cad80] nal_unit_type: 1, nal_ref_idc: 0
[libx264 @ 00000000005abe00] frame=  82 QP=26.81 NAL=2 Slice:P Poc:64  I:7313 P:487  SKIP:0    size=124516 bytes
[matroska @ 0000000003008040] Writing block at offset 2587211, size 124516, pts 3587, dts 3378, duration 42, keyframe 0
[h264 @ 00000000005cb4c0] nal_unit_type: 1, nal_ref_idc: 2
[libx264 @ 00000000005abe00] frame=  83 QP=27.62 NAL=2 Slice:B Poc:60  I:4296 P:3094 SKIP:271  size=94014 bytes
[matroska @ 0000000003008040] Writing block at offset 2711735, size 94014, pts 3504, dts 3420, duration 42, keyframe 0
[h264 @ 00000000005fd8c0] nal_unit_type: 1, nal_ref_idc: 0
[libx264 @ 00000000005abe00] frame=  84 QP=28.17 NAL=0 Slice:B Poc:58  I:3137 P:3249 SKIP:1163 size=78627 bytes
[matroska @ 0000000003008040] Writing block at offset 2805757, size 78627, pts 3462, dts 3462, duration 42, keyframe 0
Clipping frame in rate conversion by 0.007988
[h264 @ 00000000005fdd40] nal_unit_type: 1, nal_ref_idc: 0
[libx264 @ 00000000005abe00] frame=  85 QP=28.04 NAL=0 Slice:B Poc:62  I:3675 P:3312 SKIP:584  size=78893 bytes
[matroska @ 0000000003008040] Writing block at offset 2884392, size 78893, pts 3545, dts 3504, duration 42, keyframe 0
Clipping frame in rate conversion by 0.000999
[h264 @ 00000000005fe480] nal_unit_type: 1, nal_ref_idc: 2
[libx264 @ 00000000005abe00] frame=  86 QP=25.82 NAL=2 Slice:P Poc:72  I:7266 P:534  SKIP:0    size=124684 bytes
[matroska @ 0000000003008040] Writing block at offset 2963293, size 124684, pts 3754, dts 3545, duration 42, keyframe 0
frame=  137 fps=7.3 q=28.0 size=    2687kB time=00:00:03.54 bitrate=6208.3kbits/s speed=0.189x    
[h264 @ 00000000005cad80] nal_unit_type: 1, nal_ref_idc: 0
[libx264 @ 00000000005abe00] frame=  87 QP=27.11 NAL=2 Slice:B Poc:68  I:3946 P:3248 SKIP:481  size=78978 bytes
[matroska @ 0000000003008040] Writing block at offset 3087985, size 78978, pts 3670, dts 3587, duration 42, keyframe 0
Clipping frame in rate conversion by 0.010979
[h264 @ 00000000005cb4c0] nal_unit_type: 1, nal_ref_idc: 0
[libx264 @ 00000000005abe00] frame=  88 QP=27.95 NAL=0 Slice:B Poc:66  I:3213 P:3583 SKIP:830  size=66320 bytes
[matroska @ 0000000003008040] Writing block at offset 3166971, size 66320, pts 3629, dts 3629, duration 42, keyframe 0
Clipping frame in rate conversion by 0.003990
[h264 @ 00000000005fd8c0] nal_unit_type: 1, nal_ref_idc: 0
[libx264 @ 00000000005abe00] frame=  89 QP=27.64 NAL=0 Slice:B Poc:70  I:3118 P:3551 SKIP:974  size=60986 bytes
[matroska @ 0000000003008040] Writing block at offset 3233299, size 60986, pts 3712, dts 3670, duration 42, keyframe 0
[h264 @ 00000000005fdd40] nal_unit_type: 1, nal_ref_idc: 2
[libx264 @ 00000000005abe00] frame=  90 QP=25.32 NAL=2 Slice:P Poc:76  I:5713 P:2087 SKIP:0    size=81577 bytes
[matroska @ 0000000003008040] Writing block at offset 3294293, size 81577, pts 3837, dts 3712, duration 42, keyframe 0
[h264 @ 00000000005fe480] nal_unit_type: 1, nal_ref_idc: 0
[libx264 @ 00000000005abe00] frame=  91 QP=27.30 NAL=0 Slice:B Poc:74  I:1817 P:3550 SKIP:2315 size=43278 bytes
[matroska @ 0000000003008040] Writing block at offset 3375878, size 43278, pts 3795, dts 3754, duration 42, keyframe 0
frame=  142 fps=7.4 q=28.0 size=    2687kB time=00:00:03.75 bitrate=5862.7kbits/s speed=0.195x    
Clipping frame in rate conversion by 0.006981
[h264 @ 00000000005cad80] nal_unit_type: 1, nal_ref_idc: 0
[libx264 @ 00000000005abe00] frame=  92 QP=25.10 NAL=2 Slice:P Poc:80  I:5469 P:2331 SKIP:0    size=77771 bytes
[matroska @ 0000000003008040] Writing block at offset 3419164, size 77771, pts 3921, dts 3795, duration 42, keyframe 0
[libx264 @ 00000000005abe00] frame=  93 QP=27.32 NAL=0 Slice:B Poc:78  I:1585 P:4441 SKIP:1623 size=41854 bytes
[matroska @ 0000000003008040] Writing block at offset 3496943, size 41854, pts 3879, dts 3837, duration 42, keyframe 0
[libx264 @ 00000000005abe00] frame=  94 QP=24.49 NAL=2 Slice:P Poc:84  I:5518 P:2274 SKIP:8    size=77121 bytes
[matroska @ 0000000003008040] Writing block at offset 3538805, size 77121, pts 4004, dts 3879, duration 42, keyframe 0
Clipping frame in rate conversion by 0.009972
[libx264 @ 00000000005abe00] frame=  95 QP=26.85 NAL=0 Slice:B Poc:82  I:1203 P:4819 SKIP:1665 size=36684 bytes
[matroska @ 0000000003008040] Writing block at offset 3615934, size 36684, pts 3962, dts 3921, duration 42, keyframe 0
Clipping frame in rate conversion by 0.002983
[libx264 @ 00000000005abe00] frame=  96 QP=24.37 NAL=2 Slice:P Poc:92  I:3556 P:4240 SKIP:4    size=80735 bytes
[matroska @ 0000000003008040] Writing block at offset 3652626, size 80735, pts 4171, dts 3962, duration 42, keyframe 0
[libx264 @ 00000000005abe00] frame=  97 QP=25.47 NAL=2 Slice:B Poc:88  I:1990 P:4841 SKIP:760  size=46738 bytes
[matroska @ 0000000003008040] Writing block at offset 3733369, size 46738, pts 4087, dts 4004, duration 42, keyframe 0
[out_0_0 @ 000000000327fd40] EOF on sink link out_0_0:default.
No more output streams to write to, finishing.
[libx264 @ 00000000005abe00] frame=  98 QP=26.58 NAL=0 Slice:B Poc:86  I:747  P:5341 SKIP:1555 size=32859 bytes
[matroska @ 0000000003008040] Writing block at offset 3780115, size 32859, pts 4046, dts 4046, duration 42, keyframe 0
[libx264 @ 00000000005abe00] frame=  99 QP=26.16 NAL=0 Slice:B Poc:90  I:718  P:5096 SKIP:1828 size=31381 bytes
[matroska @ 0000000003008040] Writing block at offset 3812982, size 31381, pts 4129, dts 4087, duration 42, keyframe 0
[libx264 @ 00000000005abe00] frame= 100 QP=24.69 NAL=2 Slice:P Poc:100 I:2577 P:5137 SKIP:86   size=70540 bytes
[matroska @ 0000000003008040] Writing block at offset 3844371, size 70540, pts 4338, dts 4129, duration 42, keyframe 0
[libx264 @ 00000000005abe00] frame= 101 QP=25.88 NAL=2 Slice:B Poc:96  I:900  P:5373 SKIP:1326 size=37608 bytes
[matroska @ 0000000003008040] Writing block at offset 3914919, size 37608, pts 4254, dts 4171, duration 42, keyframe 0
[libx264 @ 00000000005abe00] frame= 102 QP=26.50 NAL=0 Slice:B Poc:94  I:540  P:5845 SKIP:1267 size=31143 bytes
[matroska @ 0000000003008040] Writing block at offset 3952535, size 31143, pts 4213, dts 4213, duration 42, keyframe 0
[libx264 @ 00000000005abe00] frame= 103 QP=26.11 NAL=0 Slice:B Poc:98  I:605  P:5101 SKIP:1929 size=28314 bytes
[matroska @ 0000000003008040] Writing block at offset 3983686, size 28314, pts 4296, dts 4254, duration 42, keyframe 0
[libx264 @ 00000000005abe00] frame= 104 QP=24.59 NAL=2 Slice:P Poc:108 I:2589 P:5035 SKIP:176  size=65522 bytes
[matroska @ 0000000003008040] Writing block at offset 4012008, size 65522, pts 4505, dts 4296, duration 42, keyframe 0
[libx264 @ 00000000005abe00] frame= 105 QP=25.83 NAL=2 Slice:B Poc:104 I:1455 P:4738 SKIP:1354 size=42185 bytes
[matroska @ 0000000003008040] Writing block at offset 4077538, size 42185, pts 4421, dts 4338, duration 42, keyframe 0
[libx264 @ 00000000005abe00] frame= 106 QP=26.43 NAL=0 Slice:B Poc:102 I:487  P:5537 SKIP:1553 size=30432 bytes
[matroska @ 0000000003008040] Writing block at offset 4119731, size 30432, pts 4379, dts 4379, duration 42, keyframe 0
[libx264 @ 00000000005abe00] frame= 107 QP=26.13 NAL=0 Slice:B Poc:106 I:608  P:5194 SKIP:1838 size=29291 bytes
[matroska @ 0000000003008040] Writing block at offset 4150171, size 29291, pts 4463, dts 4421, duration 42, keyframe 0
[libx264 @ 00000000005abe00] frame= 108 QP=24.59 NAL=2 Slice:P Poc:116 I:2114 P:5535 SKIP:151  size=77233 bytes
[matroska @ 0000000003008040] Writing block at offset 4179470, size 77233, pts 4671, dts 4463, duration 42, keyframe 0
[libx264 @ 00000000005abe00] frame= 109 QP=25.85 NAL=2 Slice:B Poc:112 I:1161 P:5233 SKIP:1092 size=43290 bytes
[matroska @ 0000000003008040] Writing block at offset 4256711, size 43290, pts 4588, dts 4505, duration 42, keyframe 0
[libx264 @ 00000000005abe00] frame= 110 QP=26.16 NAL=0 Slice:B Poc:110 I:718  P:5675 SKIP:1157 size=34918 bytes
[matroska @ 0000000003008040] Writing block at offset 4300009, size 34918, pts 4546, dts 4546, duration 42, keyframe 0
[libx264 @ 00000000005abe00] frame= 111 QP=26.25 NAL=0 Slice:B Poc:114 I:589  P:5595 SKIP:1406 size=31699 bytes
[matroska @ 0000000003008040] Writing block at offset 4334935, size 31699, pts 4630, dts 4588, duration 42, keyframe 0
[libx264 @ 00000000005abe00] frame= 112 QP=24.52 NAL=2 Slice:P Poc:124 I:1980 P:5657 SKIP:163  size=67239 bytes
[matroska @ 0000000003008040] Writing block at offset 4366642, size 67239, pts 4838, dts 4630, duration 42, keyframe 0
[libx264 @ 00000000005abe00] frame= 113 QP=25.72 NAL=2 Slice:B Poc:120 I:1079 P:5457 SKIP:960  size=40157 bytes
[matroska @ 0000000003008040] Writing block at offset 4433889, size 40157, pts 4755, dts 4671, duration 42, keyframe 0
[libx264 @ 00000000005abe00] frame= 114 QP=26.42 NAL=0 Slice:B Poc:118 I:439  P:5521 SKIP:1640 size=31100 bytes
[matroska @ 0000000003008040] Writing block at offset 4474054, size 31100, pts 4713, dts 4713, duration 42, keyframe 0
[libx264 @ 00000000005abe00] frame= 115 QP=26.18 NAL=0 Slice:B Poc:122 I:350  P:5532 SKIP:1767 size=26054 bytes
[matroska @ 0000000003008040] Writing block at offset 4505162, size 26054, pts 4796, dts 4755, duration 42, keyframe 0
[libx264 @ 00000000005abe00] frame= 116 QP=24.98 NAL=2 Slice:P Poc:132 I:2140 P:5448 SKIP:212  size=60089 bytes
[matroska @ 0000000003008040] Writing block at offset 4531224, size 60089, pts 5005, dts 4796, duration 42, keyframe 0
[libx264 @ 00000000005abe00] frame= 117 QP=25.88 NAL=2 Slice:B Poc:128 I:1184 P:5260 SKIP:1157 size=37707 bytes
[matroska @ 0000000003008040] Writing block at offset 4591321, size 37707, pts 4922, dts 4838, duration 42, keyframe 0
[libx264 @ 00000000005abe00] frame= 118 QP=26.24 NAL=0 Slice:B Poc:126 I:561  P:5408 SKIP:1681 size=29898 bytes
[matroska @ 0000000003008040] Writing block at offset 4629036, size 29898, pts 4880, dts 4880, duration 42, keyframe 0
[libx264 @ 00000000005abe00] frame= 119 QP=26.63 NAL=0 Slice:B Poc:130 I:745  P:5108 SKIP:1741 size=30261 bytes
[matroska @ 0000000003008040] Writing block at offset 4658942, size 30261, pts 4963, dts 4922, duration 42, keyframe 0
[libx264 @ 00000000005abe00] frame= 120 QP=25.27 NAL=2 Slice:P Poc:140 I:2099 P:5366 SKIP:335  size=58123 bytes
[matroska @ 0000000003008040] Writing block at offset 4689211, size 58123, pts 5172, dts 4963, duration 42, keyframe 0
[libx264 @ 00000000005abe00] frame= 121 QP=25.73 NAL=2 Slice:B Poc:136 I:1215 P:4969 SKIP:1370 size=39528 bytes
[matroska @ 0000000003008040] Writing block at offset 4747342, size 39528, pts 5088, dts 5005, duration 42, keyframe 0
[libx264 @ 00000000005abe00] frame= 122 QP=26.63 NAL=0 Slice:B Poc:134 I:653  P:5063 SKIP:1901 size=30039 bytes
[matroska @ 0000000003008040] Writing block at offset 4786878, size 30039, pts 5047, dts 5047, duration 42, keyframe 0
[libx264 @ 00000000005abe00] frame= 123 QP=26.39 NAL=0 Slice:B Poc:138 I:430  P:5212 SKIP:2007 size=26925 bytes
[matroska @ 0000000003008040] Writing block at offset 4816925, size 26925, pts 5130, dts 5088, duration 42, keyframe 0
[libx264 @ 00000000005abe00] frame= 124 QP=24.87 NAL=2 Slice:P Poc:144 I:2228 P:4995 SKIP:577  size=49215 bytes
[matroska @ 0000000003008040] Writing block at offset 4843858, size 49215, pts 5255, dts 5130, duration 42, keyframe 0
[libx264 @ 00000000005abe00] frame= 125 QP=26.55 NAL=0 Slice:B Poc:142 I:481  P:5232 SKIP:1915 size=28136 bytes
[matroska @ 0000000003008040] Writing block at offset 4893081, size 28136, pts 5214, dts 5172, duration 42, keyframe 0
[libx264 @ 00000000005abe00] frame= 126 QP=25.11 NAL=2 Slice:P Poc:152 I:3391 P:4224 SKIP:185  size=66765 bytes
[matroska @ 0000000003008040] Writing block at offset 4921225, size 66765, pts 5422, dts 5214, duration 42, keyframe 0
[libx264 @ 00000000005abe00] frame= 127 QP=25.41 NAL=2 Slice:B Poc:148 I:1770 P:4884 SKIP:904  size=46712 bytes
[matroska @ 0000000003008040] Writing block at offset 4987998, size 46712, pts 5339, dts 5255, duration 42, keyframe 0
[libx264 @ 00000000005abe00] frame= 128 QP=26.16 NAL=0 Slice:B Poc:146 I:630  P:5631 SKIP:1348 size=34284 bytes
[matroska @ 0000000003008040] Writing block at offset 5034718, size 34284, pts 5297, dts 5297, duration 42, keyframe 0
[libx264 @ 00000000005abe00] frame= 129 QP=26.22 NAL=0 Slice:B Poc:150 I:1014 P:5187 SKIP:1381 size=37204 bytes
[matroska @ 0000000003008040] Writing block at offset 5069010, size 37204, pts 5380, dts 5339, duration 42, keyframe 0
[libx264 @ 00000000005abe00] frame= 130 QP=24.95 NAL=2 Slice:P Poc:158 I:2588 P:5107 SKIP:105  size=65761 bytes
[matroska @ 0000000003008040] Writing block at offset 5106222, size 65761, pts 5547, dts 5380, duration 42, keyframe 0
[libx264 @ 00000000005abe00] frame= 131 QP=26.06 NAL=2 Slice:B Poc:154 I:1561 P:4544 SKIP:1494 size=41275 bytes
[matroska @ 0000000003008040] Writing block at offset 5171991, size 41275, pts 5464, dts 5422, duration 42, keyframe 0
[libx264 @ 00000000005abe00] frame= 132 QP=26.47 NAL=0 Slice:B Poc:156 I:1027 P:5135 SKIP:1431 size=36375 bytes
[matroska @ 0000000003008040] Writing block at offset 5213274, size 36375, pts 5506, dts 5464, duration 42, keyframe 0
[libx264 @ 00000000005abe00] frame= 133 QP=24.76 NAL=2 Slice:P Poc:166 I:1839 P:5774 SKIP:187  size=61587 bytes
[matroska @ 0000000003008040] Starting new cluster at offset 8001476 bytes, pts 5714dts 5506
[matroska @ 0000000003008040] Writing block at offset 10, size 61587, pts 5714, dts 5506, duration 42, keyframe 0
[libx264 @ 00000000005abe00] frame= 134 QP=25.79 NAL=2 Slice:B Poc:162 I:1218 P:4958 SKIP:1402 size=41126 bytes
[matroska @ 0000000003008040] Writing block at offset 61605, size 41126, pts 5631, dts 5547, duration 42, keyframe 0
[libx264 @ 00000000005abe00] frame= 135 QP=26.35 NAL=0 Slice:B Poc:160 I:1087 P:4819 SKIP:1700 size=33967 bytes
[matroska @ 0000000003008040] Writing block at offset 102739, size 33967, pts 5589, dts 5589, duration 42, keyframe 0
[libx264 @ 00000000005abe00] frame= 136 QP=26.32 NAL=0 Slice:B Poc:164 I:644  P:5320 SKIP:1673 size=32839 bytes
[matroska @ 0000000003008040] Writing block at offset 136714, size 32839, pts 5672, dts 5631, duration 42, keyframe 0
[libx264 @ 00000000005abe00] frame= 137 QP=24.74 NAL=2 Slice:P Poc:174 I:1398 P:6109 SKIP:293  size=52351 bytes
[matroska @ 0000000003008040] Writing block at offset 169561, size 52351, pts 5881, dts 5672, duration 42, keyframe 0
[libx264 @ 00000000005abe00] frame= 138 QP=25.75 NAL=2 Slice:B Poc:170 I:693  P:5563 SKIP:1322 size=35062 bytes
[matroska @ 0000000003008040] Writing block at offset 221920, size 35062, pts 5797, dts 5714, duration 42, keyframe 0
[libx264 @ 00000000005abe00] frame= 139 QP=26.39 NAL=0 Slice:B Poc:168 I:560  P:5607 SKIP:1472 size=29218 bytes
[matroska @ 0000000003008040] Writing block at offset 256990, size 29218, pts 5756, dts 5756, duration 42, keyframe 0
[libx264 @ 00000000005abe00] frame= 140 QP=26.28 NAL=0 Slice:B Poc:172 I:371  P:5399 SKIP:1863 size=27069 bytes
[matroska @ 0000000003008040] Writing block at offset 286216, size 27069, pts 5839, dts 5797, duration 42, keyframe 0
[libx264 @ 00000000005abe00] frame= 141 QP=25.20 NAL=2 Slice:P Poc:182 I:1209 P:5946 SKIP:645  size=44905 bytes
[matroska @ 0000000003008040] Writing block at offset 313293, size 44905, pts 6048, dts 5839, duration 42, keyframe 0
[libx264 @ 00000000005abe00] frame= 142 QP=25.89 NAL=2 Slice:B Poc:178 I:674  P:5804 SKIP:1153 size=34385 bytes
[matroska @ 0000000003008040] Writing block at offset 358206, size 34385, pts 5964, dts 5881, duration 42, keyframe 0
[libx264 @ 00000000005abe00] frame= 143 QP=26.06 NAL=0 Slice:B Poc:176 I:485  P:5252 SKIP:1927 size=28811 bytes
[matroska @ 0000000003008040] Writing block at offset 392599, size 28811, pts 5923, dts 5923, duration 42, keyframe 0
[libx264 @ 00000000005abe00] frame= 144 QP=26.34 NAL=0 Slice:B Poc:180 I:443  P:5752 SKIP:1470 size=28805 bytes
[matroska @ 0000000003008040] Writing block at offset 421418, size 28805, pts 6006, dts 5964, duration 42, keyframe 0
[libx264 @ 00000000005abe00] frame= 145 QP=26.43 NAL=2 Slice:P Poc:188 I:1055 P:5353 SKIP:1392 size=37389 bytes
[matroska @ 0000000003008040] Writing block at offset 450231, size 37389, pts 6173, dts 6006, duration 42, keyframe 0
[libx264 @ 00000000005abe00] frame= 146 QP=25.87 NAL=2 Slice:B Poc:184 I:367  P:5435 SKIP:1873 size=28904 bytes
[matroska @ 0000000003008040] Writing block at offset 487628, size 28904, pts 6089, dts 6048, duration 42, keyframe 0
[libx264 @ 00000000005abe00] frame= 147 QP=26.44 NAL=0 Slice:B Poc:186 I:264  P:5833 SKIP:1536 size=29005 bytes
[matroska @ 0000000003008040] Writing block at offset 516540, size 29005, pts 6131, dts 6089, duration 42, keyframe 0
[matroska @ 0000000003008040] end duration = 6215
[matroska @ 0000000003008040] stream 0 end duration = 6215
frame=  148 fps=6.5 q=-1.0 Lsize=    8347kB time=00:00:06.09 bitrate=11227.7kbits/s speed=0.267x    
video:8344kB audio:0kB subtitle:0kB other streams:0kB global headers:0kB muxing overhead: 0.029094%
Input file #0 (ffmpeg H.264 decoding bug blocking.mkv):
  Input stream #0:0 (video): 149 packets read (17286498 bytes); 148 frames decoded; 
  Total: 149 packets (17286498 bytes) demuxed
Output file #0 (output.mkv):
  Output stream #0:0 (video): 148 frames encoded; 148 packets muxed (8544628 bytes); 
  Total: 148 packets (8544628 bytes) muxed
148 frames successfully decoded, 1 decoding errors
[AVIOContext @ 00000000005acdc0] Statistics: 22 seeks, 50 writeouts
[libx264 @ 00000000005abe00] frame I:8     Avg QP:20.80  size: 75469
[libx264 @ 00000000005abe00] frame P:65    Avg QP:24.79  size: 66102
[libx264 @ 00000000005abe00] frame B:75    Avg QP:26.53  size: 48581
[libx264 @ 00000000005abe00] consecutive B-frames: 28.4% 10.8%  4.1% 56.8%
[libx264 @ 00000000005abe00] mb I  I16..4: 17.0% 75.3%  7.7%
[libx264 @ 00000000005abe00] mb P  I16..4:  5.7% 48.4%  4.9%  P16..4: 28.3%  5.7%  3.5%  0.0%  0.0%    skip: 3.5%
[libx264 @ 00000000005abe00] mb B  I16..4:  1.2% 15.7%  3.5%  B16..8: 41.3%  8.1%  1.6%  direct:10.8%  skip:17.7%  L0:47.8% L1:43.9% BI: 8.3%
[libx264 @ 00000000005abe00] 8x8 transform intra:79.9% inter:74.0%
[libx264 @ 00000000005abe00] coded y,uvDC,uvAC intra: 72.4% 79.1% 36.1% inter: 41.7% 50.9% 1.1%
[libx264 @ 00000000005abe00] i16 v,h,dc,p: 35% 20% 12% 33%
[libx264 @ 00000000005abe00] i8 v,h,dc,ddl,ddr,vr,hd,vl,hu: 15% 15% 24%  7%  8%  8%  8%  7%  8%
[libx264 @ 00000000005abe00] i4 v,h,dc,ddl,ddr,vr,hd,vl,hu: 21% 18% 14%  7% 11%  9%  9%  6%  7%
[libx264 @ 00000000005abe00] i8c dc,h,v,p: 52% 22% 20%  6%
[libx264 @ 00000000005abe00] Weighted P-Frames: Y:33.8% UV:30.8%
[libx264 @ 00000000005abe00] ref P L0: 42.7% 14.0% 26.6% 15.4%  1.4%
[libx264 @ 00000000005abe00] ref B L0: 83.5% 12.6%  3.9%
[libx264 @ 00000000005abe00] ref B L1: 94.4%  5.6%
[libx264 @ 00000000005abe00] kb/s:10998.64
[AVIOContext @ 00000000005ad700] Statistics: 17321429 bytes read, 2 seeks

Attachments (1)

Change History (3)

comment:1 Changed 4 months ago by cehoyos

  • Component changed from ffmpeg to avcodec
  • Keywords h264 regression added
  • Priority changed from normal to important
  • Status changed from new to open

Changed 4 months ago by cehoyos

comment:2 Changed 4 months ago by cehoyos

  • Reproduced by developer set
Note: See TracTickets for help on using tickets.