Changes between Version 1 and Version 2 of Ticket #655, comment 2


Ignore:
Timestamp:
Nov 18, 2011, 10:10:48 AM (5 years ago)
Author:
qrtt1
Comment:

Legend:

Unmodified
Added
Removed
Modified
  • Ticket #655, comment 2

    v1 v2  
    11I am sorry. I don't how to get gdb bt from Android Phone. However, crashing don't happen to x86. 
    22And, the problem can be reproduced to play it for minutes. It awlays happens. 
     3 
     4 
     5{{{ 
     6qty:~ qrtt1$ ffplay mmsh://72.13.93.186/campcartoon 
     7ffplay version git-2011-09-05-6f8b1fc, Copyright (c) 2003-2011 the FFmpeg developers 
     8  built on Oct 14 2011 14:48:51 with gcc 4.2.1 (Apple Inc. build 5666) (dot 3) 
     9  configuration: --disable-doc --disable-ffserver --disable-avdevice --disable-postproc --disable-avfilter --disable-bsfs --disable-filters --disable-asm --disable-bzlib --disable-zlib --prefix=/opt/ffmpeg 
     10  libavutil    51. 16. 0 / 51. 16. 0 
     11  libavcodec   53. 13. 0 / 53. 13. 0 
     12  libavformat  53. 11. 0 / 53. 11. 0 
     13  libswscale    2.  1. 0 /  2.  1. 0 
     14[asf @ 0x101068800] parser not found for codec wmav2, packets or times may be invalid. 
     15[asf @ 0x101068800] max_analyze_duration 5000000 reached at 5120000 
     16[asf @ 0x101068800] Estimating duration from bitrate, this may be inaccurate 
     17Input #0, asf, from 'mmsh://72.13.93.186/campcartoon': 
     18  Metadata: 
     19    WMFSDKVersion   : 11.0.6001.7001 
     20    WMFSDKNeeded    : 0.0.0.0000 
     21    IsVBR           : 0 
     22  Duration: N/A, start: 12.128000, bitrate: 245 kb/s 
     23    Stream #0.0(eng): Audio: wmav2 (a[1][0][0] / 0x0161), 16000 Hz, 1 channels, s16, 12 kb/s 
     24    Stream #0.1(eng): Video: vc1 (Advanced) (WVC1 / 0x31435657), yuv420p, 400x300 [SAR 1:1 DAR 4:3], 233 kb/s, 8 tbr, 1k tbn, 16 tbc 
     25[swscaler @ 0x101827c00] bad src image pointers 
     26    Last message repeated 2 times8KB vq=  256KB sq=    0B f=0/0     0B f=0/0    
     27[asf @ 0x101068800] ff asf bad header 0  at:448652 
     28[asf @ 0x101068800] ff asf skip 1435 (unknown stream) 
     29[asf @ 0x101068800] ff asf bad header a2  at:450096 
     30[asf @ 0x101068800] ff asf bad non zero 
     31[asf @ 0x101068800] ff asf bad header 53  at:450102 
     32[asf @ 0x101068800] packet_obj_size invalid 
     33[asf @ 0x101068800] ff asf bad header ec  at:497688    0B f=0/0    
     34[asf @ 0x101068800] invalid packet_length -1754004827 at:497694 
     35[asf @ 0x101068800] ff asf bad header 22  at:545180    0B f=0/0    
     36[asf @ 0x101068800] ff asf skip 121 (unknown stream) 
     37[asf @ 0x101068800] freeing incomplete packet size 1560, new 2737 
     38[vc1 @ 0x10181b800] Bits overconsumption: 42587 > 425680B f=1/0    
     39[vc1 @ 0x10181b800] concealing 332 DC, 332 AC, 332 MV errors 
     40[vc1 @ 0x10181b800] Bits overconsumption: 20078 > 200720B f=1/0    
     41[vc1 @ 0x10181b800] concealing 419 DC, 419 AC, 419 MV errors 
     42[vc1 @ 0x10181b800] Bits overconsumption: 15465 > 15456 at 25x3    
     43[vc1 @ 0x10181b800] concealing 374 DC, 374 AC, 374 MV errors 
     44[vc1 @ 0x10181b800] Bits overconsumption: 19816 > 19784 at 6x50    
     45[vc1 @ 0x10181b800] concealing 343 DC, 343 AC, 343 MV errors 
     46[vc1 @ 0x10181b800] Bits overconsumption: 19113 > 19104 at 5x8 
     47[vc1 @ 0x10181b800] concealing 269 DC, 269 AC, 269 MV errors 
     48[vc1 @ 0x10181b800] Bits overconsumption: 14414 > 144000B f=1/0    
     49[vc1 @ 0x10181b800] concealing 321 DC, 321 AC, 321 MV errors 
     50[vc1 @ 0x10181b800] Bits overconsumption: 17859 > 17824 at 9x40    
     51[vc1 @ 0x10181b800] concealing 365 DC, 365 AC, 365 MV errors 
     52[vc1 @ 0x10181b800] Bits overconsumption: 14729 > 14704 at 14x3    
     53[vc1 @ 0x10181b800] concealing 385 DC, 385 AC, 385 MV errors 
     54[vc1 @ 0x10181b800] Bits overconsumption: 18992 > 189840B f=1/0    
     55}}}