Changes between Initial Version and Version 1 of Ticket #6006, comment 2


Ignore:
Timestamp:
Dec 11, 2016, 11:44:34 AM (3 years ago)
Author:
Misaki
Comment:

Legend:

Unmodified
Added
Removed
Modified
  • Ticket #6006, comment 2

    initial v1  
    11{{{
    2  ffmpeg -filter_complex testsrc=rate=30,settb=1/1000,setpts=PTS+18,showinfo,fps=15,showinfo -t 0.2 -f null -
    3 ffmpeg version 2.7.6-0ubuntu0.15.10.1 Copyright (c) 2000-2016 the FFmpeg developers
    4   built with gcc 5.2.1 (Ubuntu 5.2.1-22ubuntu2) 20151010
    5   configuration: --prefix=/usr --extra-version=0ubuntu0.15.10.1 --build-suffix=-ffmpeg --toolchain=hardened --libdir=/usr/lib/x86_64-linux-gnu --incdir=/usr/include/x86_64-linux-gnu --enable-gpl --enable-shared --disable-stripping --enable-avresample --enable-avisynth --enable-frei0r --enable-gnutls --enable-ladspa --enable-libass --enable-libbluray --enable-libbs2b --enable-libcaca --enable-libcdio --enable-libflite --enable-libfontconfig --enable-libfreetype --enable-libfribidi --enable-libgme --enable-libgsm --enable-libmodplug --enable-libmp3lame --enable-libopenjpeg --enable-openal --enable-libopus --enable-libpulse --enable-librtmp --enable-libschroedinger --enable-libshine --enable-libspeex --enable-libtheora --enable-libtwolame --enable-libvorbis --enable-libvpx --enable-libwavpack --enable-libwebp --enable-libxvid --enable-libzvbi --enable-opengl --enable-x11grab --enable-libdc1394 --enable-libiec61883 --enable-libzmq --enable-libssh --enable-libsoxr --enable-libx264 --enable-libopencv --enable-libx265
    6   libavutil      54. 27.100 / 54. 27.100
    7   libavcodec     56. 41.100 / 56. 41.100
    8   libavformat    56. 36.100 / 56. 36.100
    9   libavdevice    56.  4.100 / 56.  4.100
    10   libavfilter     5. 16.101 /  5. 16.101
    11   libavresample   2.  1.  0 /  2.  1.  0
    12   libswscale      3.  1.101 /  3.  1.101
    13   libswresample   1.  2.100 /  1.  2.100
    14   libpostproc    53.  3.100 / 53.  3.100
    15 [Parsed_showinfo_3 @ 0x16878a0] config in time_base: 1/1000, frame_rate: 30/1
    16 [Parsed_showinfo_3 @ 0x16878a0] config out time_base: 0/0, frame_rate: 0/0
    17 [Parsed_showinfo_5 @ 0x1688b40] config in time_base: 1/15, frame_rate: 15/1
    18 [Parsed_showinfo_5 @ 0x1688b40] config out time_base: 0/0, frame_rate: 0/0
     2 software/ffmpeg/ffmpeg -filter_complex testsrc=rate=30,settb=1/1000,setpts=PTS+18,showinfo,fps=15,showinfo -t 0.2 -f null -
     3ffmpeg version N-82759-g1f5630a-static http://johnvansickle.com/ffmpeg/  Copyright (c) 2000-2016 the FFmpeg developers
     4  built with gcc 5.4.1 (Debian 5.4.1-4) 20161202
     5  configuration: --enable-gpl --enable-version3 --enable-static --disable-debug --disable-ffplay --disable-indev=sndio --disable-outdev=sndio --cc=gcc-5 --enable-fontconfig --enable-frei0r --enable-gnutls --enable-gray --enable-libass --enable-libfreetype --enable-libfribidi --enable-libmp3lame --enable-libopencore-amrnb --enable-libopencore-amrwb --enable-libopenjpeg --enable-libopus --enable-librtmp --enable-libsoxr --enable-libspeex --enable-libtheora --enable-libvidstab --enable-libvo-amrwbenc --enable-libvorbis --enable-libvpx --enable-libwebp --enable-libx264 --enable-libx265 --enable-libxvid --enable-libzimg
     6  libavutil      55. 41.101 / 55. 41.101
     7  libavcodec     57. 66.109 / 57. 66.109
     8  libavformat    57. 58.101 / 57. 58.101
     9  libavdevice    57.  2.100 / 57.  2.100
     10  libavfilter     6. 68.100 /  6. 68.100
     11  libswscale      4.  3.101 /  4.  3.101
     12  libswresample   2.  4.100 /  2.  4.100
     13  libpostproc    54.  2.100 / 54.  2.100
     14[Parsed_showinfo_3 @ 0x3b6e940] config in time_base: 1/1000, frame_rate: 30/1
     15[Parsed_showinfo_3 @ 0x3b6e940] config out time_base: 0/0, frame_rate: 0/0
     16[Parsed_showinfo_5 @ 0x3b6fd40] config in time_base: 1/15, frame_rate: 15/1
     17[Parsed_showinfo_5 @ 0x3b6fd40] config out time_base: 0/0, frame_rate: 0/0
    1918Output #0, null, to 'pipe:':
    2019  Metadata:
    21     encoder         : Lavf56.36.100
    22     Stream #0:0: Video: rawvideo (RGB[24] / 0x18424752), rgb24, 320x240 [SAR 1:1 DAR 4:3], q=2-31, 200 kb/s, 15 fps, 15 tbn, 15 tbc (default)
     20    encoder         : Lavf57.58.101
     21    Stream #0:0: Video: wrapped_avframe, rgb24, 320x240 [SAR 1:1 DAR 4:3], q=2-31, 200 kb/s, 15 fps, 15 tbn, 15 tbc (default)
    2322    Metadata:
    24       encoder         : Lavc56.41.100 rawvideo
     23      encoder         : Lavc57.66.109 wrapped_avframe
    2524Stream mapping:
    26   showinfo -> Stream #0:0 (rawvideo)
     25  showinfo -> Stream #0:0 (wrapped_avframe)
    2726Press [q] to stop, [?] for help
    28 [Parsed_showinfo_3 @ 0x16878a0] n:   0 pts:     18 pts_time:0.018   pos:       -1 fmt:rgb24 sar:1/1 s:320x240 i:P iskey:1 type:I checksum:88C4D19A plane_checksum:[88C4D19A] mean:[127] stdev:[125.7]
    29 [Parsed_showinfo_3 @ 0x16878a0] n:   1 pts:     51 pts_time:0.051   pos:       -1 fmt:rgb24 sar:1/1 s:320x240 i:P iskey:1 type:I checksum:FD48FF60 plane_checksum:[FD48FF60] mean:[127] stdev:[125.7]
    30 [Parsed_showinfo_3 @ 0x16878a0] n:   2 pts:     85 pts_time:0.085   pos:       -1 fmt:rgb24 sar:1/1 s:320x240 i:P iskey:1 type:I checksum:5BBC2F63 plane_checksum:[5BBC2F63] mean:[127] stdev:[125.7]
    31 [Parsed_showinfo_5 @ 0x1688b40] n:   0 pts:      0 pts_time:0       pos:       -1 fmt:rgb24 sar:1/1 s:320x240 i:P iskey:1 type:I checksum:FD48FF60 plane_checksum:[FD48FF60] mean:[127] stdev:[125.7]
    32 [null @ 0x1689100] Encoder did not produce proper pts, making some up.
    33 [Parsed_showinfo_3 @ 0x16878a0] n:   3 pts:    118 pts_time:0.118   pos:       -1 fmt:rgb24 sar:1/1 s:320x240 i:P iskey:1 type:I checksum:39A855A7 plane_checksum:[39A855A7] mean:[127] stdev:[125.7]
    34 [Parsed_showinfo_5 @ 0x1688b40] n:   1 pts:      1 pts_time:0.0666667 pos:       -1 fmt:rgb24 sar:1/1 s:320x240 i:P iskey:1 type:I checksum:5BBC2F63 plane_checksum:[5BBC2F63] mean:[127] stdev:[125.7]
    35 [Parsed_showinfo_3 @ 0x16878a0] n:   4 pts:    151 pts_time:0.151   pos:       -1 fmt:rgb24 sar:1/1 s:320x240 i:P iskey:1 type:I checksum:6B3D7C29 plane_checksum:[6B3D7C29] mean:[128] stdev:[125.7]
    36 [Parsed_showinfo_3 @ 0x16878a0] n:   5 pts:    185 pts_time:0.185   pos:       -1 fmt:rgb24 sar:1/1 s:320x240 i:P iskey:1 type:I checksum:7E969AAD plane_checksum:[7E969AAD] mean:[128] stdev:[125.7]
    37 [Parsed_showinfo_5 @ 0x1688b40] n:   2 pts:      2 pts_time:0.133333 pos:       -1 fmt:rgb24 sar:1/1 s:320x240 i:P iskey:1 type:I checksum:6B3D7C29 plane_checksum:[6B3D7C29] mean:[128] stdev:[125.7]
    38 [Parsed_showinfo_3 @ 0x16878a0] n:   6 pts:    218 pts_time:0.218   pos:       -1 fmt:rgb24 sar:1/1 s:320x240 i:P iskey:1 type:I checksum:0930B896 plane_checksum:[0930B896] mean:[128] stdev:[125.6]
    39 [Parsed_showinfo_3 @ 0x16878a0] n:   7 pts:    251 pts_time:0.251   pos:       -1 fmt:rgb24 sar:1/1 s:320x240 i:P iskey:1 type:I checksum:CED6CEBF plane_checksum:[CED6CEBF] mean:[128] stdev:[125.6]
    40 [Parsed_showinfo_3 @ 0x16878a0] n:   8 pts:    285 pts_time:0.285   pos:       -1 fmt:rgb24 sar:1/1 s:320x240 i:P iskey:1 type:I checksum:3F25E3D1 plane_checksum:[3F25E3D1] mean:[128] stdev:[125.6]
    41 [Parsed_showinfo_5 @ 0x1688b40] n:   3 pts:      3 pts_time:0.2     pos:       -1 fmt:rgb24 sar:1/1 s:320x240 i:P iskey:1 type:I checksum:CED6CEBF plane_checksum:[CED6CEBF] mean:[128] stdev:[125.6]
    42 frame=    3 fps=0.0 q=0.0 Lsize=N/A time=00:00:00.20 bitrate=N/A   
    43 video:0kB audio:0kB subtitle:0kB other streams:0kB global headers:0kB muxing overhead: unknown
     27[Parsed_showinfo_3 @ 0x3b6e940] n:   0 pts:     18 pts_time:0.018   pos:       -1 fmt:rgb24 sar:1/1 s:320x240 i:P iskey:1 type:I checksum:88C4D19A plane_checksum:[88C4D19A] mean:[127] stdev:[125.7]
     28[Parsed_showinfo_3 @ 0x3b6e940] n:   1 pts:     51 pts_time:0.051   pos:       -1 fmt:rgb24 sar:1/1 s:320x240 i:P iskey:1 type:I checksum:FD48FF60 plane_checksum:[FD48FF60] mean:[127] stdev:[125.7]
     29[Parsed_showinfo_3 @ 0x3b6e940] n:   2 pts:     85 pts_time:0.085   pos:       -1 fmt:rgb24 sar:1/1 s:320x240 i:P iskey:1 type:I checksum:5BBC2F63 plane_checksum:[5BBC2F63] mean:[127] stdev:[125.7]
     30[Parsed_showinfo_5 @ 0x3b6fd40] n:   0 pts:      0 pts_time:0       pos:       -1 fmt:rgb24 sar:1/1 s:320x240 i:P iskey:1 type:I checksum:FD48FF60 plane_checksum:[FD48FF60] mean:[127] stdev:[125.7]
     31[Parsed_showinfo_3 @ 0x3b6e940] n:   3 pts:    118 pts_time:0.118   pos:       -1 fmt:rgb24 sar:1/1 s:320x240 i:P iskey:1 type:I checksum:39A855A7 plane_checksum:[39A855A7] mean:[127] stdev:[125.7]
     32[Parsed_showinfo_5 @ 0x3b6fd40] n:   1 pts:      1 pts_time:0.0666667 pos:       -1 fmt:rgb24 sar:1/1 s:320x240 i:P iskey:1 type:I checksum:5BBC2F63 plane_checksum:[5BBC2F63] mean:[127] stdev:[125.7]
     33[Parsed_showinfo_3 @ 0x3b6e940] n:   4 pts:    151 pts_time:0.151   pos:       -1 fmt:rgb24 sar:1/1 s:320x240 i:P iskey:1 type:I checksum:6B3D7C29 plane_checksum:[6B3D7C29] mean:[128] stdev:[125.7]
     34[Parsed_showinfo_3 @ 0x3b6e940] n:   5 pts:    185 pts_time:0.185   pos:       -1 fmt:rgb24 sar:1/1 s:320x240 i:P iskey:1 type:I checksum:7E969AAD plane_checksum:[7E969AAD] mean:[128] stdev:[125.7]
     35[Parsed_showinfo_5 @ 0x3b6fd40] n:   2 pts:      2 pts_time:0.133333 pos:       -1 fmt:rgb24 sar:1/1 s:320x240 i:P iskey:1 type:I checksum:6B3D7C29 plane_checksum:[6B3D7C29] mean:[128] stdev:[125.7]
     36[Parsed_showinfo_3 @ 0x3b6e940] n:   6 pts:    218 pts_time:0.218   pos:       -1 fmt:rgb24 sar:1/1 s:320x240 i:P iskey:1 type:I checksum:0930B896 plane_checksum:[0930B896] mean:[128] stdev:[125.6]
     37[Parsed_showinfo_3 @ 0x3b6e940] n:   7 pts:    251 pts_time:0.251   pos:       -1 fmt:rgb24 sar:1/1 s:320x240 i:P iskey:1 type:I checksum:CED6CEBF plane_checksum:[CED6CEBF] mean:[128] stdev:[125.6]
     38[Parsed_showinfo_3 @ 0x3b6e940] n:   8 pts:    285 pts_time:0.285   pos:       -1 fmt:rgb24 sar:1/1 s:320x240 i:P iskey:1 type:I checksum:3F25E3D1 plane_checksum:[3F25E3D1] mean:[128] stdev:[125.6]
     39[Parsed_showinfo_5 @ 0x3b6fd40] n:   3 pts:      3 pts_time:0.2     pos:       -1 fmt:rgb24 sar:1/1 s:320x240 i:P iskey:1 type:I checksum:CED6CEBF plane_checksum:[CED6CEBF] mean:[128] stdev:[125.6]
     40frame=    3 fps=0.0 q=-0.0 Lsize=N/A time=00:00:00.20 bitrate=N/A speed=   4x   
     41video:1kB audio:0kB subtitle:0kB other streams:0kB global headers:0kB muxing overhead: unknown
    4442}}}