Opened 5 years ago

Closed 5 years ago

Last modified 5 years ago

#5506 closed enhancement (fixed)

Newtek SpeedHQ

Reported by: Carl Eugen Hoyos Owned by:
Priority: wish Component: avcodec
Version: git-master Keywords: shq
Cc: Blocked By:
Blocking: Reproduced by developer: no
Analyzed by developer: no

Description

Users have uploaded different SHQ samples.

$ ffmpeg -i SHQ2_cut.avi
ffmpeg version N-79725-g80d14de Copyright (c) 2000-2016 the FFmpeg developers
  built with gcc 4.7 (SUSE Linux)
  configuration: --enable-gpl --enable-libwebp --enable-libvpx
  libavutil      55. 23.100 / 55. 23.100
  libavcodec     57. 38.100 / 57. 38.100
  libavformat    57. 35.100 / 57. 35.100
  libavdevice    57.  0.101 / 57.  0.101
  libavfilter     6. 44.100 /  6. 44.100
  libswscale      4.  1.100 /  4.  1.100
  libswresample   2.  0.101 /  2.  0.101
  libpostproc    54.  0.100 / 54.  0.100
[avi @ 0x265d280] Could not find codec parameters for stream 0 (Video: none (SHQ2 / 0x32514853), none, 1920x1080, 47487 kb/s): unknown codec
Consider increasing the value for the 'analyzeduration' and 'probesize' options
Guessed Channel Layout for  Input Stream #0.1 : stereo
Input #0, avi, from 'SHQ2_cut.avi':
  Metadata:
    encoder         : Lavf55.38.100
  Duration: 00:00:10.00, start: 0.000000, bitrate: 48860 kb/s
    Stream #0:0: Video: none (SHQ2 / 0x32514853), none, 1920x1080, 47487 kb/s, 25 fps, 25 tbr, 25 tbn
    Stream #0:1: Audio: pcm_s16le ([1][0][0][0] / 0x0001), 48000 Hz, 2 channels, s16, 1536 kb/s
At least one output file must be specified

Change History (5)

comment:1 by Elon Musk, 5 years ago

Where they are?
Do you want to sponsor this?
If not why you do care?

in reply to:  1 comment:2 by Carl Eugen Hoyos, 5 years ago

Replying to richardpl:

Where they are?

Sorry:
http://samples.ffmpeg.org/ffmpeg-bugs/trac/ticket5506/

Do you want to sponsor this?

No.

If not why you do care?

I don't understand this question.

comment:3 by Elliott, 5 years ago

The SpeedHQ codec is common for NewTek TriCaster recordings. Free download is available if it's any help: http://www.newtek.com/downloads.html

Last edited 5 years ago by Elliott (previous) (diff)

comment:4 by Elon Musk, 5 years ago

Resolution: fixed
Status: newclosed

comment:5 by Carl Eugen Hoyos, 5 years ago

Keywords: shq added
Note: See TracTickets for help on using tickets.