Changes between Initial Version and Version 1 of Ticket #542, comment 43


Ignore:
Timestamp:
Oct 18, 2011, 4:01:40 PM (5 years ago)
Author:
terran
Comment:

Legend:

Unmodified
Added
Removed
Modified
  • Ticket #542, comment 43

    initial v1  
    1 To be clear, when I say "fail" I mean that using libavformat's av_dump_format(..) will report {{{Stream #0:1: Audio: aac ([15][0][0][0] / 0x000F), 0 channels}}} 
     1To be clear, when I say "fail" I mean that using libavformat's av_dump_format(..) will report: 
     2{{{ 
     3Stream #0:1: Audio: aac ([15][0][0][0] / 0x000F), 0 channels 
     4}}}