#5422 closed defect (fixed)

fps is off by a factor of 1000 with lavfi movie

Reported by: michael Owned by:
Priority: important Component: undetermined
Version: git-master Keywords: codecpar regression
Cc: Blocked By:
Blocking: Reproduced by developer: yes
Analyzed by developer: no

Description

./ffprobe-ref -f lavfi -i movie=~/tickets/1051/camera-raw.mp4
Stream #0:0: Video: rawvideo (I420 / 0x30323449), yuv420p, 1920x1080 [SAR 1:1 DAR 16:9], 25 fps, 25 tbr, 25k tbn, 25k tbc
vs.
./ffprobe -f lavfi -i movie=~/tickets/1051/camera-raw.mp4
Stream #0:0: Video: rawvideo (I420 / 0x30323449), yuv420p, 1920x1080 [SAR 1:1 DAR 16:9], 25k fps, 25 tbr, 25k tbn

http://www.techfak.uni-bielefeld.de/~lschilli/ffmpeg/sync/camera-raw.mp4

25fps vs 25k fps

Change History (3)

comment:1 Changed 20 months ago by heleppkes

lavfi movie source uses r_frame_rate for the link frame rate, so presumably that changed. No further investigation yet.

comment:2 Changed 19 months ago by cehoyos

  • Keywords regression added
  • Priority changed from normal to important
  • Version changed from unspecified to git-master

comment:3 Changed 18 months ago by michael

  • Reproduced by developer set
  • Resolution set to fixed
  • Status changed from new to closed
Note: See TracTickets for help on using tickets.