Opened 6 years ago

Closed 6 years ago

#5352 closed defect (fixed)

encoding error with VideoToolbox H.264 Encoder and profile high

Reported by: ponpon Owned by: Rick Kern
Priority: important Component: avcodec
Version: git-master Keywords: crash SIGSEGV
Cc: Blocked By:
Blocking: Reproduced by developer: no
Analyzed by developer: no

Description

thank you for the good app.

i face an encoding error with VideoToolbox H.264 Encoder and profile high under sandybridge and os1095. if profile main, no problem

ffmpeg  -y -i city_4cif.y4m -c:v h264_videotoolbox -profile:v high h264_videotoolbox.mp4
ffmpeg version N-79091-g0ffa9e6 Copyright (c) 2000-2016 the FFmpeg developers
  built with clang version 3.7.0 (tags/RELEASE_370/final)
  configuration: --cc=clang-mp-3.7 --cxx=clang++-mp-3.7 --disable-ffplay --disable-ffprobe --disable-doc
  libavutil      55. 19.100 / 55. 19.100
  libavcodec     57. 28.103 / 57. 28.103
  libavformat    57. 28.102 / 57. 28.102
  libavdevice    57.  0.101 / 57.  0.101
  libavfilter     6. 39.102 /  6. 39.102
  libswscale      4.  0.100 /  4.  0.100
  libswresample   2.  0.101 /  2.  0.101
Input #0, yuv4mpegpipe, from 'city_4cif.y4m':
  Duration: 00:00:10.00, start: 0.000000, bitrate: 291965 kb/s
    Stream #0:0: Video: rawvideo (I420 / 0x30323449), yuv420p, 704x576, SAR 128:117 DAR 1408:1053, 60 fps, 60 tbr, 60 tbn, 60 tbc
Output #0, mp4, to 'h264_videotoolbox.mp4':
  Metadata:
    encoder         : Lavf57.28.102
    Stream #0:0: Video: h264 (h264_videotoolbox) ([33][0][0][0] / 0x0021), yuv420p, 704x576 [SAR 128:117 DAR 1408:1053], q=2-31, 200 kb/s, 60 fps, 15360 tbn, 60 tbc
    Metadata:
      encoder         : Lavc57.28.103 h264_videotoolbox
Stream mapping:
  Stream #0:0 -> #0:0 (rawvideo (native) -> h264 (h264_videotoolbox))
Press [q] to stop, [?] for help
[h264_videotoolbox @ 0x7f8fca820400] Color range not set for YUV 4:2:0. Using MPEG range.
[h264_videotoolbox @ 0x7f8fca820400] Error getting parameter set count: -12712
[h264_videotoolbox @ 0x7f8fca820400] Could not get parameter sets.
Video encoding failed
Segmentation fault: 11
ffmpeg  -y -i city_4cif.y4m -c:v h264_videotoolbox -profile:v high -pix_fmt yuv420p h264_videotoolbox.mp4
ffmpeg version N-79091-g0ffa9e6 Copyright (c) 2000-2016 the FFmpeg developers
  built with clang version 3.7.0 (tags/RELEASE_370/final)
  configuration: --cc=clang-mp-3.7 --cxx=clang++-mp-3.7 --disable-ffplay --disable-ffprobe --disable-doc
  libavutil      55. 19.100 / 55. 19.100
  libavcodec     57. 28.103 / 57. 28.103
  libavformat    57. 28.102 / 57. 28.102
  libavdevice    57.  0.101 / 57.  0.101
  libavfilter     6. 39.102 /  6. 39.102
  libswscale      4.  0.100 /  4.  0.100
  libswresample   2.  0.101 /  2.  0.101
Input #0, yuv4mpegpipe, from 'city_4cif.y4m':
  Duration: 00:00:10.00, start: 0.000000, bitrate: 291965 kb/s
    Stream #0:0: Video: rawvideo (I420 / 0x30323449), yuv420p, 704x576, SAR 128:117 DAR 1408:1053, 60 fps, 60 tbr, 60 tbn, 60 tbc
Output #0, mp4, to 'h264_videotoolbox.mp4':
  Metadata:
    encoder         : Lavf57.28.102
    Stream #0:0: Video: h264 (h264_videotoolbox) ([33][0][0][0] / 0x0021), yuv420p, 704x576 [SAR 128:117 DAR 1408:1053], q=2-31, 200 kb/s, 60 fps, 15360 tbn, 60 tbc
    Metadata:
      encoder         : Lavc57.28.103 h264_videotoolbox
Stream mapping:
  Stream #0:0 -> #0:0 (rawvideo (native) -> h264 (h264_videotoolbox))
Press [q] to stop, [?] for help
[h264_videotoolbox @ 0x7fda9c020400] Color range not set for YUV 4:2:0. Using MPEG range.
[h264_videotoolbox @ 0x7fda9c020400] Error getting parameter set count: -12712
[h264_videotoolbox @ 0x7fda9c020400] Could not get parameter sets.
Video encoding failed
Segmentation fault: 11
]]]

{{{
ffmpeg  -y -i city_4cif.y4m -c:v h264_videotoolbox -profile:v high -vf format=yuv420p h264_videotoolbox.mp4
ffmpeg version N-79091-g0ffa9e6 Copyright (c) 2000-2016 the FFmpeg developers
  built with clang version 3.7.0 (tags/RELEASE_370/final)
  configuration: --cc=clang-mp-3.7 --cxx=clang++-mp-3.7 --disable-ffplay --disable-ffprobe --disable-doc
  libavutil      55. 19.100 / 55. 19.100
  libavcodec     57. 28.103 / 57. 28.103
  libavformat    57. 28.102 / 57. 28.102
  libavdevice    57.  0.101 / 57.  0.101
  libavfilter     6. 39.102 /  6. 39.102
  libswscale      4.  0.100 /  4.  0.100
  libswresample   2.  0.101 /  2.  0.101
Input #0, yuv4mpegpipe, from 'city_4cif.y4m':
  Duration: 00:00:10.00, start: 0.000000, bitrate: 291965 kb/s
    Stream #0:0: Video: rawvideo (I420 / 0x30323449), yuv420p, 704x576, SAR 128:117 DAR 1408:1053, 60 fps, 60 tbr, 60 tbn, 60 tbc
Output #0, mp4, to 'h264_videotoolbox.mp4':
  Metadata:
    encoder         : Lavf57.28.102
    Stream #0:0: Video: h264 (h264_videotoolbox) ([33][0][0][0] / 0x0021), yuv420p, 704x576 [SAR 128:117 DAR 1408:1053], q=2-31, 200 kb/s, 60 fps, 15360 tbn, 60 tbc
    Metadata:
      encoder         : Lavc57.28.103 h264_videotoolbox
Stream mapping:
  Stream #0:0 -> #0:0 (rawvideo (native) -> h264 (h264_videotoolbox))
Press [q] to stop, [?] for help
[h264_videotoolbox @ 0x7fc400820400] Color range not set for YUV 4:2:0. Using MPEG range.
[h264_videotoolbox @ 0x7fc400820400] Error getting parameter set count: -12712
[h264_videotoolbox @ 0x7fc400820400] Could not get parameter sets.
Video encoding failed
Segmentation fault: 11
}}}

Attachments (3)

h264_videotoolbox.264 (510.2 KB ) - added by ponpon 6 years ago.
h264_videotoolbox.mp4 (605.0 KB ) - added by ponpon 6 years ago.
libx264.264 (1.8 MB ) - added by ponpon 6 years ago.

Change History (15)

comment:1 by Rick Kern, 6 years ago

Component: undeterminedavcodec
Owner: set to Rick Kern
Status: newopen
Version: unspecifiedgit-master

ponpon, can you pull branch bug/5352 from https://github.com/badfroggy/FFmpeg.git and see if it's still a problem? I can't reproduce on my macbook.

comment:2 by Carl Eugen Hoyos, 6 years ago

Keywords: crash SIGSEGV added
Priority: normalimportant

For crashreports, please provide the missing information (backtrace, disassembly and register dump) as explained on http://ffmpeg.org/bugreports.html

in reply to:  1 comment:3 by ponpon, 6 years ago

Replying to kernrj:
i tried it and could have encoded.
but endode stop with profile main.

do i need to mind the following message of ffmpeg with high?

[h264_videotoolbox @ 0x7fa64a809600] Color range not set for YUV 4:2:0. Using MPEG range.

to cehoyos
thank you for your suggestion.

ffmpeg  -y -i city_4cif.y4m -c:v h264_videotoolbox -profile:v high h264_videotoolbox.mp4
ffmpeg version 3.0.git Copyright (c) 2000-2016 the FFmpeg developers
  built with clang version 3.7.0 (tags/RELEASE_370/final)
  configuration: --cc=clang-mp-3.7 --cxx=clang++-mp-3.7 --disable-ffplay --disable-ffprobe --disable-doc
  libavutil      55. 19.100 / 55. 19.100
  libavcodec     57. 28.103 / 57. 28.103
  libavformat    57. 28.102 / 57. 28.102
  libavdevice    57.  0.101 / 57.  0.101
  libavfilter     6. 39.102 /  6. 39.102
  libswscale      4.  0.100 /  4.  0.100
  libswresample   2.  0.101 /  2.  0.101
Input #0, yuv4mpegpipe, from 'city_4cif.y4m':
  Duration: 00:00:10.00, start: 0.000000, bitrate: 291965 kb/s
    Stream #0:0: Video: rawvideo (I420 / 0x30323449), yuv420p, 704x576, SAR 128:117 DAR 1408:1053, 60 fps, 60 tbr, 60 tbn, 60 tbc
Output #0, mp4, to 'h264_videotoolbox.mp4':
  Metadata:
    encoder         : Lavf57.28.102
    Stream #0:0: Video: h264 (h264_videotoolbox) ([33][0][0][0] / 0x0021), yuv420p, 704x576 [SAR 128:117 DAR 1408:1053], q=2-31, 200 kb/s, 60 fps, 15360 tbn, 60 tbc
    Metadata:
      encoder         : Lavc57.28.103 h264_videotoolbox
Stream mapping:
  Stream #0:0 -> #0:0 (rawvideo (native) -> h264 (h264_videotoolbox))
Press [q] to stop, [?] for help
[h264_videotoolbox @ 0x7fa64a809600] Color range not set for YUV 4:2:0. Using MPEG range.
frame=  600 fps=219 q=-0.0 Lsize=     605kB time=00:00:10.00 bitrate= 495.7kbits/s speed=3.65x    
video:602kB audio:0kB subtitle:0kB other streams:0kB global headers:0kB muxing overhead: 0.557511%
ffmpeg -v 9 -loglevel 99  -y -i city_4cif.y4m -c:v h264_videotoolbox -profile:v high h264_videotoolbox.mp4
ffmpeg version 3.0.git Copyright (c) 2000-2016 the FFmpeg developers
  built with clang version 3.7.0 (tags/RELEASE_370/final)
  configuration: --cc=clang-mp-3.7 --cxx=clang++-mp-3.7 --disable-ffplay --disable-ffprobe --disable-doc
  libavutil      55. 19.100 / 55. 19.100
  libavcodec     57. 28.103 / 57. 28.103
  libavformat    57. 28.102 / 57. 28.102
  libavdevice    57.  0.101 / 57.  0.101
  libavfilter     6. 39.102 /  6. 39.102
  libswscale      4.  0.100 /  4.  0.100
  libswresample   2.  0.101 /  2.  0.101
Splitting the commandline.
Reading option '-v' ... matched as option 'v' (set logging level) with argument '9'.
Reading option '-loglevel' ... matched as option 'loglevel' (set logging level) with argument '99'.
Reading option '-y' ... matched as option 'y' (overwrite output files) with argument '1'.
Reading option '-i' ... matched as input file with argument 'city_4cif.y4m'.
Reading option '-c:v' ... matched as option 'c' (codec name) with argument 'h264_videotoolbox'.
Reading option '-profile:v' ... matched as option 'profile' (set profile) with argument 'high'.
Reading option 'h264_videotoolbox.mp4' ... matched as output file.
Finished splitting the commandline.
Parsing a group of options: global .
Applying option v (set logging level) with argument 9.
Applying option y (overwrite output files) with argument 1.
Successfully parsed a group of options.
Parsing a group of options: input file city_4cif.y4m.
Successfully parsed a group of options.
Opening an input file: city_4cif.y4m.
[file @ 0x7fed68410fa0] Setting default whitelist 'file,crypto'
Probing yuv4mpegpipe score:100 size:2048
[yuv4mpegpipe @ 0x7fed6880e600] Format yuv4mpegpipe probed with size=2048 and score=100
[yuv4mpegpipe @ 0x7fed6880e600] Before avformat_find_stream_info() pos: 38 bytes read:32768 seeks:0
[yuv4mpegpipe @ 0x7fed6880e600] All info found
[yuv4mpegpipe @ 0x7fed6880e600] 0: start_time: 0.000 duration: 0.001
[yuv4mpegpipe @ 0x7fed6880e600] stream: start_time: 0.000 duration: 10.000 bitrate=291965 kb/s
[yuv4mpegpipe @ 0x7fed6880e600] After avformat_find_stream_info() pos: 608300 bytes read:608300 seeks:0 frames:1
Input #0, yuv4mpegpipe, from 'city_4cif.y4m':
  Duration: 00:00:10.00, start: 0.000000, bitrate: 291965 kb/s
    Stream #0:0, 1, 1/60: Video: rawvideo, 1 reference frame (I420 / 0x30323449), yuv420p, 704x576, 1/60, SAR 128:117 DAR 1408:1053, 60 fps, 60 tbr, 60 tbn, 60 tbc
Successfully opened the file.
Parsing a group of options: output file h264_videotoolbox.mp4.
Applying option c:v (codec name) with argument h264_videotoolbox.
Applying option profile:v (set profile) with argument high.
Successfully parsed a group of options.
Opening an output file: h264_videotoolbox.mp4.
[file @ 0x7fed68500ec0] Setting default whitelist 'file,crypto'
Successfully opened the file.
detected 8 logical cores
[graph 0 input from stream 0:0 @ 0x7fed68410a20] Setting 'video_size' to value '704x576'
[graph 0 input from stream 0:0 @ 0x7fed68410a20] Setting 'pix_fmt' to value '0'
[graph 0 input from stream 0:0 @ 0x7fed68410a20] Setting 'time_base' to value '1/60'
[graph 0 input from stream 0:0 @ 0x7fed68410a20] Setting 'pixel_aspect' to value '128/117'
[graph 0 input from stream 0:0 @ 0x7fed68410a20] Setting 'sws_param' to value 'flags=2'
[graph 0 input from stream 0:0 @ 0x7fed68410a20] Setting 'frame_rate' to value '60/1'
[graph 0 input from stream 0:0 @ 0x7fed68410a20] w:704 h:576 pixfmt:yuv420p tb:1/60 fr:60/1 sar:128/117 sws_param:flags=2
[format @ 0x7fed68411a80] compat: called with args=[nv12|yuv420p]
[format @ 0x7fed68411a80] Setting 'pix_fmts' to value 'nv12|yuv420p'
[AVFilterGraph @ 0x7fed68501180] query_formats: 4 queried, 3 merged, 0 already done, 0 delayed
Output #0, mp4, to 'h264_videotoolbox.mp4':
  Metadata:
    encoder         : Lavf57.28.102
    Stream #0:0, 0, 1/15360: Video: h264 (h264_videotoolbox), 1 reference frame ([33][0][0][0] / 0x0021), yuv420p, 704x576 [SAR 128:117 DAR 1408:1053], 1/60, q=2-31, 200 kb/s, 60 fps, 15360 tbn, 60 tbc
    Metadata:
      encoder         : Lavc57.28.103 h264_videotoolbox
Stream mapping:
  Stream #0:0 -> #0:0 (rawvideo (native) -> h264 (h264_videotoolbox))
Press [q] to stop, [?] for help
cur_dts is invalid (this is harmless if it occurs once at the start per stream)
[rawvideo @ 0x7fed69008000] PACKET SIZE: 608256, STRIDE: 1056
Clipping frame in rate conversion by 0.000008
[h264_videotoolbox @ 0x7fed69009600] Color range not set for YUV 4:2:0. Using MPEG range.
cur_dts is invalid (this is harmless if it occurs once at the start per stream)
[rawvideo @ 0x7fed69008000] PACKET SIZE: 608256, STRIDE: 1056
cur_dts is invalid (this is harmless if it occurs once at the start per stream)
[rawvideo @ 0x7fed69008000] PACKET SIZE: 608256, STRIDE: 1056
cur_dts is invalid (this is harmless if it occurs once at the start per stream)
[rawvideo @ 0x7fed69008000] PACKET SIZE: 608256, STRIDE: 1056
cur_dts is invalid (this is harmless if it occurs once at the start per stream)
[rawvideo @ 0x7fed69008000] PACKET SIZE: 608256, STRIDE: 1056
cur_dts is invalid (this is harmless if it occurs once at the start per stream)
[rawvideo @ 0x7fed69008000] PACKET SIZE: 608256, STRIDE: 1056
cur_dts is invalid (this is harmless if it occurs once at the start per stream)
[rawvideo @ 0x7fed69008000] PACKET SIZE: 608256, STRIDE: 1056
cur_dts is invalid (this is harmless if it occurs once at the start per stream)
[rawvideo @ 0x7fed69008000] PACKET SIZE: 608256, STRIDE: 1056
cur_dts is invalid (this is harmless if it occurs once at the start per stream)
[rawvideo @ 0x7fed69008000] PACKET SIZE: 608256, STRIDE: 1056
    Last message repeated 103 times
[rawvideo @ 0x7fed69008000] PACKET SIZE: 608256, STRIDE: 1056itrate= 573.1kbits/s speed=3.44x    
    Last message repeated 105 times
[rawvideo @ 0x7fed69008000] PACKET SIZE: 608256, STRIDE: 1056itrate= 535.8kbits/s speed=3.48x    
    Last message repeated 106 times
[rawvideo @ 0x7fed69008000] PACKET SIZE: 608256, STRIDE: 1056itrate= 534.0kbits/s speed= 3.5x    
    Last message repeated 111 times
[rawvideo @ 0x7fed69008000] PACKET SIZE: 608256, STRIDE: 1056itrate= 510.6kbits/s speed=3.55x    
    Last message repeated 110 times
[rawvideo @ 0x7fed69008000] PACKET SIZE: 608256, STRIDE: 1056itrate= 496.4kbits/s speed=3.58x    
    Last message repeated 51 times
[output stream 0:0 @ 0x7fed684117c0] EOF on sink link output stream 0:0:default.
No more output streams to write to, finishing.
frame=  600 fps=215 q=-0.0 Lsize=     605kB time=00:00:10.00 bitrate= 495.7kbits/s speed=3.59x    
video:602kB audio:0kB subtitle:0kB other streams:0kB global headers:0kB muxing overhead: 0.557511%
Input file #0 (city_4cif.y4m):
  Input stream #0:0 (video): 600 packets read (364953600 bytes); 600 frames decoded; 
  Total: 600 packets (364953600 bytes) demuxed
Output file #0 (h264_videotoolbox.mp4):
  Output stream #0:0 (video): 600 frames encoded; 600 packets muxed (616131 bytes); 
  Total: 600 packets (616131 bytes) muxed
600 frames successfully decoded, 0 decoding errors
[AVIOContext @ 0x7fed68500fe0] Statistics: 34 seeks, 627 writeouts
[AVIOContext @ 0x7fed68500060] Statistics: 364957238 bytes read, 0 seeks
Last edited 6 years ago by ponpon (previous) (diff)

comment:4 by Rick Kern, 6 years ago

The color range warning isn't related to this bug, but you can fix it by setting the color_range on the AVFrame via av_frame_set_color_range().

What error are you seeing with main profile?

comment:5 by Rick Kern, 6 years ago

Nevermind the color-range comment. That's an issue with the decoder.

comment:6 by ponpon, 6 years ago

usage of profile main kills encoding with the branch. but ffmpeg is active. during it, the file size is 0.
at the same time, the terminal don't accept q and control+c, but do control+z, fg, and bg.

note on usage of gdb on osx.there are a few differences from bug report page
need to execute not gdb but ggdb
need to rewrite
/System/Library/LaunchDaemons/com.apple.taskgated.plist
from
<string>-s</string>
to
<string>-sp</string>

gdb report of profile main

Starting program: /Volumes/Ramdisk/compile/FFmpeg-bug-5352/ffmpeg_g -v 9 -loglevel 99  -y -i "/Volumes/Ramdisk/compile/FFmpeg-bug-5352/city_4cif.y4m" -c:v h264_videotoolbox -profile:v main h264_videotoolbox.mp4
warning: `/opt/local/var/macports/build/_opt_mports_dports_audio_jack/jack/work/jack-audio-connection-kit-0.121.3/libjack/.libs/libjack_la-client.o': can't open to read symbols: No such file or directory.
warning: `/opt/local/var/macports/build/_opt_mports_dports_audio_jack/jack/work/jack-audio-connection-kit-0.121.3/libjack/.libs/libjack_la-intclient.o': can't open to read symbols: No such file or directory.
warning: `/opt/local/var/macports/build/_opt_mports_dports_audio_jack/jack/work/jack-audio-connection-kit-0.121.3/libjack/.libs/libjack_la-messagebuffer.o': can't open to read symbols: No such file or directory.
warning: `/opt/local/var/macports/build/_opt_mports_dports_audio_jack/jack/work/jack-audio-connection-kit-0.121.3/libjack/.libs/libjack_la-midiport.o': can't open to read symbols: No such file or directory.
warning: `/opt/local/var/macports/build/_opt_mports_dports_audio_jack/jack/work/jack-audio-connection-kit-0.121.3/libjack/.libs/libjack_la-pool.o': can't open to read symbols: No such file or directory.
warning: `/opt/local/var/macports/build/_opt_mports_dports_audio_jack/jack/work/jack-audio-connection-kit-0.121.3/libjack/.libs/libjack_la-port.o': can't open to read symbols: No such file or directory.
warning: `/opt/local/var/macports/build/_opt_mports_dports_audio_jack/jack/work/jack-audio-connection-kit-0.121.3/libjack/.libs/libjack_la-ringbuffer.o': can't open to read symbols: No such file or directory.
warning: `/opt/local/var/macports/build/_opt_mports_dports_audio_jack/jack/work/jack-audio-connection-kit-0.121.3/libjack/.libs/libjack_la-shm.o': can't open to read symbols: No such file or directory.
warning: `/opt/local/var/macports/build/_opt_mports_dports_audio_jack/jack/work/jack-audio-connection-kit-0.121.3/libjack/.libs/libjack_la-thread.o': can't open to read symbols: No such file or directory.
warning: `/opt/local/var/macports/build/_opt_mports_dports_audio_jack/jack/work/jack-audio-connection-kit-0.121.3/libjack/.libs/libjack_la-time.o': can't open to read symbols: No such file or directory.
warning: `/opt/local/var/macports/build/_opt_mports_dports_audio_jack/jack/work/jack-audio-connection-kit-0.121.3/libjack/.libs/libjack_la-timestamps.o': can't open to read symbols: No such file or directory.
warning: `/opt/local/var/macports/build/_opt_mports_dports_audio_jack/jack/work/jack-audio-connection-kit-0.121.3/libjack/.libs/libjack_la-transclient.o': can't open to read symbols: No such file or directory.
warning: `/opt/local/var/macports/build/_opt_mports_dports_audio_jack/jack/work/jack-audio-connection-kit-0.121.3/libjack/.libs/libjack_la-unlock.o': can't open to read symbols: No such file or directory.
warning: `/opt/local/var/macports/build/_opt_mports_dports_archivers_bzip2/bzip2/work/bzip2-1.0.6/blocksort.o': can't open to read symbols: No such file or directory.
warning: `/opt/local/var/macports/build/_opt_mports_dports_archivers_bzip2/bzip2/work/bzip2-1.0.6/bzlib.o': can't open to read symbols: No such file or directory.
warning: `/opt/local/var/macports/build/_opt_mports_dports_archivers_bzip2/bzip2/work/bzip2-1.0.6/compress.o': can't open to read symbols: No such file or directory.
warning: `/opt/local/var/macports/build/_opt_mports_dports_archivers_bzip2/bzip2/work/bzip2-1.0.6/crctable.o': can't open to read symbols: No such file or directory.
warning: `/opt/local/var/macports/build/_opt_mports_dports_archivers_bzip2/bzip2/work/bzip2-1.0.6/decompress.o': can't open to read symbols: No such file or directory.
warning: `/opt/local/var/macports/build/_opt_mports_dports_archivers_bzip2/bzip2/work/bzip2-1.0.6/huffman.o': can't open to read symbols: No such file or directory.
warning: `/opt/local/var/macports/build/_opt_mports_dports_archivers_bzip2/bzip2/work/bzip2-1.0.6/randtable.o': can't open to read symbols: No such file or directory.
warning: Could not open OSO archive file "/BinaryCache/Libsyscall/Libsyscall-2422.115.14~1/Symbols/BuiltProducts/libsystem_kernel.a"
warning: `/private/var/tmp/Libsyscall/Libsyscall-2422.115.14~1/Libsyscall.build/Libsyscall_dynamic.build/Objects-normal/x86_64/_libc_funcptr.o': can't open to read symbols: No such file or directory.
warning: `/private/var/tmp/Libsyscall/Libsyscall-2422.115.14~1/Libsyscall.build/Libsyscall_dynamic.build/Objects-normal/x86_64/kernel_vers.o': can't open to read symbols: No such file or directory.
warning: `/private/var/tmp/Libsyscall/Libsyscall-2422.115.14~1/Libsyscall.build/Libsyscall_dynamic.build/Objects-normal/x86_64/memcpy.o': can't open to read symbols: No such file or directory.
warning: `/private/var/tmp/Libsyscall/Libsyscall-2422.115.14~1/Libsyscall.build/Libsyscall_dynamic.build/Objects-normal/x86_64/strcmp.o': can't open to read symbols: No such file or directory.
warning: `/private/var/tmp/Libsyscall/Libsyscall-2422.115.14~1/Libsyscall.build/Libsyscall_dynamic.build/Objects-normal/x86_64/strlcpy.o': can't open to read symbols: No such file or directory.
warning: `/private/var/tmp/Libsyscall/Libsyscall-2422.115.14~1/Libsyscall.build/Libsyscall_dynamic.build/Objects-normal/x86_64/strlen.o': can't open to read symbols: No such file or directory.
warning: Could not open OSO archive file "/BinaryCache/libplatform/libplatform-24.90.1~2/Symbols/libatomics_normal.a"
warning: Could not open OSO archive file "/BinaryCache/libplatform/libplatform-24.90.1~2/Symbols/libcachecontrol_normal.a"
warning: Could not open OSO archive file "/BinaryCache/libplatform/libplatform-24.90.1~2/Symbols/libos_normal.a"
warning: Could not open OSO archive file "/BinaryCache/libplatform/libplatform-24.90.1~2/Symbols/libsetjmp_normal.a"
warning: Could not open OSO archive file "/BinaryCache/libplatform/libplatform-24.90.1~2/Symbols/libsimple_normal.a"
warning: Could not open OSO archive file "/BinaryCache/libplatform/libplatform-24.90.1~2/Symbols/libstring_normal.a"
warning: Could not open OSO archive file "/BinaryCache/libplatform/libplatform-24.90.1~2/Symbols/libucontext_normal.a"
warning: `/private/var/tmp/libplatform/libplatform-24.90.1~2/libplatform.build/libsystem_platform.build/Objects-normal/x86_64/init.o': can't open to read symbols: No such file or directory.
warning: `/private/var/tmp/OSServices/OSServices-600.4~350/OSServices.build/OSServices.build/Objects-normal/x86_64/AppleIDAuthenticationClient.o': can't open to read symbols: No such file or directory.
warning: `/private/var/tmp/OSServices/OSServices-600.4~350/OSServices.build/OSServices.build/Objects-normal/x86_64/AppleIDAuthenticationCommon.o': can't open to read symbols: No such file or directory.
warning: `/private/var/tmp/OSServices/OSServices-600.4~350/OSServices.build/OSServices.build/Objects-normal/x86_64/AppleIDIdentity.o': can't open to read symbols: No such file or directory.
warning: `/private/var/tmp/OSServices/OSServices-600.4~350/OSServices.build/OSServices.build/Objects-normal/x86_64/AppleIDIdentityAuthority.o': can't open to read symbols: No such file or directory.
warning: `/private/var/tmp/OSServices/OSServices-600.4~350/OSServices.build/OSServices.build/Objects-normal/x86_64/AppleIDIdentityQuery.o': can't open to read symbols: No such file or directory.
warning: `/private/var/tmp/OSServices/OSServices-600.4~350/OSServices.build/OSServices.build/Objects-normal/x86_64/AppleIDKeychainItems.o': can't open to read symbols: No such file or directory.
warning: `/private/var/tmp/OSServices/OSServices-600.4~350/OSServices.build/OSServices.build/Objects-normal/x86_64/AppleIDLogging.o': can't open to read symbols: No such file or directory.
warning: `/private/var/tmp/OSServices/OSServices-600.4~350/OSServices.build/OSServices.build/Objects-normal/x86_64/BundleIconsCache.o': can't open to read symbols: No such file or directory.
warning: `/private/var/tmp/OSServices/OSServices-600.4~350/OSServices.build/OSServices.build/Objects-normal/x86_64/BundleUtils.o': can't open to read symbols: No such file or directory.
warning: `/private/var/tmp/OSServices/OSServices-600.4~350/OSServices.build/OSServices.build/Objects-normal/x86_64/CDynamicArray.o': can't open to read symbols: No such file or directory.
warning: `/private/var/tmp/OSServices/OSServices-600.4~350/OSServices.build/OSServices.build/Objects-normal/x86_64/CFUtilities.o': can't open to read symbols: No such file or directory.
warning: `/private/var/tmp/OSServices/OSServices-600.4~350/OSServices.build/OSServices.build/Objects-normal/x86_64/CIconFamilyHelper.o': can't open to read symbols: No such file or directory.
warning: `/private/var/tmp/OSServices/OSServices-600.4~350/OSServices.build/OSServices.build/Objects-normal/x86_64/CPlusAutoTypes.o': can't open to read symbols: No such file or directory.
warning: `/private/var/tmp/OSServices/OSServices-600.4~350/OSServices.build/OSServices.build/Objects-normal/x86_64/CPlusCFObject.o': can't open to read symbols: No such file or directory.
warning: `/private/var/tmp/OSServices/OSServices-600.4~350/OSServices.build/OSServices.build/Objects-normal/x86_64/CSAuthenticationSupportPriv.o': can't open to read symbols: No such file or directory.
warning: `/private/var/tmp/OSServices/OSServices-600.4~350/OSServices.build/OSServices.build/Objects-normal/x86_64/CSBackToMyMac.o': can't open to read symbols: No such file or directory.
warning: `/private/var/tmp/OSServices/OSServices-600.4~350/OSServices.build/OSServices.build/Objects-normal/x86_64/CSDebug.o': can't open to read symbols: No such file or directory.
warning: `/private/var/tmp/OSServices/OSServices-600.4~350/OSServices.build/OSServices.build/Objects-normal/x86_64/CSDebugUtils.o': can't open to read symbols: No such file or directory.
warning: `/private/var/tmp/OSServices/OSServices-600.4~350/OSServices.build/OSServices.build/Objects-normal/x86_64/CSDotMacCertificates.o': can't open to read symbols: No such file or directory.
warning: `/private/var/tmp/OSServices/OSServices-600.4~350/OSServices.build/OSServices.build/Objects-normal/x86_64/CSIdentity.o': can't open to read symbols: No such file or directory.
warning: `/private/var/tmp/OSServices/OSServices-600.4~350/OSServices.build/OSServices.build/Objects-normal/x86_64/CSIdentityAuthority.o': can't open to read symbols: No such file or directory.
warning: `/private/var/tmp/OSServices/OSServices-600.4~350/OSServices.build/OSServices.build/Objects-normal/x86_64/CSIdentityBase.o': can't open to read symbols: No such file or directory.
warning: `/private/var/tmp/OSServices/OSServices-600.4~350/OSServices.build/OSServices.build/Objects-normal/x86_64/CSIdentityQuery.o': can't open to read symbols: No such file or directory.
warning: `/private/var/tmp/OSServices/OSServices-600.4~350/OSServices.build/OSServices.build/Objects-normal/x86_64/CSUtilities.o': can't open to read symbols: No such file or directory.
warning: `/private/var/tmp/OSServices/OSServices-600.4~350/OSServices.build/OSServices.build/Objects-normal/x86_64/CertUtils.o': can't open to read symbols: No such file or directory.
warning: `/private/var/tmp/OSServices/OSServices-600.4~350/OSServices.build/OSServices.build/Objects-normal/x86_64/ClosureSource.o': can't open to read symbols: No such file or directory.
warning: `/private/var/tmp/OSServices/OSServices-600.4~350/OSServices.build/OSServices.build/Objects-normal/x86_64/DSCommon.o': can't open to read symbols: No such file or directory.
warning: `/private/var/tmp/OSServices/OSServices-600.4~350/OSServices.build/OSServices.build/Objects-normal/x86_64/DSIdentity.o': can't open to read symbols: No such file or directory.
warning: `/private/var/tmp/OSServices/OSServices-600.4~350/OSServices.build/OSServices.build/Objects-normal/x86_64/DSIdentityAuthority.o': can't open to read symbols: No such file or directory.
warning: `/private/var/tmp/OSServices/OSServices-600.4~350/OSServices.build/OSServices.build/Objects-normal/x86_64/DSIdentityQuery.o': can't open to read symbols: No such file or directory.
warning: `/private/var/tmp/OSServices/OSServices-600.4~350/OSServices.build/OSServices.build/Objects-normal/x86_64/DynamicApple80211.o': can't open to read symbols: No such file or directory.
warning: `/private/var/tmp/OSServices/OSServices-600.4~350/OSServices.build/OSServices.build/Objects-normal/x86_64/DynamicArray.o': can't open to read symbols: No such file or directory.
warning: `/private/var/tmp/OSServices/OSServices-600.4~350/OSServices.build/OSServices.build/Objects-normal/x86_64/DynamicDirectoryService.o': can't open to read symbols: No such file or directory.
warning: `/private/var/tmp/OSServices/OSServices-600.4~350/OSServices.build/OSServices.build/Objects-normal/x86_64/DynamicHeimODAdmin.o': can't open to read symbols: No such file or directory.
warning: `/private/var/tmp/OSServices/OSServices-600.4~350/OSServices.build/OSServices.build/Objects-normal/x86_64/DynamicServiceManagement.o': can't open to read symbols: No such file or directory.
warning: `/private/var/tmp/OSServices/OSServices-600.4~350/OSServices.build/OSServices.build/Objects-normal/x86_64/HTTPClosureSource.o': can't open to read symbols: No such file or directory.
warning: `/private/var/tmp/OSServices/OSServices-600.4~350/OSServices.build/OSServices.build/Objects-normal/x86_64/ISDebug.o': can't open to read symbols: No such file or directory.
warning: `/private/var/tmp/OSServices/OSServices-600.4~350/OSServices.build/OSServices.build/Objects-normal/x86_64/ISIconLoader.o': can't open to read symbols: No such file or directory.
warning: `/private/var/tmp/OSServices/OSServices-600.4~350/OSServices.build/OSServices.build/Objects-normal/x86_64/ISServer-509CD7F904B79E77.o': can't open to read symbols: No such file or directory.
warning: `/private/var/tmp/OSServices/OSServices-600.4~350/OSServices.build/OSServices.build/Objects-normal/x86_64/ISServerServer.o': can't open to read symbols: No such file or directory.
warning: `/private/var/tmp/OSServices/OSServices-600.4~350/OSServices.build/OSServices.build/Objects-normal/x86_64/ISServerUser.o': can't open to read symbols: No such file or directory.
warning: `/private/var/tmp/OSServices/OSServices-600.4~350/OSServices.build/OSServices.build/Objects-normal/x86_64/ISVolumeCache.o': can't open to read symbols: No such file or directory.
warning: `/private/var/tmp/OSServices/OSServices-600.4~350/OSServices.build/OSServices.build/Objects-normal/x86_64/IconFamily.o': can't open to read symbols: No such file or directory.
warning: `/private/var/tmp/OSServices/OSServices-600.4~350/OSServices.build/OSServices.build/Objects-normal/x86_64/IconStorage.o': can't open to read symbols: No such file or directory.
warning: `/private/var/tmp/OSServices/OSServices-600.4~350/OSServices.build/OSServices.build/Objects-normal/x86_64/Identity.o': can't open to read symbols: No such file or directory.
warning: `/private/var/tmp/OSServices/OSServices-600.4~350/OSServices.build/OSServices.build/Objects-normal/x86_64/IdentityAuthority.o': can't open to read symbols: No such file or directory.
warning: `/private/var/tmp/OSServices/OSServices-600.4~350/OSServices.build/OSServices.build/Objects-normal/x86_64/IdentityBase.o': can't open to read symbols: No such file or directory.
warning: `/private/var/tmp/OSServices/OSServices-600.4~350/OSServices.build/OSServices.build/Objects-normal/x86_64/IdentityQuery.o': can't open to read symbols: No such file or directory.
warning: `/private/var/tmp/OSServices/OSServices-600.4~350/OSServices.build/OSServices.build/Objects-normal/x86_64/OSServices_vers.o': can't open to read symbols: No such file or directory.
warning: `/private/var/tmp/OSServices/OSServices-600.4~350/OSServices.build/OSServices.build/Objects-normal/x86_64/Power.o': can't open to read symbols: No such file or directory.
warning: `/private/var/tmp/OSServices/OSServices-600.4~350/OSServices.build/OSServices.build/Objects-normal/x86_64/PowerPriv.o': can't open to read symbols: No such file or directory.
warning: `/private/var/tmp/OSServices/OSServices-600.4~350/OSServices.build/OSServices.build/Objects-normal/x86_64/SFLEntries.o': can't open to read symbols: No such file or directory.
warning: `/private/var/tmp/OSServices/OSServices-600.4~350/OSServices.build/OSServices.build/Objects-normal/x86_64/SFLEntry.o': can't open to read symbols: No such file or directory.
warning: `/private/var/tmp/OSServices/OSServices-600.4~350/OSServices.build/OSServices.build/Objects-normal/x86_64/SFLEntryBase.o': can't open to read symbols: No such file or directory.
warning: `/private/var/tmp/OSServices/OSServices-600.4~350/OSServices.build/OSServices.build/Objects-normal/x86_64/SFLItemsList.o': can't open to read symbols: No such file or directory.
warning: `/private/var/tmp/OSServices/OSServices-600.4~350/OSServices.build/OSServices.build/Objects-normal/x86_64/SFLListBase.o': can't open to read symbols: No such file or directory.
warning: `/private/var/tmp/OSServices/OSServices-600.4~350/OSServices.build/OSServices.build/Objects-normal/x86_64/SFLLocalTempEntry.o': can't open to read symbols: No such file or directory.
warning: `/private/var/tmp/OSServices/OSServices-600.4~350/OSServices.build/OSServices.build/Objects-normal/x86_64/SFLPrefsManager.o': can't open to read symbols: No such file or directory.
warning: `/private/var/tmp/OSServices/OSServices-600.4~350/OSServices.build/OSServices.build/Objects-normal/x86_64/SFLRemoteEntry.o': can't open to read symbols: No such file or directory.
warning: `/private/var/tmp/OSServices/OSServices-600.4~350/OSServices.build/OSServices.build/Objects-normal/x86_64/SFLServer-A33C11B912A5E12C.o': can't open to read symbols: No such file or directory.
warning: `/private/var/tmp/OSServices/OSServices-600.4~350/OSServices.build/OSServices.build/Objects-normal/x86_64/SFLServerAsyncServer.o': can't open to read symbols: No such file or directory.
warning: `/private/var/tmp/OSServices/OSServices-600.4~350/OSServices.build/OSServices.build/Objects-normal/x86_64/SFLServerAsyncUser.o': can't open to read symbols: No such file or directory.
warning: `/private/var/tmp/OSServices/OSServices-600.4~350/OSServices.build/OSServices.build/Objects-normal/x86_64/SFLServerAsync_ReplyUser.o': can't open to read symbols: No such file or directory.
warning: `/private/var/tmp/OSServices/OSServices-600.4~350/OSServices.build/OSServices.build/Objects-normal/x86_64/SFLServerServer.o': can't open to read symbols: No such file or directory.
warning: `/private/var/tmp/OSServices/OSServices-600.4~350/OSServices.build/OSServices.build/Objects-normal/x86_64/SFLServerUser.o': can't open to read symbols: No such file or directory.
warning: `/private/var/tmp/OSServices/OSServices-600.4~350/OSServices.build/OSServices.build/Objects-normal/x86_64/SFLSharePointsEntry.o': can't open to read symbols: No such file or directory.
warning: `/private/var/tmp/OSServices/OSServices-600.4~350/OSServices.build/OSServices.build/Objects-normal/x86_64/SFLSnapshotEntry.o': can't open to read symbols: No such file or directory.
warning: `/private/var/tmp/OSServices/OSServices-600.4~350/OSServices.build/OSServices.build/Objects-normal/x86_64/SFLVolumesEntry.o': can't open to read symbols: No such file or directory.
warning: `/private/var/tmp/OSServices/OSServices-600.4~350/OSServices.build/OSServices.build/Objects-normal/x86_64/SOAPWebServiceClosure.o': can't open to read symbols: No such file or directory.
warning: `/private/var/tmp/OSServices/OSServices-600.4~350/OSServices.build/OSServices.build/Objects-normal/x86_64/Scheduler.o': can't open to read symbols: No such file or directory.
warning: `/private/var/tmp/OSServices/OSServices-600.4~350/OSServices.build/OSServices.build/Objects-normal/x86_64/SharedFilesListService.o': can't open to read symbols: No such file or directory.
warning: `/private/var/tmp/OSServices/OSServices-600.4~350/OSServices.build/OSServices.build/Objects-normal/x86_64/StorageTree.o': can't open to read symbols: No such file or directory.
warning: `/private/var/tmp/OSServices/OSServices-600.4~350/OSServices.build/OSServices.build/Objects-normal/x86_64/SystemSoundGlue.o': can't open to read symbols: No such file or directory.
warning: `/private/var/tmp/OSServices/OSServices-600.4~350/OSServices.build/OSServices.build/Objects-normal/x86_64/SystemSoundImp.o': can't open to read symbols: No such file or directory.
warning: `/private/var/tmp/OSServices/OSServices-600.4~350/OSServices.build/OSServices.build/Objects-normal/x86_64/WSRunLoopSource.o': can't open to read symbols: No such file or directory.
warning: `/private/var/tmp/OSServices/OSServices-600.4~350/OSServices.build/OSServices.build/Objects-normal/x86_64/WebServiceClosure.o': can't open to read symbols: No such file or directory.
warning: `/private/var/tmp/OSServices/OSServices-600.4~350/OSServices.build/OSServices.build/Objects-normal/x86_64/WebServiceResult.o': can't open to read symbols: No such file or directory.
warning: `/private/var/tmp/OSServices/OSServices-600.4~350/OSServices.build/OSServices.build/Objects-normal/x86_64/WebServiceUtils.o': can't open to read symbols: No such file or directory.
warning: `/private/var/tmp/OSServices/OSServices-600.4~350/OSServices.build/OSServices.build/Objects-normal/x86_64/WebServices.o': can't open to read symbols: No such file or directory.
warning: `/private/var/tmp/OSServices/OSServices-600.4~350/OSServices.build/OSServices.build/Objects-normal/x86_64/XMLRPCWebServiceClosure.o': can't open to read symbols: No such file or directory.
warning: `/private/var/tmp/OSServices/OSServices-600.4~350/OSServices.build/OSServices.build/Objects-normal/x86_64/XMLVisitor.o': can't open to read symbols: No such file or directory.
warning: `/private/var/tmp/OSServices/OSServices-600.4~350/OSServices.build/OSServices.build/Objects-normal/x86_64/XPCHelpers.o': can't open to read symbols: No such file or directory.
warning: Could not open OSO archive file "/usr/local/UmbrellaPieces/Libraries/libSecurityCore.a"
ffmpeg version 3.0.git Copyright (c) 2000-2016 the FFmpeg developers
  built with clang version 3.7.0 (tags/RELEASE_370/final)
  configuration: --cc=clang-mp-3.7 --cxx=clang++-mp-3.7 --disable-ffplay --disable-ffprobe --disable-doc
  libavutil      55. 19.100 / 55. 19.100
  libavcodec     57. 28.103 / 57. 28.103
  libavformat    57. 28.102 / 57. 28.102
  libavdevice    57.  0.101 / 57.  0.101
  libavfilter     6. 39.102 /  6. 39.102
  libswscale      4.  0.100 /  4.  0.100
  libswresample   2.  0.101 /  2.  0.101
Splitting the commandline.
Reading option '-v' ... matched as option 'v' (set logging level) with argument '9'.
Reading option '-loglevel' ... matched as option 'loglevel' (set logging level) with argument '99'.
Reading option '-y' ... matched as option 'y' (overwrite output files) with argument '1'.
Reading option '-i' ... matched as input file with argument '/Volumes/Ramdisk/compile/FFmpeg-bug-5352/city_4cif.y4m'.
Reading option '-c:v' ... matched as option 'c' (codec name) with argument 'h264_videotoolbox'.
Reading option '-profile:v' ... matched as option 'profile' (set profile) with argument 'main'.
Reading option 'h264_videotoolbox.mp4' ... matched as output file.
Finished splitting the commandline.
Parsing a group of options: global .
Applying option v (set logging level) with argument 9.
Applying option y (overwrite output files) with argument 1.
Successfully parsed a group of options.
Parsing a group of options: input file /Volumes/Ramdisk/compile/FFmpeg-bug-5352/city_4cif.y4m.
Successfully parsed a group of options.
Opening an input file: /Volumes/Ramdisk/compile/FFmpeg-bug-5352/city_4cif.y4m.
[file @ 0x101d11020] Setting default whitelist 'file,crypto'
Probing yuv4mpegpipe score:100 size:2048
[yuv4mpegpipe @ 0x10200e600] Format yuv4mpegpipe probed with size=2048 and score=100
[yuv4mpegpipe @ 0x10200e600] Before avformat_find_stream_info() pos: 38 bytes read:32768 seeks:0
[yuv4mpegpipe @ 0x10200e600] All info found
[yuv4mpegpipe @ 0x10200e600] 0: start_time: 0.000 duration: 0.001
[yuv4mpegpipe @ 0x10200e600] stream: start_time: 0.000 duration: 10.000 bitrate=291965 kb/s
[yuv4mpegpipe @ 0x10200e600] After avformat_find_stream_info() pos: 608300 bytes read:608300 seeks:0 frames:1
Input #0, yuv4mpegpipe, from '/Volumes/Ramdisk/compile/FFmpeg-bug-5352/city_4cif.y4m':
  Duration: 00:00:10.00, start: 0.000000, bitrate: 291965 kb/s
    Stream #0:0, 1, 1/60: Video: rawvideo, 1 reference frame (I420 / 0x30323449), yuv420p, 704x576, 1/60, SAR 128:117 DAR 1408:1053, 60 fps, 60 tbr, 60 tbn, 60 tbc
Successfully opened the file.
Parsing a group of options: output file h264_videotoolbox.mp4.
Applying option c:v (codec name) with argument h264_videotoolbox.
Applying option profile:v (set profile) with argument main.
Successfully parsed a group of options.
Opening an output file: h264_videotoolbox.mp4.
[file @ 0x101d122a0] Setting default whitelist 'file,crypto'
Successfully opened the file.
detected 8 logical cores
[graph 0 input from stream 0:0 @ 0x102c00380] Setting 'video_size' to value '704x576'
[graph 0 input from stream 0:0 @ 0x102c00380] Setting 'pix_fmt' to value '0'
[graph 0 input from stream 0:0 @ 0x102c00380] Setting 'time_base' to value '1/60'
[graph 0 input from stream 0:0 @ 0x102c00380] Setting 'pixel_aspect' to value '128/117'
[graph 0 input from stream 0:0 @ 0x102c00380] Setting 'sws_param' to value 'flags=2'
[graph 0 input from stream 0:0 @ 0x102c00380] Setting 'frame_rate' to value '60/1'
[graph 0 input from stream 0:0 @ 0x102c00380] w:704 h:576 pixfmt:yuv420p tb:1/60 fr:60/1 sar:128/117 sws_param:flags=2
[format @ 0x102c009a0] compat: called with args=[nv12|yuv420p]
[format @ 0x102c009a0] Setting 'pix_fmts' to value 'nv12|yuv420p'
[AVFilterGraph @ 0x101d10e00] query_formats: 4 queried, 3 merged, 0 already done, 0 delayed
[New Thread 0x1737 of process 10340]
[New Thread 0x1857 of process 10340]
[New Thread 0x191f of process 10340]
[New Thread 0x1a07 of process 10340]
[New Thread 0x1b07 of process 10340]
[New Thread 0x1c07 of process 10340]
[New Thread 0x1d07 of process 10340]
[New Thread 0x1e07 of process 10340]
[New Thread 0x1f07 of process 10340]
[New Thread 0x2007 of process 10340]
[New Thread 0x211f of process 10340]
[New Thread 0x240b of process 10340]
Output #0, mp4, to 'h264_videotoolbox.mp4':
  Metadata:
    encoder         : Lavf57.28.102
    Stream #0:0, 0, 1/15360: Video: h264 (h264_videotoolbox), 1 reference frame ([33][0][0][0] / 0x0021), yuv420p, 704x576 [SAR 128:117 DAR 1408:1053], 1/60, q=2-31, 200 kb/s, 60 fps, 15360 tbn, 60 tbc
    Metadata:
      encoder         : Lavc57.28.103 h264_videotoolbox
Stream mapping:
  Stream #0:0 -> #0:0 (rawvideo (native) -> h264 (h264_videotoolbox))
Press [q] to stop, [?] for help
cur_dts is invalid (this is harmless if it occurs once at the start per stream)
[rawvideo @ 0x10201f600] PACKET SIZE: 608256, STRIDE: 1056
Clipping frame in rate conversion by 0.000008
[h264_videotoolbox @ 0x102020800] Color range not set for YUV 4:2:0. Using MPEG range.
cur_dts is invalid (this is harmless if it occurs once at the start per stream)
[rawvideo @ 0x10201f600] PACKET SIZE: 608256, STRIDE: 1056
cur_dts is invalid (this is harmless if it occurs once at the start per stream)
[rawvideo @ 0x10201f600] PACKET SIZE: 608256, STRIDE: 1056
cur_dts is invalid (this is harmless if it occurs once at the start per stream)
[rawvideo @ 0x10201f600] PACKET SIZE: 608256, STRIDE: 1056
cur_dts is invalid (this is harmless if it occurs once at the start per stream)
[rawvideo @ 0x10201f600] PACKET SIZE: 608256, STRIDE: 1056
cur_dts is invalid (this is harmless if it occurs once at the start per stream)
[rawvideo @ 0x10201f600] PACKET SIZE: 608256, STRIDE: 1056
cur_dts is invalid (this is harmless if it occurs once at the start per stream)
[rawvideo @ 0x10201f600] PACKET SIZE: 608256, STRIDE: 1056
cur_dts is invalid (this is harmless if it occurs once at the start per stream)
[rawvideo @ 0x10201f600] PACKET SIZE: 608256, STRIDE: 1056
cur_dts is invalid (this is harmless if it occurs once at the start per stream)
[rawvideo @ 0x10201f600] PACKET SIZE: 608256, STRIDE: 1056

gdb report of profile high

Starting program: /Volumes/Ramdisk/compile/FFmpeg-bug-5352/ffmpeg_g -v 9 -loglevel 99  -y -i "/Volumes/Ramdisk/compile/FFmpeg-bug-5352/city_4cif.y4m" -c:v h264_videotoolbox -profile:v high h264_videotoolbox.mp4
warning: `/opt/local/var/macports/build/_opt_mports_dports_audio_jack/jack/work/jack-audio-connection-kit-0.121.3/libjack/.libs/libjack_la-client.o': can't open to read symbols: No such file or directory.
warning: `/opt/local/var/macports/build/_opt_mports_dports_audio_jack/jack/work/jack-audio-connection-kit-0.121.3/libjack/.libs/libjack_la-intclient.o': can't open to read symbols: No such file or directory.
warning: `/opt/local/var/macports/build/_opt_mports_dports_audio_jack/jack/work/jack-audio-connection-kit-0.121.3/libjack/.libs/libjack_la-messagebuffer.o': can't open to read symbols: No such file or directory.
warning: `/opt/local/var/macports/build/_opt_mports_dports_audio_jack/jack/work/jack-audio-connection-kit-0.121.3/libjack/.libs/libjack_la-midiport.o': can't open to read symbols: No such file or directory.
warning: `/opt/local/var/macports/build/_opt_mports_dports_audio_jack/jack/work/jack-audio-connection-kit-0.121.3/libjack/.libs/libjack_la-pool.o': can't open to read symbols: No such file or directory.
warning: `/opt/local/var/macports/build/_opt_mports_dports_audio_jack/jack/work/jack-audio-connection-kit-0.121.3/libjack/.libs/libjack_la-port.o': can't open to read symbols: No such file or directory.
warning: `/opt/local/var/macports/build/_opt_mports_dports_audio_jack/jack/work/jack-audio-connection-kit-0.121.3/libjack/.libs/libjack_la-ringbuffer.o': can't open to read symbols: No such file or directory.
warning: `/opt/local/var/macports/build/_opt_mports_dports_audio_jack/jack/work/jack-audio-connection-kit-0.121.3/libjack/.libs/libjack_la-shm.o': can't open to read symbols: No such file or directory.
warning: `/opt/local/var/macports/build/_opt_mports_dports_audio_jack/jack/work/jack-audio-connection-kit-0.121.3/libjack/.libs/libjack_la-thread.o': can't open to read symbols: No such file or directory.
warning: `/opt/local/var/macports/build/_opt_mports_dports_audio_jack/jack/work/jack-audio-connection-kit-0.121.3/libjack/.libs/libjack_la-time.o': can't open to read symbols: No such file or directory.
warning: `/opt/local/var/macports/build/_opt_mports_dports_audio_jack/jack/work/jack-audio-connection-kit-0.121.3/libjack/.libs/libjack_la-timestamps.o': can't open to read symbols: No such file or directory.
warning: `/opt/local/var/macports/build/_opt_mports_dports_audio_jack/jack/work/jack-audio-connection-kit-0.121.3/libjack/.libs/libjack_la-transclient.o': can't open to read symbols: No such file or directory.
warning: `/opt/local/var/macports/build/_opt_mports_dports_audio_jack/jack/work/jack-audio-connection-kit-0.121.3/libjack/.libs/libjack_la-unlock.o': can't open to read symbols: No such file or directory.
warning: `/opt/local/var/macports/build/_opt_mports_dports_archivers_bzip2/bzip2/work/bzip2-1.0.6/blocksort.o': can't open to read symbols: No such file or directory.
warning: `/opt/local/var/macports/build/_opt_mports_dports_archivers_bzip2/bzip2/work/bzip2-1.0.6/bzlib.o': can't open to read symbols: No such file or directory.
warning: `/opt/local/var/macports/build/_opt_mports_dports_archivers_bzip2/bzip2/work/bzip2-1.0.6/compress.o': can't open to read symbols: No such file or directory.
warning: `/opt/local/var/macports/build/_opt_mports_dports_archivers_bzip2/bzip2/work/bzip2-1.0.6/crctable.o': can't open to read symbols: No such file or directory.
warning: `/opt/local/var/macports/build/_opt_mports_dports_archivers_bzip2/bzip2/work/bzip2-1.0.6/decompress.o': can't open to read symbols: No such file or directory.
warning: `/opt/local/var/macports/build/_opt_mports_dports_archivers_bzip2/bzip2/work/bzip2-1.0.6/huffman.o': can't open to read symbols: No such file or directory.
warning: `/opt/local/var/macports/build/_opt_mports_dports_archivers_bzip2/bzip2/work/bzip2-1.0.6/randtable.o': can't open to read symbols: No such file or directory.
warning: Could not open OSO archive file "/BinaryCache/Libsyscall/Libsyscall-2422.115.14~1/Symbols/BuiltProducts/libsystem_kernel.a"
warning: `/private/var/tmp/Libsyscall/Libsyscall-2422.115.14~1/Libsyscall.build/Libsyscall_dynamic.build/Objects-normal/x86_64/_libc_funcptr.o': can't open to read symbols: No such file or directory.
warning: `/private/var/tmp/Libsyscall/Libsyscall-2422.115.14~1/Libsyscall.build/Libsyscall_dynamic.build/Objects-normal/x86_64/kernel_vers.o': can't open to read symbols: No such file or directory.
warning: `/private/var/tmp/Libsyscall/Libsyscall-2422.115.14~1/Libsyscall.build/Libsyscall_dynamic.build/Objects-normal/x86_64/memcpy.o': can't open to read symbols: No such file or directory.
warning: `/private/var/tmp/Libsyscall/Libsyscall-2422.115.14~1/Libsyscall.build/Libsyscall_dynamic.build/Objects-normal/x86_64/strcmp.o': can't open to read symbols: No such file or directory.
warning: `/private/var/tmp/Libsyscall/Libsyscall-2422.115.14~1/Libsyscall.build/Libsyscall_dynamic.build/Objects-normal/x86_64/strlcpy.o': can't open to read symbols: No such file or directory.
warning: `/private/var/tmp/Libsyscall/Libsyscall-2422.115.14~1/Libsyscall.build/Libsyscall_dynamic.build/Objects-normal/x86_64/strlen.o': can't open to read symbols: No such file or directory.
warning: Could not open OSO archive file "/BinaryCache/libplatform/libplatform-24.90.1~2/Symbols/libatomics_normal.a"
warning: Could not open OSO archive file "/BinaryCache/libplatform/libplatform-24.90.1~2/Symbols/libcachecontrol_normal.a"
warning: Could not open OSO archive file "/BinaryCache/libplatform/libplatform-24.90.1~2/Symbols/libos_normal.a"
warning: Could not open OSO archive file "/BinaryCache/libplatform/libplatform-24.90.1~2/Symbols/libsetjmp_normal.a"
warning: Could not open OSO archive file "/BinaryCache/libplatform/libplatform-24.90.1~2/Symbols/libsimple_normal.a"
warning: Could not open OSO archive file "/BinaryCache/libplatform/libplatform-24.90.1~2/Symbols/libstring_normal.a"
warning: Could not open OSO archive file "/BinaryCache/libplatform/libplatform-24.90.1~2/Symbols/libucontext_normal.a"
warning: `/private/var/tmp/libplatform/libplatform-24.90.1~2/libplatform.build/libsystem_platform.build/Objects-normal/x86_64/init.o': can't open to read symbols: No such file or directory.
warning: `/private/var/tmp/OSServices/OSServices-600.4~350/OSServices.build/OSServices.build/Objects-normal/x86_64/AppleIDAuthenticationClient.o': can't open to read symbols: No such file or directory.
warning: `/private/var/tmp/OSServices/OSServices-600.4~350/OSServices.build/OSServices.build/Objects-normal/x86_64/AppleIDAuthenticationCommon.o': can't open to read symbols: No such file or directory.
warning: `/private/var/tmp/OSServices/OSServices-600.4~350/OSServices.build/OSServices.build/Objects-normal/x86_64/AppleIDIdentity.o': can't open to read symbols: No such file or directory.
warning: `/private/var/tmp/OSServices/OSServices-600.4~350/OSServices.build/OSServices.build/Objects-normal/x86_64/AppleIDIdentityAuthority.o': can't open to read symbols: No such file or directory.
warning: `/private/var/tmp/OSServices/OSServices-600.4~350/OSServices.build/OSServices.build/Objects-normal/x86_64/AppleIDIdentityQuery.o': can't open to read symbols: No such file or directory.
warning: `/private/var/tmp/OSServices/OSServices-600.4~350/OSServices.build/OSServices.build/Objects-normal/x86_64/AppleIDKeychainItems.o': can't open to read symbols: No such file or directory.
warning: `/private/var/tmp/OSServices/OSServices-600.4~350/OSServices.build/OSServices.build/Objects-normal/x86_64/AppleIDLogging.o': can't open to read symbols: No such file or directory.
warning: `/private/var/tmp/OSServices/OSServices-600.4~350/OSServices.build/OSServices.build/Objects-normal/x86_64/BundleIconsCache.o': can't open to read symbols: No such file or directory.
warning: `/private/var/tmp/OSServices/OSServices-600.4~350/OSServices.build/OSServices.build/Objects-normal/x86_64/BundleUtils.o': can't open to read symbols: No such file or directory.
warning: `/private/var/tmp/OSServices/OSServices-600.4~350/OSServices.build/OSServices.build/Objects-normal/x86_64/CDynamicArray.o': can't open to read symbols: No such file or directory.
warning: `/private/var/tmp/OSServices/OSServices-600.4~350/OSServices.build/OSServices.build/Objects-normal/x86_64/CFUtilities.o': can't open to read symbols: No such file or directory.
warning: `/private/var/tmp/OSServices/OSServices-600.4~350/OSServices.build/OSServices.build/Objects-normal/x86_64/CIconFamilyHelper.o': can't open to read symbols: No such file or directory.
warning: `/private/var/tmp/OSServices/OSServices-600.4~350/OSServices.build/OSServices.build/Objects-normal/x86_64/CPlusAutoTypes.o': can't open to read symbols: No such file or directory.
warning: `/private/var/tmp/OSServices/OSServices-600.4~350/OSServices.build/OSServices.build/Objects-normal/x86_64/CPlusCFObject.o': can't open to read symbols: No such file or directory.
warning: `/private/var/tmp/OSServices/OSServices-600.4~350/OSServices.build/OSServices.build/Objects-normal/x86_64/CSAuthenticationSupportPriv.o': can't open to read symbols: No such file or directory.
warning: `/private/var/tmp/OSServices/OSServices-600.4~350/OSServices.build/OSServices.build/Objects-normal/x86_64/CSBackToMyMac.o': can't open to read symbols: No such file or directory.
warning: `/private/var/tmp/OSServices/OSServices-600.4~350/OSServices.build/OSServices.build/Objects-normal/x86_64/CSDebug.o': can't open to read symbols: No such file or directory.
warning: `/private/var/tmp/OSServices/OSServices-600.4~350/OSServices.build/OSServices.build/Objects-normal/x86_64/CSDebugUtils.o': can't open to read symbols: No such file or directory.
warning: `/private/var/tmp/OSServices/OSServices-600.4~350/OSServices.build/OSServices.build/Objects-normal/x86_64/CSDotMacCertificates.o': can't open to read symbols: No such file or directory.
warning: `/private/var/tmp/OSServices/OSServices-600.4~350/OSServices.build/OSServices.build/Objects-normal/x86_64/CSIdentity.o': can't open to read symbols: No such file or directory.
warning: `/private/var/tmp/OSServices/OSServices-600.4~350/OSServices.build/OSServices.build/Objects-normal/x86_64/CSIdentityAuthority.o': can't open to read symbols: No such file or directory.
warning: `/private/var/tmp/OSServices/OSServices-600.4~350/OSServices.build/OSServices.build/Objects-normal/x86_64/CSIdentityBase.o': can't open to read symbols: No such file or directory.
warning: `/private/var/tmp/OSServices/OSServices-600.4~350/OSServices.build/OSServices.build/Objects-normal/x86_64/CSIdentityQuery.o': can't open to read symbols: No such file or directory.
warning: `/private/var/tmp/OSServices/OSServices-600.4~350/OSServices.build/OSServices.build/Objects-normal/x86_64/CSUtilities.o': can't open to read symbols: No such file or directory.
warning: `/private/var/tmp/OSServices/OSServices-600.4~350/OSServices.build/OSServices.build/Objects-normal/x86_64/CertUtils.o': can't open to read symbols: No such file or directory.
warning: `/private/var/tmp/OSServices/OSServices-600.4~350/OSServices.build/OSServices.build/Objects-normal/x86_64/ClosureSource.o': can't open to read symbols: No such file or directory.
warning: `/private/var/tmp/OSServices/OSServices-600.4~350/OSServices.build/OSServices.build/Objects-normal/x86_64/DSCommon.o': can't open to read symbols: No such file or directory.
warning: `/private/var/tmp/OSServices/OSServices-600.4~350/OSServices.build/OSServices.build/Objects-normal/x86_64/DSIdentity.o': can't open to read symbols: No such file or directory.
warning: `/private/var/tmp/OSServices/OSServices-600.4~350/OSServices.build/OSServices.build/Objects-normal/x86_64/DSIdentityAuthority.o': can't open to read symbols: No such file or directory.
warning: `/private/var/tmp/OSServices/OSServices-600.4~350/OSServices.build/OSServices.build/Objects-normal/x86_64/DSIdentityQuery.o': can't open to read symbols: No such file or directory.
warning: `/private/var/tmp/OSServices/OSServices-600.4~350/OSServices.build/OSServices.build/Objects-normal/x86_64/DynamicApple80211.o': can't open to read symbols: No such file or directory.
warning: `/private/var/tmp/OSServices/OSServices-600.4~350/OSServices.build/OSServices.build/Objects-normal/x86_64/DynamicArray.o': can't open to read symbols: No such file or directory.
warning: `/private/var/tmp/OSServices/OSServices-600.4~350/OSServices.build/OSServices.build/Objects-normal/x86_64/DynamicDirectoryService.o': can't open to read symbols: No such file or directory.
warning: `/private/var/tmp/OSServices/OSServices-600.4~350/OSServices.build/OSServices.build/Objects-normal/x86_64/DynamicHeimODAdmin.o': can't open to read symbols: No such file or directory.
warning: `/private/var/tmp/OSServices/OSServices-600.4~350/OSServices.build/OSServices.build/Objects-normal/x86_64/DynamicServiceManagement.o': can't open to read symbols: No such file or directory.
warning: `/private/var/tmp/OSServices/OSServices-600.4~350/OSServices.build/OSServices.build/Objects-normal/x86_64/HTTPClosureSource.o': can't open to read symbols: No such file or directory.
warning: `/private/var/tmp/OSServices/OSServices-600.4~350/OSServices.build/OSServices.build/Objects-normal/x86_64/ISDebug.o': can't open to read symbols: No such file or directory.
warning: `/private/var/tmp/OSServices/OSServices-600.4~350/OSServices.build/OSServices.build/Objects-normal/x86_64/ISIconLoader.o': can't open to read symbols: No such file or directory.
warning: `/private/var/tmp/OSServices/OSServices-600.4~350/OSServices.build/OSServices.build/Objects-normal/x86_64/ISServer-509CD7F904B79E77.o': can't open to read symbols: No such file or directory.
warning: `/private/var/tmp/OSServices/OSServices-600.4~350/OSServices.build/OSServices.build/Objects-normal/x86_64/ISServerServer.o': can't open to read symbols: No such file or directory.
warning: `/private/var/tmp/OSServices/OSServices-600.4~350/OSServices.build/OSServices.build/Objects-normal/x86_64/ISServerUser.o': can't open to read symbols: No such file or directory.
warning: `/private/var/tmp/OSServices/OSServices-600.4~350/OSServices.build/OSServices.build/Objects-normal/x86_64/ISVolumeCache.o': can't open to read symbols: No such file or directory.
warning: `/private/var/tmp/OSServices/OSServices-600.4~350/OSServices.build/OSServices.build/Objects-normal/x86_64/IconFamily.o': can't open to read symbols: No such file or directory.
warning: `/private/var/tmp/OSServices/OSServices-600.4~350/OSServices.build/OSServices.build/Objects-normal/x86_64/IconStorage.o': can't open to read symbols: No such file or directory.
warning: `/private/var/tmp/OSServices/OSServices-600.4~350/OSServices.build/OSServices.build/Objects-normal/x86_64/Identity.o': can't open to read symbols: No such file or directory.
warning: `/private/var/tmp/OSServices/OSServices-600.4~350/OSServices.build/OSServices.build/Objects-normal/x86_64/IdentityAuthority.o': can't open to read symbols: No such file or directory.
warning: `/private/var/tmp/OSServices/OSServices-600.4~350/OSServices.build/OSServices.build/Objects-normal/x86_64/IdentityBase.o': can't open to read symbols: No such file or directory.
warning: `/private/var/tmp/OSServices/OSServices-600.4~350/OSServices.build/OSServices.build/Objects-normal/x86_64/IdentityQuery.o': can't open to read symbols: No such file or directory.
warning: `/private/var/tmp/OSServices/OSServices-600.4~350/OSServices.build/OSServices.build/Objects-normal/x86_64/OSServices_vers.o': can't open to read symbols: No such file or directory.
warning: `/private/var/tmp/OSServices/OSServices-600.4~350/OSServices.build/OSServices.build/Objects-normal/x86_64/Power.o': can't open to read symbols: No such file or directory.
warning: `/private/var/tmp/OSServices/OSServices-600.4~350/OSServices.build/OSServices.build/Objects-normal/x86_64/PowerPriv.o': can't open to read symbols: No such file or directory.
warning: `/private/var/tmp/OSServices/OSServices-600.4~350/OSServices.build/OSServices.build/Objects-normal/x86_64/SFLEntries.o': can't open to read symbols: No such file or directory.
warning: `/private/var/tmp/OSServices/OSServices-600.4~350/OSServices.build/OSServices.build/Objects-normal/x86_64/SFLEntry.o': can't open to read symbols: No such file or directory.
warning: `/private/var/tmp/OSServices/OSServices-600.4~350/OSServices.build/OSServices.build/Objects-normal/x86_64/SFLEntryBase.o': can't open to read symbols: No such file or directory.
warning: `/private/var/tmp/OSServices/OSServices-600.4~350/OSServices.build/OSServices.build/Objects-normal/x86_64/SFLItemsList.o': can't open to read symbols: No such file or directory.
warning: `/private/var/tmp/OSServices/OSServices-600.4~350/OSServices.build/OSServices.build/Objects-normal/x86_64/SFLListBase.o': can't open to read symbols: No such file or directory.
warning: `/private/var/tmp/OSServices/OSServices-600.4~350/OSServices.build/OSServices.build/Objects-normal/x86_64/SFLLocalTempEntry.o': can't open to read symbols: No such file or directory.
warning: `/private/var/tmp/OSServices/OSServices-600.4~350/OSServices.build/OSServices.build/Objects-normal/x86_64/SFLPrefsManager.o': can't open to read symbols: No such file or directory.
warning: `/private/var/tmp/OSServices/OSServices-600.4~350/OSServices.build/OSServices.build/Objects-normal/x86_64/SFLRemoteEntry.o': can't open to read symbols: No such file or directory.
warning: `/private/var/tmp/OSServices/OSServices-600.4~350/OSServices.build/OSServices.build/Objects-normal/x86_64/SFLServer-A33C11B912A5E12C.o': can't open to read symbols: No such file or directory.
warning: `/private/var/tmp/OSServices/OSServices-600.4~350/OSServices.build/OSServices.build/Objects-normal/x86_64/SFLServerAsyncServer.o': can't open to read symbols: No such file or directory.
warning: `/private/var/tmp/OSServices/OSServices-600.4~350/OSServices.build/OSServices.build/Objects-normal/x86_64/SFLServerAsyncUser.o': can't open to read symbols: No such file or directory.
warning: `/private/var/tmp/OSServices/OSServices-600.4~350/OSServices.build/OSServices.build/Objects-normal/x86_64/SFLServerAsync_ReplyUser.o': can't open to read symbols: No such file or directory.
warning: `/private/var/tmp/OSServices/OSServices-600.4~350/OSServices.build/OSServices.build/Objects-normal/x86_64/SFLServerServer.o': can't open to read symbols: No such file or directory.
warning: `/private/var/tmp/OSServices/OSServices-600.4~350/OSServices.build/OSServices.build/Objects-normal/x86_64/SFLServerUser.o': can't open to read symbols: No such file or directory.
warning: `/private/var/tmp/OSServices/OSServices-600.4~350/OSServices.build/OSServices.build/Objects-normal/x86_64/SFLSharePointsEntry.o': can't open to read symbols: No such file or directory.
warning: `/private/var/tmp/OSServices/OSServices-600.4~350/OSServices.build/OSServices.build/Objects-normal/x86_64/SFLSnapshotEntry.o': can't open to read symbols: No such file or directory.
warning: `/private/var/tmp/OSServices/OSServices-600.4~350/OSServices.build/OSServices.build/Objects-normal/x86_64/SFLVolumesEntry.o': can't open to read symbols: No such file or directory.
warning: `/private/var/tmp/OSServices/OSServices-600.4~350/OSServices.build/OSServices.build/Objects-normal/x86_64/SOAPWebServiceClosure.o': can't open to read symbols: No such file or directory.
warning: `/private/var/tmp/OSServices/OSServices-600.4~350/OSServices.build/OSServices.build/Objects-normal/x86_64/Scheduler.o': can't open to read symbols: No such file or directory.
warning: `/private/var/tmp/OSServices/OSServices-600.4~350/OSServices.build/OSServices.build/Objects-normal/x86_64/SharedFilesListService.o': can't open to read symbols: No such file or directory.
warning: `/private/var/tmp/OSServices/OSServices-600.4~350/OSServices.build/OSServices.build/Objects-normal/x86_64/StorageTree.o': can't open to read symbols: No such file or directory.
warning: `/private/var/tmp/OSServices/OSServices-600.4~350/OSServices.build/OSServices.build/Objects-normal/x86_64/SystemSoundGlue.o': can't open to read symbols: No such file or directory.
warning: `/private/var/tmp/OSServices/OSServices-600.4~350/OSServices.build/OSServices.build/Objects-normal/x86_64/SystemSoundImp.o': can't open to read symbols: No such file or directory.
warning: `/private/var/tmp/OSServices/OSServices-600.4~350/OSServices.build/OSServices.build/Objects-normal/x86_64/WSRunLoopSource.o': can't open to read symbols: No such file or directory.
warning: `/private/var/tmp/OSServices/OSServices-600.4~350/OSServices.build/OSServices.build/Objects-normal/x86_64/WebServiceClosure.o': can't open to read symbols: No such file or directory.
warning: `/private/var/tmp/OSServices/OSServices-600.4~350/OSServices.build/OSServices.build/Objects-normal/x86_64/WebServiceResult.o': can't open to read symbols: No such file or directory.
warning: `/private/var/tmp/OSServices/OSServices-600.4~350/OSServices.build/OSServices.build/Objects-normal/x86_64/WebServiceUtils.o': can't open to read symbols: No such file or directory.
warning: `/private/var/tmp/OSServices/OSServices-600.4~350/OSServices.build/OSServices.build/Objects-normal/x86_64/WebServices.o': can't open to read symbols: No such file or directory.
warning: `/private/var/tmp/OSServices/OSServices-600.4~350/OSServices.build/OSServices.build/Objects-normal/x86_64/XMLRPCWebServiceClosure.o': can't open to read symbols: No such file or directory.
warning: `/private/var/tmp/OSServices/OSServices-600.4~350/OSServices.build/OSServices.build/Objects-normal/x86_64/XMLVisitor.o': can't open to read symbols: No such file or directory.
warning: `/private/var/tmp/OSServices/OSServices-600.4~350/OSServices.build/OSServices.build/Objects-normal/x86_64/XPCHelpers.o': can't open to read symbols: No such file or directory.
warning: Could not open OSO archive file "/usr/local/UmbrellaPieces/Libraries/libSecurityCore.a"
ffmpeg version 3.0.git Copyright (c) 2000-2016 the FFmpeg developers
  built with clang version 3.7.0 (tags/RELEASE_370/final)
  configuration: --cc=clang-mp-3.7 --cxx=clang++-mp-3.7 --disable-ffplay --disable-ffprobe --disable-doc
  libavutil      55. 19.100 / 55. 19.100
  libavcodec     57. 28.103 / 57. 28.103
  libavformat    57. 28.102 / 57. 28.102
  libavdevice    57.  0.101 / 57.  0.101
  libavfilter     6. 39.102 /  6. 39.102
  libswscale      4.  0.100 /  4.  0.100
  libswresample   2.  0.101 /  2.  0.101
Splitting the commandline.
Reading option '-v' ... matched as option 'v' (set logging level) with argument '9'.
Reading option '-loglevel' ... matched as option 'loglevel' (set logging level) with argument '99'.
Reading option '-y' ... matched as option 'y' (overwrite output files) with argument '1'.
Reading option '-i' ... matched as input file with argument '/Volumes/Ramdisk/compile/FFmpeg-bug-5352/city_4cif.y4m'.
Reading option '-c:v' ... matched as option 'c' (codec name) with argument 'h264_videotoolbox'.
Reading option '-profile:v' ... matched as option 'profile' (set profile) with argument 'high'.
Reading option 'h264_videotoolbox.mp4' ... matched as output file.
Finished splitting the commandline.
Parsing a group of options: global .
Applying option v (set logging level) with argument 9.
Applying option y (overwrite output files) with argument 1.
Successfully parsed a group of options.
Parsing a group of options: input file /Volumes/Ramdisk/compile/FFmpeg-bug-5352/city_4cif.y4m.
Successfully parsed a group of options.
Opening an input file: /Volumes/Ramdisk/compile/FFmpeg-bug-5352/city_4cif.y4m.
[file @ 0x101d11020] Setting default whitelist 'file,crypto'
Probing yuv4mpegpipe score:100 size:2048
[yuv4mpegpipe @ 0x10200e600] Format yuv4mpegpipe probed with size=2048 and score=100
[yuv4mpegpipe @ 0x10200e600] Before avformat_find_stream_info() pos: 38 bytes read:32768 seeks:0
[yuv4mpegpipe @ 0x10200e600] All info found
[yuv4mpegpipe @ 0x10200e600] 0: start_time: 0.000 duration: 0.001
[yuv4mpegpipe @ 0x10200e600] stream: start_time: 0.000 duration: 10.000 bitrate=291965 kb/s
[yuv4mpegpipe @ 0x10200e600] After avformat_find_stream_info() pos: 608300 bytes read:608300 seeks:0 frames:1
Input #0, yuv4mpegpipe, from '/Volumes/Ramdisk/compile/FFmpeg-bug-5352/city_4cif.y4m':
  Duration: 00:00:10.00, start: 0.000000, bitrate: 291965 kb/s
    Stream #0:0, 1, 1/60: Video: rawvideo, 1 reference frame (I420 / 0x30323449), yuv420p, 704x576, 1/60, SAR 128:117 DAR 1408:1053, 60 fps, 60 tbr, 60 tbn, 60 tbc
Successfully opened the file.
Parsing a group of options: output file h264_videotoolbox.mp4.
Applying option c:v (codec name) with argument h264_videotoolbox.
Applying option profile:v (set profile) with argument high.
Successfully parsed a group of options.
Opening an output file: h264_videotoolbox.mp4.
[file @ 0x101d122a0] Setting default whitelist 'file,crypto'
Successfully opened the file.
detected 8 logical cores
[graph 0 input from stream 0:0 @ 0x102c00380] Setting 'video_size' to value '704x576'
[graph 0 input from stream 0:0 @ 0x102c00380] Setting 'pix_fmt' to value '0'
[graph 0 input from stream 0:0 @ 0x102c00380] Setting 'time_base' to value '1/60'
[graph 0 input from stream 0:0 @ 0x102c00380] Setting 'pixel_aspect' to value '128/117'
[graph 0 input from stream 0:0 @ 0x102c00380] Setting 'sws_param' to value 'flags=2'
[graph 0 input from stream 0:0 @ 0x102c00380] Setting 'frame_rate' to value '60/1'
[graph 0 input from stream 0:0 @ 0x102c00380] w:704 h:576 pixfmt:yuv420p tb:1/60 fr:60/1 sar:128/117 sws_param:flags=2
[format @ 0x102c009a0] compat: called with args=[nv12|yuv420p]
[format @ 0x102c009a0] Setting 'pix_fmts' to value 'nv12|yuv420p'
[AVFilterGraph @ 0x101d10e00] query_formats: 4 queried, 3 merged, 0 already done, 0 delayed
[New Thread 0x185f of process 10345]
[New Thread 0x1923 of process 10345]
[New Thread 0x1a0b of process 10345]
[New Thread 0x1b0b of process 10345]
[New Thread 0x1c0b of process 10345]
[New Thread 0x1d0b of process 10345]
[New Thread 0x1e0b of process 10345]
[New Thread 0x1f0b of process 10345]
[New Thread 0x200b of process 10345]
[New Thread 0x2123 of process 10345]
[New Thread 0x222b of process 10345]
[New Thread 0x2427 of process 10345]
Output #0, mp4, to 'h264_videotoolbox.mp4':
  Metadata:
    encoder         : Lavf57.28.102
    Stream #0:0, 0, 1/15360: Video: h264 (h264_videotoolbox), 1 reference frame ([33][0][0][0] / 0x0021), yuv420p, 704x576 [SAR 128:117 DAR 1408:1053], 1/60, q=2-31, 200 kb/s, 60 fps, 15360 tbn, 60 tbc
    Metadata:
      encoder         : Lavc57.28.103 h264_videotoolbox
Stream mapping:
  Stream #0:0 -> #0:0 (rawvideo (native) -> h264 (h264_videotoolbox))
Press [q] to stop, [?] for help
cur_dts is invalid (this is harmless if it occurs once at the start per stream)
[rawvideo @ 0x10201f600] PACKET SIZE: 608256, STRIDE: 1056
Clipping frame in rate conversion by 0.000008
[h264_videotoolbox @ 0x102020800] Color range not set for YUV 4:2:0. Using MPEG range.
cur_dts is invalid (this is harmless if it occurs once at the start per stream)
[rawvideo @ 0x10201f600] PACKET SIZE: 608256, STRIDE: 1056
cur_dts is invalid (this is harmless if it occurs once at the start per stream)
[rawvideo @ 0x10201f600] PACKET SIZE: 608256, STRIDE: 1056
cur_dts is invalid (this is harmless if it occurs once at the start per stream)
[rawvideo @ 0x10201f600] PACKET SIZE: 608256, STRIDE: 1056
cur_dts is invalid (this is harmless if it occurs once at the start per stream)
[rawvideo @ 0x10201f600] PACKET SIZE: 608256, STRIDE: 1056
cur_dts is invalid (this is harmless if it occurs once at the start per stream)
[rawvideo @ 0x10201f600] PACKET SIZE: 608256, STRIDE: 1056
cur_dts is invalid (this is harmless if it occurs once at the start per stream)
[rawvideo @ 0x10201f600] PACKET SIZE: 608256, STRIDE: 1056
cur_dts is invalid (this is harmless if it occurs once at the start per stream)
[rawvideo @ 0x10201f600] PACKET SIZE: 608256, STRIDE: 1056
cur_dts is invalid (this is harmless if it occurs once at the start per stream)
[rawvideo @ 0x10201f600] PACKET SIZE: 608256, STRIDE: 1056
    Last message repeated 104 times
[rawvideo @ 0x10201f600] PACKET SIZE: 608256, STRIDE: 10565 bitrate= 571.2kbits/s speed=3.49x    
    Last message repeated 107 times
[rawvideo @ 0x10201f600] PACKET SIZE: 608256, STRIDE: 10565 bitrate= 533.7kbits/s speed=3.53x    
    Last message repeated 106 times
[rawvideo @ 0x10201f600] PACKET SIZE: 608256, STRIDE: 10563 bitrate= 530.9kbits/s speed=3.54x    
    Last message repeated 108 times
[rawvideo @ 0x10201f600] PACKET SIZE: 608256, STRIDE: 10565 bitrate= 510.6kbits/s speed=3.56x    
    Last message repeated 110 times
[rawvideo @ 0x10201f600] PACKET SIZE: 608256, STRIDE: 10560 bitrate= 496.4kbits/s speed=3.58x    
    Last message repeated 51 times
[output stream 0:0 @ 0x102c006e0] EOF on sink link output stream 0:0:default.
No more output streams to write to, finishing.
frame=  600 fps=215 q=-0.0 Lsize=     605kB time=00:00:10.00 bitrate= 495.7kbits/s speed=3.59x    
video:602kB audio:0kB subtitle:0kB other streams:0kB global headers:0kB muxing overhead: 0.557511%
Input file #0 (/Volumes/Ramdisk/compile/FFmpeg-bug-5352/city_4cif.y4m):
  Input stream #0:0 (video): 600 packets read (364953600 bytes); 600 frames decoded; 
  Total: 600 packets (364953600 bytes) demuxed
Output file #0 (h264_videotoolbox.mp4):
  Output stream #0:0 (video): 600 frames encoded; 600 packets muxed (616131 bytes); 
  Total: 600 packets (616131 bytes) muxed
600 frames successfully decoded, 0 decoding errors
[AVIOContext @ 0x101d0c560] Statistics: 34 seeks, 627 writeouts
[AVIOContext @ 0x101d11140] Statistics: 364957238 bytes read, 0 seeks
[Inferior 1 (process 10345) exited normally]

comment:7 by Rick Kern, 6 years ago

Can you pull the bug/5352 branch and try with the latest changes?

in reply to:  7 comment:8 by ponpon, 6 years ago

Replying to kernrj:
excellent!! good results on all profiles. cheers for good work.

comment and request
comment
doesn't VideoToolbox H.264 Encoder output a proper size to display? probably VideoToolbox H.264 doesn't set par or sar on a video stream.
i tried

ffmpeg  -y -i city_4cif.y4m -c:v h264_videotoolbox -profile:v high -vf scale=720:480 -aspect 4:3 h264_videotoolbox.264
ffmpeg  -y -i city_4cif.y4m -c:v h264_videotoolbox -profile:v high -vf scale=720:480 -aspect 4:3 h264_videotoolbox.mp4
ffmpeg  -y -i city_4cif.y4m -c:v libx264 -profile:v high -vf scale=720:480 -aspect 4:3 libx264.264

only h264_videotoolbox.264 isn't properly displayed with mpv. can't confirm display aspect ratio.
seeing videotoolboxenc.c, kVTCompressionPropertyKey_CleanAperture and kVTCompressionPropertyKey_PixelAspectRatio aren't supported. is it a cause?

request of support for the below properties in VTCompressionSession.h.
in particular, i strongly request kVTCompressionPropertyKey_Quality, kVTCompressionPropertyKey_FieldCount, and kVTCompressionPropertyKey_FieldDetail.

for options of general encoding
kVTCompressionPropertyKey_MaxKeyFrameIntervalDuration
kVTCompressionPropertyKey_AllowTemporalCompression
kVTCompressionPropertyKey_DataRateLimits
kVTCompressionPropertyKey_Quality
kVTCompressionPropertyKey_H264EntropyMode

for capture or real-time distribution? i don't well understand the below.
kVTCompressionPropertyKey_MoreFramesBeforeStart
kVTCompressionPropertyKey_MoreFramesAfterEnd
kVTCompressionPropertyKey_MaxH264SliceBytes

for capture or real-time distribution
kVTCompressionPropertyKey_RealTime

for confirming whether hardware encoding or not
kVTCompressionPropertyKey_UsingHardwareAcceleratedVideoEncoder

for interlaced encoding
kVTCompressionPropertyKey_FieldCount
kVTCompressionPropertyKey_FieldDetail

for proper color to display
kVTCompressionPropertyKey_ColorPrimaries
kVTCompressionPropertyKey_TransferFunction
kVTCompressionPropertyKey_YCbCrMatrix

Last edited 6 years ago by ponpon (previous) (diff)

by ponpon, 6 years ago

Attachment: h264_videotoolbox.264 added

by ponpon, 6 years ago

Attachment: h264_videotoolbox.mp4 added

by ponpon, 6 years ago

Attachment: libx264.264 added

comment:9 by Rick Kern, 6 years ago

Resolution: fixed
Status: openclosed

Thanks for testing those fixes. I'll close this ticket, but please make a new one with the properties you mentioned.

comment:10 by Carl Eugen Hoyos, 6 years ago

Resolution: fixed
Status: closedreopened

Please close this ticket once it is fixed in current FFmpeg git head.

in reply to:  9 comment:11 by ponpon, 6 years ago

Replying to kernrj:
yes

comment:12 by Rick Kern, 6 years ago

Resolution: fixed
Status: reopenedclosed
Note: See TracTickets for help on using tickets.