Opened 3 years ago

Last modified 3 years ago

#5270 open defect

avid jpeg2000: 1980x1080 decodes as 1980x540

Reported by: ami_stuff Owned by:
Priority: normal Component: avformat
Version: git-master Keywords: mov j2k
Cc: Blocked By:
Blocking: Reproduced by developer: yes
Analyzed by developer: no

Description

http://www.datafilehost.com/d/88a38da5

C:\>ffmpeg -i avid_avj2_1920_1080.mov.mov out.avi
ffmpeg version N-78598-g98a0053 Copyright (c) 2000-2016 the FFmpeg developers
  built with gcc 5.3.0 (GCC)
  configuration: --enable-gpl --enable-version3 --disable-w32threads --enable-av
isynth --enable-bzlib --enable-fontconfig --enable-frei0r --enable-gnutls --enab
le-iconv --enable-libass --enable-libbluray --enable-libbs2b --enable-libcaca --
enable-libdcadec --enable-libfreetype --enable-libgme --enable-libgsm --enable-l
ibilbc --enable-libmodplug --enable-libmp3lame --enable-libopencore-amrnb --enab
le-libopencore-amrwb --enable-libopenjpeg --enable-libopus --enable-librtmp --en
able-libschroedinger --enable-libsoxr --enable-libspeex --enable-libtheora --ena
ble-libtwolame --enable-libvidstab --enable-libvo-amrwbenc --enable-libvorbis --
enable-libvpx --enable-libwavpack --enable-libwebp --enable-libx264 --enable-lib
x265 --enable-libxavs --enable-libxvid --enable-libzimg --enable-lzma --enable-d
ecklink --enable-zlib
  libavutil      55. 18.100 / 55. 18.100
  libavcodec     57. 24.103 / 57. 24.103
  libavformat    57. 25.101 / 57. 25.101
  libavdevice    57.  0.101 / 57.  0.101
  libavfilter     6. 34.100 /  6. 34.100
  libswscale      4.  0.100 /  4.  0.100
  libswresample   2.  0.101 /  2.  0.101
  libpostproc    54.  0.100 / 54.  0.100
Input #0, mov,mp4,m4a,3gp,3g2,mj2, from 'avid_avj2_1920_1080.mov.m
ov':
  Metadata:
    major_brand     : qt
    minor_version   : 537199360
    compatible_brands: qt
    creation_time   : 2016-02-25 00:39:46
    com.apple.quicktime.software: Sorenson Squeeze
    com.apple.quicktime.comment: Encoded by
  Duration: 00:00:01.52, start: 0.000000, bitrate: 65504 kb/s
    Stream #0:0(eng): Video: jpeg2000 (JPEG 2000 codestream restriction 0) (AVj2
 / 0x326A5641), yuv422p10le(tv), 1920x540, 65497 kb/s, 25 fps, 25 tbr, 600 tbn,
600 tbc (default)
    Metadata:
      creation_time   : 2016-02-25 00:39:46
      handler_name    : Procedura obs│ugi skr≤t≤w danych Apple
      encoder         : JPEG2000
Output #0, avi, to 'out.avi':
  Metadata:
    major_brand     : qt
    minor_version   : 537199360
    compatible_brands: qt
    com.apple.quicktime.comment: Encoded by
    com.apple.quicktime.software: Sorenson Squeeze
    ISFT            : Lavf57.25.101
    Stream #0:0(eng): Video: mpeg4 (FMP4 / 0x34504D46), yuv420p, 1920x540, q=2-3
1, 200 kb/s, 25 fps, 25 tbn, 25 tbc (default)
    Metadata:
      creation_time   : 2016-02-25 00:39:46
      handler_name    : Procedura obs│ugi skr≤t≤w danych Apple
      encoder         : Lavc57.24.103 mpeg4
    Side data:
      cpb: bitrate max/min/avg: 0/0/200000 buffer size: 0 vbv_delay: -1
Stream mapping:
  Stream #0:0 -> #0:0 (jpeg2000 (native) -> mpeg4 (native))
Press [q] to stop, [?] for help
[jpeg2000 @ 06726460] End mismatch 1
[jpeg2000 @ 0758eb60] End mismatch 1
[jpeg2000 @ 06726460] End mismatch 1
frame=    5 fps=0.0 q=4.3 size=     143kB time=00:00:00.20 bitrate=5846.7kbits/s
[jpeg2000 @ 0758eb60] End mismatch 1
[jpeg2000 @ 06726460] End mismatch 1
[jpeg2000 @ 0758eb60] End mismatch 1
frame=   11 fps=9.7 q=21.3 size=     162kB time=00:00:00.44 bitrate=3019.8kbits/
[jpeg2000 @ 05e2d8c0] End mismatch 1
    Last message repeated 1 times
frame=   15 fps=8.6 q=30.2 size=     185kB time=00:00:00.60 bitrate=2531.5kbits/
[jpeg2000 @ 05e2d8c0] End mismatch 1
[jpeg2000 @ 0758eb60] End mismatch 1
[jpeg2000 @ 05e2d8c0] End mismatch 1
frame=   22 fps=9.0 q=31.0 size=     204kB time=00:00:00.88 bitrate=1894.5kbits/
frame=   28 fps=9.1 q=31.0 size=     231kB time=00:00:01.12 bitrate=1690.8kbits/
[jpeg2000 @ 0758eb60] End mismatch 1
[jpeg2000 @ 05e2d8c0] End mismatch 1
frame=   34 fps=9.3 q=31.0 size=     248kB time=00:00:01.36 bitrate=1493.3kbits/
[jpeg2000 @ 05e2d8c0] End mismatch 1
frame=   38 fps=9.4 q=31.0 Lsize=     273kB time=00:00:01.52 bitrate=1470.5kbits
/s speed=0.374x
video:266kB audio:0kB subtitle:0kB other streams:0kB global headers:0kB muxing o
verhead: 2.427364%

Change History (3)

comment:1 Changed 3 years ago by cehoyos

  • Component changed from undetermined to avformat
  • Keywords mov j2k added
  • Reproduced by developer set
  • Status changed from new to open
  • Version changed from unspecified to git-master

Closely related to ticket #1102

comment:2 follow-up: Changed 3 years ago by ami_stuff

Note: See TracTickets for help on using tickets.