Opened 3 years ago

Closed 3 years ago

#5113 closed defect (fixed)

ffmpeg version 2.8.4 "zoompan" error, didn't occur in 2.6

Reported by: Glenn Owned by:
Priority: important Component: avfilter
Version: git-master Keywords: zoompan regression crash
Cc: Blocked By:
Blocking: Reproduced by developer: yes
Analyzed by developer: no

Description

Summary of the bug:
After upgrading to the latest version of ffmpeg version 2.8.4, I now get an error with the "zoompan" complex filter. This ran fine on an earlier version (2.6). If I remove that particular command the process runs.

Command:

ffmpeg -loop 1 -i /Users/tmp/video/15761/img0.jpg -loop 1 -i /Users/tmp/video/15761/img1.jpg -loop 1 -i /Users/tmp/video/15761/img2.jpg -loop 1 -i /Users/Glenn?/tmp/video/15761/img3.jpg -filter_complex " nullsrc=size=1280x760 [base]; [0:v] setpts=PTS-STARTPTS,scale=640x380 [upperleft];[1:v] setpts=PTS-STARTPTS,scale=640x380 [upperright];[2:v] setpts=PTS-STARTPTS,scale=640x380 [lowerleft];[3:v] setpts=PTS-STARTPTS,scale=640x380 [lowerright];[base][upperleft] overlay=shortest=1 [tmp1];[tmp1][upperright] overlay=shortest=1:x=640 [tmp2];[tmp2][lowerleft] overlay=shortest=1:y=380 [tmp3];[tmp3][lowerright] overlay=shortest=1:x=640:y=380",zoompan=z="min(zoom+0.0015\,1.5)":d=700:x="if(gte(zoom\,1.5)\,x\,x+1/a)":y="if(gte(zoom\,1.5)\,y\,y+1)":s=1280x720,drawbox=enable="gt(t\,1)*lt(t\,7)":x="(iw/6)":y="(ih/2)-100":color=black@0.7:width=iw/1.5:height=100:t=max,drawbox=enable="gt(t\,1)*lt(t\,7)":x="(iw/3)":y="(ih/1.9)":color=black@0.7:width=iw/3:height=110:t=max,"drawtext=fontfile=/Users/Glenn/Documents?/rails_one_click/RiverCloud_vr2/vendor/assets/fonts/GONGN.ttf:fontcolor=white:x=(w-text_w)/2:y=(h-text_h-line_h)/2.2:text=The End:fontsize=38","drawtext=fontfile=/Users/Glenn/Documents/rails_one_click/RiverCloud_vr2/vendor/assets/fonts/GONGN.ttf:fontcolor=white:x=(w-text_w)/2:y=(h-text_h-line_h)/1.7:text=Thursday:fontsize=28","drawtext=fontfile=/Users/Glenn/Documents/rails_one_click/RiverCloud_vr2/vendor/assets/fonts/GONGN.ttf:fontcolor=white:x=(w-text_w)/2:y=(h-text_h-line_h)/1.5:text=December 31 2015:fontsize=28","fps=30" -t 5 -c:v libx264 -y /Users/tmp/video/15761/theend_video.mp4

Error Message:
swscaler @ 0x7fd6b23efe00] Warning: data is not aligned! This can lead to a speedloss
[output stream 0:0 @ 0x7fd6b0c2c2a0] 100 buffers queued in output stream 0:0, something may be wrong.
ffmpeg(42836,0x7fff797f9300) malloc: * error for object 0x7fd6b0c34020: pointer being freed was not allocated
* set a breakpoint in malloc_error_break to debug
ffmpeg version 2.8.4 Copyright (c) 2000-2015 the FFmpeg developers

built with Apple LLVM version 7.0.2 (clang-700.1.81)
configuration: --prefix=/usr/local/Cellar/ffmpeg/2.8.4 --enable-shared --enable-pthreads --enable-gpl --enable-version3 --enable-hardcoded-tables --enable-avresample --cc=/usr/bin/clang --host-cflags='-Os -w -pipe -march=native -mmacosx-version-min=10.10' --host-ldflags='-L/usr/local/opt/icu4c/lib -L/usr/local/opt/libffi/lib -L/usr/local/opt/gettext/lib -L/usr/local/lib -Wl,-headerpad_max_install_names' --enable-opencl --enable-libx264 --enable-libmp3lame --enable-libvo-aacenc --enable-libxvid --enable-libfreetype --enable-libvorbis --enable-libvpx --enable-libass --enable-ffplay --enable-libfdk-aac --enable-libopus --enable-libquvi --enable-libx265 --enable-nonfree --enable-vda
libavutil 54. 31.100 / 54. 31.100
libavcodec 56. 60.100 / 56. 60.100
libavformat 56. 40.101 / 56. 40.101
libavdevice 56. 4.100 / 56. 4.100
libavfilter 5. 40.101 / 5. 40.101
libavresample 2. 1. 0 / 2. 1. 0
libswscale 3. 1.101 / 3. 1.101
libswresample 1. 2.101 / 1. 2.101
libpostproc 53. 3.100 / 53. 3.100

[mov,mp4,m4a,3gp,3g2,mj2 @ 0x7faee1800000] moov atom not found

Change History (12)

comment:1 Changed 3 years ago by Glenn

  • Component changed from undetermined to swscale

comment:2 Changed 3 years ago by Glenn

Here is the actual input command and output.

fmpeg version 2.8.4 Copyright (c) 2000-2015 the FFmpeg developers

built with Apple LLVM version 7.0.2 (clang-700.1.81)
configuration: --prefix=/usr/local/Cellar/ffmpeg/2.8.4 --enable-shared --enable-pthreads --enable-gpl --enable-version3 --enable-hardcoded-tables --enable-avresample --cc=/usr/bin/clang --host-cflags='-Os -w -pipe -march=native -mmacosx-version-min=10.10' --host-ldflags='-L/usr/local/opt/icu4c/lib -L/usr/local/opt/libffi/lib -L/usr/local/opt/gettext/lib -L/usr/local/lib -Wl,-headerpad_max_install_names' --enable-opencl --enable-libx264 --enable-libmp3lame --enable-libvo-aacenc --enable-libxvid --enable-libfreetype --enable-libvorbis --enable-libvpx --enable-libass --enable-ffplay --enable-libfdk-aac --enable-libopus --enable-libquvi --enable-libx265 --enable-nonfree --enable-vda
libavutil 54. 31.100 / 54. 31.100
libavcodec 56. 60.100 / 56. 60.100
libavformat 56. 40.101 / 56. 40.101
libavdevice 56. 4.100 / 56. 4.100
libavfilter 5. 40.101 / 5. 40.101
libavresample 2. 1. 0 / 2. 1. 0
libswscale 3. 1.101 / 3. 1.101
libswresample 1. 2.101 / 1. 2.101
libpostproc 53. 3.100 / 53. 3.100

[mjpeg @ 0x7ff27c01ca00] Changeing bps to 8
Input #0, image2, from '/Users/Glenn/Documents?/rails_one_click/RiverCloud_vr2/tmp/video/15761/img0.jpg':

Duration: 00:00:00.04, start: 0.000000, bitrate: 23503 kb/s

Stream #0:0: Video: mjpeg, yuvj420p(pc, bt470bg/unknown/unknown), 600x600 [SAR 1:1 DAR 1:1], 25 fps, 25 tbr, 25 tbn, 25 tbc

[mjpeg @ 0x7ff27d800600] Changeing bps to 8
Input #1, image2, from '/Users/Glenn/Documents?/rails_one_click/RiverCloud_vr2/tmp/video/15761/img1.jpg':

Duration: 00:00:00.04, start: 0.000000, bitrate: 10574 kb/s

Stream #1:0: Video: mjpeg, yuvj420p(pc, bt470bg/unknown/unknown), 640x640 [SAR 1:1 DAR 1:1], 25 fps, 25 tbr, 25 tbn, 25 tbc

[mjpeg @ 0x7ff27c025600] Changeing bps to 8
Input #2, image2, from '/Users/Glenn/Documents?/rails_one_click/RiverCloud_vr2/tmp/video/15761/img2.jpg':

Duration: 00:00:00.04, start: 0.000000, bitrate: 20751 kb/s

Stream #2:0: Video: mjpeg, yuvj420p(pc, bt470bg/unknown/unknown), 640x640 [SAR 1:1 DAR 1:1], 25 fps, 25 tbr, 25 tbn, 25 tbc

[mjpeg @ 0x7ff27c076400] Changeing bps to 8
Input #3, image2, from '/Users/Glenn/Documents?/rails_one_click/RiverCloud_vr2/tmp/video/15761/img3.jpg':

Duration: 00:00:00.04, start: 0.000000, bitrate: 14931 kb/s

Stream #3:0: Video: mjpeg, yuvj420p(pc, bt470bg/unknown/unknown), 600x800 [SAR 1:1 DAR 3:4], 25 fps, 25 tbr, 25 tbn, 25 tbc

[swscaler @ 0x7ff27c820200] deprecated pixel format used, make sure you did set range correctly
[swscaler @ 0x7ff27c849000] deprecated pixel format used, make sure you did set range correctly
[swscaler @ 0x7ff27cd2ee00] deprecated pixel format used, make sure you did set range correctly
[swscaler @ 0x7ff27cd51600] deprecated pixel format used, make sure you did set range correctly
[libx264 @ 0x7ff27c803400] using SAR=1/1
[libx264 @ 0x7ff27c803400] using cpu capabilities: MMX2 SSE2Fast SSSE3 SSE4.2 AVX FMA3 AVX2 LZCNT BMI2
[libx264 @ 0x7ff27c803400] profile High, level 3.1
[libx264 @ 0x7ff27c803400] 264 - core 148 r2601 a0cd7d3 - H.264/MPEG-4 AVC codec - Copyleft 2003-2015 - http://www.videolan.org/x264.html - options: cabac=1 ref=3 deblock=1:0:0 analyse=0x3:0x113 me=hex subme=7 psy=1 psy_rd=1.00:0.00 mixed_ref=1 me_range=16 chroma_me=1 trellis=1 8x8dct=1 cqm=0 deadzone=21,11 fast_pskip=1 chroma_qp_offset=-2 threads=6 lookahead_threads=1 sliced_threads=0 nr=0 decimate=1 interlaced=0 bluray_compat=0 constrained_intra=0 bframes=3 b_pyramid=2 b_adapt=1 b_bias=0 direct=1 weightb=1 open_gop=0 weightp=2 keyint=250 keyint_min=25 scenecut=40 intra_refresh=0 rc_lookahead=40 rc=crf mbtree=1 crf=23.0 qcomp=0.60 qpmin=0 qpmax=69 qpstep=4 ip_ratio=1.40 aq=1:1.00
Output #0, mp4, to '/Users/Glenn/Documents?/rails_one_click/RiverCloud_vr2/tmp/video/15761/theend_video.mp4':

Metadata:

encoder : Lavf56.40.101
Stream #0:0: Video: h264 (libx264) ([33][0][0][0] / 0x0021), yuv420p, 1280x720 [SAR 1:1 DAR 16:9], q=-1--1, 30 fps, 15360 tbn, 30 tbc (default)
Metadata:

encoder : Lavc56.60.100 libx264

Stream mapping:

Stream #0:0 (mjpeg) -> setpts
Stream #1:0 (mjpeg) -> setpts
Stream #2:0 (mjpeg) -> setpts
Stream #3:0 (mjpeg) -> setpts
fps -> Stream #0:0 (libx264)

Press [q] to stop, ? for help
[swscaler @ 0x7ff27d5bc000] Warning: data is not aligned! This can lead to a speedloss
[output stream 0:0 @ 0x7ff27bd108a0] 100 buffers queued in output stream 0:0, something may be wrong.
ffmpeg(59569,0x7fff797f9300) malloc: * error for object 0x7ff27bc42c60: pointer being freed was not allocated
* set a breakpoint in malloc_error_break to debug

comment:3 Changed 3 years ago by cehoyos

  • Component changed from swscale to undetermined
  • Keywords regression added; ffmpeg 2.8.4 removed

Is this issue also reproducible with current FFmpeg git head?

comment:4 Changed 3 years ago by richardpl

  • Summary changed from ffmpeg version 2.8.4 “zoompan” error, didn't occur in 2.6 to ffmpeg version 2.8.4 "zoompan" error, didn't occur in 2.6

Could this be reproduced with less complex filtergraph?

comment:5 Changed 3 years ago by Glenn

I am compiling the most recent git head locally and will report back. I had pulled and complied the most recent git version on an EC2 instance and had the same segmentation error. But that was a few weeks ago.

Thanks,

Glenn

comment:6 Changed 3 years ago by Glenn

Running with the latest build and still get the segmentation error. Also, reproduced with a very simple input and zoompan.

ffmpeg version N-77595-g77eeaa2 Copyright (c) 2000-2015 the FFmpeg developers

built with Apple LLVM version 7.0.2 (clang-700.1.81)
configuration: --prefix=/usr/local/ffmpeg-latest --extra-cflags=-I/usr/local/Cellar/include --extra-ldflags=-L/usr/local/Cellar/lib --enable-shared --enable-pthreads --enable-gpl --enable-version3 --enable-nonfree --enable-hardcoded-tables --enable-avresample --enable-vda --cc=cc --host-cflags= --host-ldflags= --enable-libx264 --enable-libmp3lame --enable-libxvid --enable-libfreetype --enable-libtheora --enable-libvorbis --enable-libvpx --enable-librtmp --enable-libopencore-amrnb --enable-libopencore-amrwb --enable-libvo-aacenc --enable-libass --enable-ffplay --enable-libspeex --enable-libschroedinger --enable-libfdk-aac --enable-libopus --enable-libopenjpeg --extra-cflags=-I/usr/local/Cellar/openjpeg/1.5.1/include/openjpeg-1.5
libavutil 55. 11.100 / 55. 11.100
libavcodec 57. 21.100 / 57. 21.100
libavformat 57. 21.100 / 57. 21.100
libavdevice 57. 0.100 / 57. 0.100
libavfilter 6. 22.100 / 6. 22.100
libavresample 3. 0. 0 / 3. 0. 0
libswscale 4. 0.100 / 4. 0.100
libswresample 2. 0.101 / 2. 0.101
libpostproc 54. 0.100 / 54. 0.100

[mjpeg @ 0x7fd0a4811000] Changing bps to 8
Input #0, image2, from '/Users/Glenn/Documents?/rails_one_click/RiverCloud_vr2/tmp/video/15761/img0.jpg':

Duration: 00:00:00.04, start: 0.000000, bitrate: 23503 kb/s

Stream #0:0: Video: mjpeg, yuvj420p(pc, bt470bg/unknown/unknown), 600x600 [SAR 1:1 DAR 1:1], 25 fps, 25 tbr, 25 tbn, 25 tbc

[mjpeg @ 0x7fd0a3816600] Changing bps to 8
Input #1, image2, from '/Users/Glenn/Documents?/rails_one_click/RiverCloud_vr2/tmp/video/15761/img1.jpg':

Duration: 00:00:00.04, start: 0.000000, bitrate: 10574 kb/s

Stream #1:0: Video: mjpeg, yuvj420p(pc, bt470bg/unknown/unknown), 640x640 [SAR 1:1 DAR 1:1], 25 fps, 25 tbr, 25 tbn, 25 tbc

[mjpeg @ 0x7fd0a4082000] Changing bps to 8
Input #2, image2, from '/Users/Glenn/Documents?/rails_one_click/RiverCloud_vr2/tmp/video/15761/img2.jpg':

Duration: 00:00:00.04, start: 0.000000, bitrate: 20751 kb/s

Stream #2:0: Video: mjpeg, yuvj420p(pc, bt470bg/unknown/unknown), 640x640 [SAR 1:1 DAR 1:1], 25 fps, 25 tbr, 25 tbn, 25 tbc

[mjpeg @ 0x7fd0a407b200] Changing bps to 8
Input #3, image2, from '/Users/Glenn/Documents?/rails_one_click/RiverCloud_vr2/tmp/video/15761/img3.jpg':

Duration: 00:00:00.04, start: 0.000000, bitrate: 14931 kb/s

Stream #3:0: Video: mjpeg, yuvj420p(pc, bt470bg/unknown/unknown), 600x800 [SAR 1:1 DAR 3:4], 25 fps, 25 tbr, 25 tbn, 25 tbc

[swscaler @ 0x7fd0a4838c00] deprecated pixel format used, make sure you did set range correctly
[swscaler @ 0x7fd0a3838800] deprecated pixel format used, make sure you did set range correctly
[swscaler @ 0x7fd0a51a2400] deprecated pixel format used, make sure you did set range correctly
[swscaler @ 0x7fd0a51caa00] deprecated pixel format used, make sure you did set range correctly
[libx264 @ 0x7fd0a3863a00] using SAR=1/1
[libx264 @ 0x7fd0a3863a00] using cpu capabilities: MMX2 SSE2Fast SSSE3 SSE4.2 AVX FMA3 AVX2 LZCNT BMI2
[libx264 @ 0x7fd0a3863a00] profile High, level 3.1
[libx264 @ 0x7fd0a3863a00] 264 - core 148 r2601 a0cd7d3 - H.264/MPEG-4 AVC codec - Copyleft 2003-2015 - http://www.videolan.org/x264.html - options: cabac=1 ref=3 deblock=1:0:0 analyse=0x3:0x113 me=hex subme=7 psy=1 psy_rd=1.00:0.00 mixed_ref=1 me_range=16 chroma_me=1 trellis=1 8x8dct=1 cqm=0 deadzone=21,11 fast_pskip=1 chroma_qp_offset=-2 threads=6 lookahead_threads=1 sliced_threads=0 nr=0 decimate=1 interlaced=0 bluray_compat=0 constrained_intra=0 bframes=3 b_pyramid=2 b_adapt=1 b_bias=0 direct=1 weightb=1 open_gop=0 weightp=2 keyint=250 keyint_min=25 scenecut=40 intra_refresh=0 rc_lookahead=40 rc=crf mbtree=1 crf=23.0 qcomp=0.60 qpmin=0 qpmax=69 qpstep=4 ip_ratio=1.40 aq=1:1.00
Output #0, mp4, to '/Users/Glenn/Documents?/rails_one_click/RiverCloud_vr2/tmp/video/15761/theend_video.mp4':

Metadata:

encoder : Lavf57.21.100
Stream #0:0: Video: h264 (libx264) ([33][0][0][0] / 0x0021), yuv420p, 1280x720 [SAR 1:1 DAR 16:9], q=-1--1, 30 fps, 15360 tbn, 30 tbc (default)
Metadata:

encoder : Lavc57.21.100 libx264

Side data:

unknown side data type 10 (24 bytes)

Stream mapping:

Stream #0:0 (mjpeg) -> setpts
Stream #1:0 (mjpeg) -> setpts
Stream #2:0 (mjpeg) -> setpts
Stream #3:0 (mjpeg) -> setpts
fps -> Stream #0:0 (libx264)

Press [q] to stop, ? for help
[swscaler @ 0x7fd0a482f200] Warning: data is not aligned! This can lead to a speedloss
[output stream 0:0 @ 0x7fd0a360da40] 100 buffers queued in output stream 0:0, something may be wrong.
ffmpeg-latest(91267,0x7fff797f9300) malloc: * error for object 0x7fd0a371bbc0: pointer being freed was not allocated
* set a breakpoint in malloc_error_break to debug

comment:7 Changed 3 years ago by richardpl

I need minimal command to reproduce this.

comment:8 Changed 3 years ago by cehoyos

  • Component changed from undetermined to avfilter
  • Keywords crash added

comment:9 Changed 3 years ago by Glenn

Here is a minimal command (single jpg image inpu and only filter_complex zoompan ) with error output:

ffmpeg-latest -loop 1 -i /Users/Glenn/Documents?/rails_one_click/RiverCloud_vr2/tmp/video/15761/img0.jpg -filter_complex "zoompan=z=min(zoom+0.0015\,1.5):d=700:x=if(gte(zoom\,1.5)\,x\,x+1/a):y=if(gte(zoom\,1.5)\,y\,y+1)":s=1280x720 -t 5 -c:v libx264 -s 1280x760 -y /Users/Glenn/Documents?/rails_one_click/RiverCloud_vr2/tmp/video/15761/theend_video.mp4

ffmpeg version N-77595-g77eeaa2 Copyright (c) 2000-2015 the FFmpeg developers

built with Apple LLVM version 7.0.2 (clang-700.1.81)
configuration: --prefix=/usr/local/ffmpeg-latest --extra-cflags=-I/usr/local/Cellar/include --extra-ldflags=-L/usr/local/Cellar/lib --enable-shared --enable-pthreads --enable-gpl --enable-version3 --enable-nonfree --enable-hardcoded-tables --enable-avresample --enable-vda --cc=cc --host-cflags= --host-ldflags= --enable-libx264 --enable-libmp3lame --enable-libxvid --enable-libfreetype --enable-libtheora --enable-libvorbis --enable-libvpx --enable-librtmp --enable-libopencore-amrnb --enable-libopencore-amrwb --enable-libvo-aacenc --enable-libass --enable-ffplay --enable-libspeex --enable-libschroedinger --enable-libfdk-aac --enable-libopus --enable-libopenjpeg --extra-cflags=-I/usr/local/Cellar/openjpeg/1.5.1/include/openjpeg-1.5
libavutil 55. 11.100 / 55. 11.100
libavcodec 57. 21.100 / 57. 21.100
libavformat 57. 21.100 / 57. 21.100
libavdevice 57. 0.100 / 57. 0.100
libavfilter 6. 22.100 / 6. 22.100
libavresample 3. 0. 0 / 3. 0. 0
libswscale 4. 0.100 / 4. 0.100
libswresample 2. 0.101 / 2. 0.101
libpostproc 54. 0.100 / 54. 0.100

[mjpeg @ 0x7fcb6980cc00] Changing bps to 8
Input #0, image2, from '/Users/Glenn/Documents?/rails_one_click/RiverCloud_vr2/tmp/video/15761/img0.jpg':

Duration: 00:00:00.04, start: 0.000000, bitrate: 23503 kb/s

Stream #0:0: Video: mjpeg, yuvj420p(pc, bt470bg/unknown/unknown), 600x600 [SAR 1:1 DAR 1:1], 25 fps, 25 tbr, 25 tbn, 25 tbc

[swscaler @ 0x7fcb69036400] deprecated pixel format used, make sure you did set range correctly
No pixel format specified, yuvj420p for H.264 encoding chosen.
Use -pix_fmt yuv420p for compatibility with outdated media players.
[libx264 @ 0x7fcb6a001c00] using SAR=19/18
[libx264 @ 0x7fcb6a001c00] using cpu capabilities: MMX2 SSE2Fast SSSE3 SSE4.2 AVX FMA3 AVX2 LZCNT BMI2
[libx264 @ 0x7fcb6a001c00] profile High, level 3.2
[libx264 @ 0x7fcb6a001c00] 264 - core 148 r2601 a0cd7d3 - H.264/MPEG-4 AVC codec - Copyleft 2003-2015 - http://www.videolan.org/x264.html - options: cabac=1 ref=3 deblock=1:0:0 analyse=0x3:0x113 me=hex subme=7 psy=1 psy_rd=1.00:0.00 mixed_ref=1 me_range=16 chroma_me=1 trellis=1 8x8dct=1 cqm=0 deadzone=21,11 fast_pskip=1 chroma_qp_offset=-2 threads=6 lookahead_threads=1 sliced_threads=0 nr=0 decimate=1 interlaced=0 bluray_compat=0 constrained_intra=0 bframes=3 b_pyramid=2 b_adapt=1 b_bias=0 direct=1 weightb=1 open_gop=0 weightp=2 keyint=250 keyint_min=25 scenecut=40 intra_refresh=0 rc_lookahead=40 rc=crf mbtree=1 crf=23.0 qcomp=0.60 qpmin=0 qpmax=69 qpstep=4 ip_ratio=1.40 aq=1:1.00
Output #0, mp4, to '/Users/Glenn/Documents?/rails_one_click/RiverCloud_vr2/tmp/video/15761/theend_video.mp4':

Metadata:

encoder : Lavf57.21.100
Stream #0:0: Video: h264 (libx264) ([33][0][0][0] / 0x0021), yuvj420p(pc), 1280x760 [SAR 19:18 DAR 16:9], q=-1--1, 25 fps, 12800 tbn, 25 tbc
Metadata:

encoder : Lavc57.21.100 libx264

Side data:

unknown side data type 10 (24 bytes)

Stream mapping:

Stream #0:0 (mjpeg) -> zoompan
zoompan -> Stream #0:0 (libx264)

Press [q] to stop, ? for help
[swscaler @ 0x7fcb6aa4a800] deprecated pixel format used, make sure you did set range correctly
[swscaler @ 0x7fcb6a10bc00] deprecated pixel format used, make sure you did set range correctly
[swscaler @ 0x7fcb6a10bc00] Warning: data is not aligned! This can lead to a speedloss
[swscaler @ 0x7fcb6aa4a800] deprecated pixel format used, make sure you did set range correctly
[swscaler @ 0x7fcb6a10bc00] deprecated pixel format used, make sure you did set range correctly

Last message repeated 2 times

[swscaler @ 0x7fcb69999a00] deprecated pixel format used, make sure you did set range correctly
[swscaler @ 0x7fcb695e5800] deprecated pixel format used, make sure you did set range correctly
[swscaler @ 0x7fcb69999a00] deprecated pixel format used, make sure you did set range correctly
[swscaler @ 0x7fcb6a143c00] deprecated pixel format used, make sure you did set range correctly

Last message repeated 1 times

[swscaler @ 0x7fcb695e5800] deprecated pixel format used, make sure you did set range correctly
[swscaler @ 0x7fcb69999a00] deprecated pixel format used, make sure you did set range correctly
[swscaler @ 0x7fcb6961a600] deprecated pixel format used, make sure you did set range correctly

Last message repeated 1 times

[swscaler @ 0x7fcb6aa4a800] deprecated pixel format used, make sure you did set range correctly

Last message repeated 1 times

[swscaler @ 0x7fcb6961a600] deprecated pixel format used, make sure you did set range correctly

Last message repeated 1 times

[swscaler @ 0x7fcb69999a00] deprecated pixel format used, make sure you did set range correctly
[swscaler @ 0x7fcb6a118400] deprecated pixel format used, make sure you did set range correctly
[swscaler @ 0x7fcb6aa4a800] deprecated pixel format used, make sure you did set range correctly
[swscaler @ 0x7fcb69999a00] deprecated pixel format used, make sure you did set range correctly
[swscaler @ 0x7fcb6a143e00] deprecated pixel format used, make sure you did set range correctly

Last message repeated 1 times

[swscaler @ 0x7fcb69999a00] deprecated pixel format used, make sure you did set range correctly

Last message repeated 1 times

[swscaler @ 0x7fcb6aa4a800] deprecated pixel format used, make sure you did set range correctly

Last message repeated 1 times

[swscaler @ 0x7fcb6a145a00] deprecated pixel format used, make sure you did set range correctly

Last message repeated 1 times

[swscaler @ 0x7fcb6961b800] deprecated pixel format used, make sure you did set range correctly
[swscaler @ 0x7fcb6aa4a800] deprecated pixel format used, make sure you did set range correctly
[swscaler @ 0x7fcb699d2800] deprecated pixel format used, make sure you did set range correctly

Last message repeated 3 times

[swscaler @ 0x7fcb69615c00] deprecated pixel format used, make sure you did set range correctly
[swscaler @ 0x7fcb6aa84c00] deprecated pixel format used, make sure you did set range correctly
[swscaler @ 0x7fcb699d2800] deprecated pixel format used, make sure you did set range correctly
[swscaler @ 0x7fcb6aa82600] deprecated pixel format used, make sure you did set range correctly
[swscaler @ 0x7fcb6a143a00] deprecated pixel format used, make sure you did set range correctly
[swscaler @ 0x7fcb6961e600] deprecated pixel format used, make sure you did set range correctly
[swscaler @ 0x7fcb699d0000] deprecated pixel format used, make sure you did set range correctly
[swscaler @ 0x7fcb6961a600] deprecated pixel format used, make sure you did set range correctly
[swscaler @ 0x7fcb699cfe00] deprecated pixel format used, make sure you did set range correctly

Last message repeated 2 times

[swscaler @ 0x7fcb6a10bc00] deprecated pixel format used, make sure you did set range correctly
[swscaler @ 0x7fcb699cf400] deprecated pixel format used, make sure you did set range correctly
[swscaler @ 0x7fcb6961e000] deprecated pixel format used, make sure you did set range correctly

Last message repeated 1 times

[swscaler @ 0x7fcb699cf400] deprecated pixel format used, make sure you did set range correctly
[swscaler @ 0x7fcb6a145e00] deprecated pixel format used, make sure you did set range correctly
[swscaler @ 0x7fcb699cf400] deprecated pixel format used, make sure you did set range correctly
[swscaler @ 0x7fcb6961c600] deprecated pixel format used, make sure you did set range correctly
[swscaler @ 0x7fcb699cc600] deprecated pixel format used, make sure you did set range correctly
[swscaler @ 0x7fcb6aa4a800] deprecated pixel format used, make sure you did set range correctly
[swscaler @ 0x7fcb6a142a00] deprecated pixel format used, make sure you did set range correctly
[swscaler @ 0x7fcb699d2e00] deprecated pixel format used, make sure you did set range correctly

Last message repeated 2 times

[swscaler @ 0x7fcb6a10bc00] deprecated pixel format used, make sure you did set range correctly

Last message repeated 1 times

[swscaler @ 0x7fcb6961c600] deprecated pixel format used, make sure you did set range correctly
[swscaler @ 0x7fcb699cbc00] deprecated pixel format used, make sure you did set range correctly

Last message repeated 1 times

[swscaler @ 0x7fcb69617a00] deprecated pixel format used, make sure you did set range correctly
[swscaler @ 0x7fcb699c9600] deprecated pixel format used, make sure you did set range correctly
[swscaler @ 0x7fcb6961e000] deprecated pixel format used, make sure you did set range correctly

Last message repeated 1 times

[swscaler @ 0x7fcb699c9600] deprecated pixel format used, make sure you did set range correctly

Last message repeated 1 times

[swscaler @ 0x7fcb6a10bc00] deprecated pixel format used, make sure you did set range correctly
[swscaler @ 0x7fcb699c9600] deprecated pixel format used, make sure you did set range correctly

Last message repeated 4 times

[swscaler @ 0x7fcb6961a600] deprecated pixel format used, make sure you did set range correctly
[swscaler @ 0x7fcb699d2800] deprecated pixel format used, make sure you did set range correctly

Last message repeated 2 times

[swscaler @ 0x7fcb6960c000] deprecated pixel format used, make sure you did set range correctly

Last message repeated 1 times

[swscaler @ 0x7fcb6a10bc00] deprecated pixel format used, make sure you did set range correctly
[swscaler @ 0x7fcb6960c000] deprecated pixel format used, make sure you did set range correctly
[swscaler @ 0x7fcb6a10bc00] deprecated pixel format used, make sure you did set range correctly

Last message repeated 2 times

[swscaler @ 0x7fcb69999a00] deprecated pixel format used, make sure you did set range correctly
[swscaler @ 0x7fcb6a10bc00] deprecated pixel format used, make sure you did set range correctly
[swscaler @ 0x7fcb699d2600] deprecated pixel format used, make sure you did set range correctly
[swscaler @ 0x7fcb6aa83600] deprecated pixel format used, make sure you did set range correctly

Last message repeated 1 times

[swscaler @ 0x7fcb695e5800] deprecated pixel format used, make sure you did set range correctly
[swscaler @ 0x7fcb6aa4a800] deprecated pixel format used, make sure you did set range correctly
[swscaler @ 0x7fcb6a10bc00] deprecated pixel format used, make sure you did set range correctly
[swscaler @ 0x7fcb695e5800] deprecated pixel format used, make sure you did set range correctly
[swscaler @ 0x7fcb6aa4a800] deprecated pixel format used, make sure you did set range correctly
[output stream 0:0 @ 0x7fcb68f01c40] 100 buffers queued in output stream 0:0, something may be wrong.
[swscaler @ 0x7fcb695e5800] deprecated pixel format used, make sure you did set range correctly

Last message repeated 1 times

[swscaler @ 0x7fcb699d2600] deprecated pixel format used, make sure you did set range correctly

Last message repeated 2 times

[swscaler @ 0x7fcb6aa4a800] deprecated pixel format used, make sure you did set range correctly
[swscaler @ 0x7fcb69619800] deprecated pixel format used, make sure you did set range correctly
[swscaler @ 0x7fcb6a10bc00] deprecated pixel format used, make sure you did set range correctly

Last message repeated 1 times

[swscaler @ 0x7fcb699ce800] deprecated pixel format used, make sure you did set range correctly
[swscaler @ 0x7fcb6aa4a800] deprecated pixel format used, make sure you did set range correctly

Last message repeated 1 times

[swscaler @ 0x7fcb69999a00] deprecated pixel format used, make sure you did set range correctly
[swscaler @ 0x7fcb6aa4a800] deprecated pixel format used, make sure you did set range correctly
[swscaler @ 0x7fcb695e5800] deprecated pixel format used, make sure you did set range correctly

Last message repeated 1 times

[swscaler @ 0x7fcb6a10bc00] deprecated pixel format used, make sure you did set range correctly
[swscaler @ 0x7fcb69999a00] deprecated pixel format used, make sure you did set range correctly

Last message repeated 3 times

[swscaler @ 0x7fcb6aa4a800] deprecated pixel format used, make sure you did set range correctly
[swscaler @ 0x7fcb695e5800] deprecated pixel format used, make sure you did set range correctly
[swscaler @ 0x7fcb6aa4a800] deprecated pixel format used, make sure you did set range correctly
[swscaler @ 0x7fcb695e5800] deprecated pixel format used, make sure you did set range correctly
[swscaler @ 0x7fcb6a10bc00] deprecated pixel format used, make sure you did set range correctly
[swscaler @ 0x7fcb695e5800] deprecated pixel format used, make sure you did set range correctly
ffmpeg-latest(92073,0x7fff797f9300) malloc: * error for object 0x7fcb68c1ab40: pointer being freed was not allocated
* set a breakpoint in malloc_error_break to debug

comment:10 Changed 3 years ago by richardpl

I can't reproduce this, and I don't see how commit Carl mentioned have anything with this.

comment:11 Changed 3 years ago by richardpl

comment:12 Changed 3 years ago by cehoyos

  • Reproduced by developer set
  • Resolution set to fixed
  • Status changed from new to closed
Note: See TracTickets for help on using tickets.