Opened 4 years ago

Closed 3 years ago

#4930 closed defect (fixed)

FFmpeg fails to detect video stream on Encrypted HLS

Reported by: gorilla.maguila Owned by: anssi
Priority: normal Component: avformat
Version: git-master Keywords: hls bounty
Cc: anssi.hannula@iki.fi Blocked By:
Blocking: Reproduced by developer: yes
Analyzed by developer: yes

Description

Using 2.8.1:

ffprobe http://cdn.rasset.ie/hls-live/_definst_/rte1/rte1-270.m3u8

Result:

[https @ 0x55fd9a3a0620] No trailing CRLF found in HTTP header.
Input #0, hls,applehttp, from 'http://cdn.rasset.ie/hls-live/_definst_/rte1/rte1-270.m3u8':

Duration: N/A, start: 1245.232978, bitrate: 77 kb/s
Program 0

Metadata:

variant_bitrate : 0

Stream #0:0: Audio: aac (LC) ([15][0][0][0] / 0x000F), 48000 Hz, stereo, fltp, 77 kb/s

This stream works great on Android for example

Change History (16)

comment:1 Changed 4 years ago by cehoyos

  • Keywords hls added

Please provide the failing command line (ffmpeg -i http://...) together with the uncut, console output to make this a valid ticket and please test current FFmpeg git head before reporting an issue here.

comment:2 Changed 4 years ago by gorilla.maguila

  • Version changed from unspecified to git-master

With latest ffmpeg-git:

$ ffmpeg -i http://cdn.rasset.ie/hls-live/_definst_/rte1/rte1-270.m3u8 -loglevel debug
ffmpeg version N-76032-g0861862 Copyright (c) 2000-2015 the FFmpeg developers
  built with gcc 5.2.0 (GCC)
  configuration: --prefix=/usr --shlibdir=/usr/lib --pkg-config-flags=--static --disable-static --enable-gpl --enable-gnutls --enable-libass --enable-libfdk-aac --enable-libfreetype --enable-libmp3lame --enable-libopus --enable-libtheora --enable-libvorbis --enable-libvpx --enable-libx264 --enable-libx265 --enable-nonfree --enable-shared --enable-x11grab
  libavutil      55.  4.100 / 55.  4.100
  libavcodec     57.  6.100 / 57.  6.100
  libavformat    57.  4.100 / 57.  4.100
  libavdevice    57.  0.100 / 57.  0.100
  libavfilter     6. 11.100 /  6. 11.100
  libswscale      4.  0.100 /  4.  0.100
  libswresample   2.  0.100 /  2.  0.100
  libpostproc    54.  0.100 / 54.  0.100
Splitting the commandline.
Reading option '-i' ... matched as input file with argument 'http://cdn.rasset.ie/hls-live/_definst_/rte1/rte1-270.m3u8'.                                        
Reading option '-loglevel' ... matched as option 'loglevel' (set logging level) with argument 'debug'.                                                           
Finished splitting the commandline.                                                                                                                              
Parsing a group of options: global .                                                                                                                             
Applying option loglevel (set logging level) with argument debug.                                                                                                
Successfully parsed a group of options.                                                                                                                          
Parsing a group of options: input file http://cdn.rasset.ie/hls-live/_definst_/rte1/rte1-270.m3u8.                                                               
Successfully parsed a group of options.                                                                                                                          
Opening an input file: http://cdn.rasset.ie/hls-live/_definst_/rte1/rte1-270.m3u8.                                                                               
[http @ 0x702640] request: GET /hls-live/_definst_/rte1/rte1-270.m3u8 HTTP/1.1                                                                                   
User-Agent: Lavf/57.4.100                                                                                                                                        
Accept: */*                                                                                                                                                      
Range: bytes=0-                                                                                                                                                  
Connection: close                                                                                                                                                
Host: cdn.rasset.ie                                                                                                                                              
Icy-MetaData: 1                                                                                                                                                  


[hls,applehttp @ 0x701e00] Format hls,applehttp probed with size=2048 and score=100                                                                              
[hls,applehttp @ 0x701e00] HLS request for url 'http://cdn.rasset.ie/hls-live/streams/events/_definst_/rte1/rte1-270Num192301.ts', offset 0, playlist 0          
[https @ 0x709320] request: GET /hls-key/rte1.bin HTTP/1.1
User-Agent: Lavf/57.4.100
Accept: */*
Connection: close
Host: www.rte.ie
Icy-MetaData: 1


[http @ 0xd32e40] request: GET /hls-live/streams/events/_definst_/rte1/rte1-270Num192301.ts HTTP/1.1
User-Agent: Lavf/57.4.100
Accept: */*
Connection: close
Host: cdn.rasset.ie
Icy-MetaData: 1


Format mpegts probed with size=2048 and score=100
[mpegts @ 0x7083c0] stream=0 stream_type=f pid=102 prog_reg_desc=
[mpegts @ 0x7083c0] Before avformat_find_stream_info() pos: 0 bytes read:9200 seeks:0
[mpegts @ 0x7083c0] All info found
[mpegts @ 0x7083c0] After avformat_find_stream_info() pos: 564 bytes read:9200 seeks:0 frames:1
[hls,applehttp @ 0x701e00] Before avformat_find_stream_info() pos: 656 bytes read:656 seeks:0
[hls,applehttp @ 0x701e00] All info found
[hls,applehttp @ 0x701e00] After avformat_find_stream_info() pos: 656 bytes read:656 seeks:0 frames:1
Input #0, hls,applehttp, from 'http://cdn.rasset.ie/hls-live/_definst_/rte1/rte1-270.m3u8':
  Duration: N/A, start: 11309.226978, bitrate: 6 kb/s
  Program 0 
    Metadata:
      variant_bitrate : 0
    Stream #0:0, 1, 1/90000: Audio: aac (LC) ([15][0][0][0] / 0x000F), 48000 Hz, stereo, fltp, 6 kb/s
Successfully opened the file.
Last edited 4 years ago by cehoyos (previous) (diff)

comment:3 Changed 4 years ago by anssi

  • Cc anssi.hannula@iki.fi added
  • Reproduced by developer set
  • Status changed from new to open

Reproduced. The bitrate of the MPEG TS stream seems to be approx. 600 kbps, which suggests there indeed is a video stream we fail to detect for some reason.

On the HLS playlist there does not seem to be any features we are missing or anything else unusual, so this requires some more investigation.

comment:4 Changed 4 years ago by cehoyos

It works here now, I wonder if the broadcaster has changed something:

$ ffmpeg -i http://cdn.rasset.ie/hls-live/_definst_/rte1/rte1-270.m3u8 -qscale 2 -t 30 out.avi
ffmpeg version N-76038-gc980c5e Copyright (c) 2000-2015 the FFmpeg developers
  built with gcc 4.7 (SUSE Linux)
  configuration: --enable-gpl --enable-gnutls
  libavutil      55.  4.100 / 55.  4.100
  libavcodec     57.  6.100 / 57.  6.100
  libavformat    57.  4.100 / 57.  4.100
  libavdevice    57.  0.100 / 57.  0.100
  libavfilter     6. 11.100 /  6. 11.100
  libswscale      4.  0.100 /  4.  0.100
  libswresample   2.  0.100 /  2.  0.100
  libpostproc    54.  0.100 / 54.  0.100
[h264 @ 0x265f460] non-existing PPS 0 referenced
    Last message repeated 1 times
[h264 @ 0x265f460] decode_slice_header error
[h264 @ 0x265f460] non-existing PPS 0 referenced
[h264 @ 0x265f460] decode_slice_header error
[h264 @ 0x265f460] non-existing PPS 0 referenced
[h264 @ 0x265f460] decode_slice_header error
[h264 @ 0x265f460] non-existing PPS 0 referenced
[h264 @ 0x265f460] decode_slice_header error
[h264 @ 0x265f460] non-existing PPS 0 referenced
[h264 @ 0x265f460] decode_slice_header error
[h264 @ 0x265f460] non-existing PPS 0 referenced
[h264 @ 0x265f460] decode_slice_header error
[h264 @ 0x265f460] non-existing PPS 0 referenced
[h264 @ 0x265f460] decode_slice_header error
[h264 @ 0x265f460] non-existing PPS 0 referenced
[h264 @ 0x265f460] decode_slice_header error
[h264 @ 0x265f460] no frame!
[h264 @ 0x265f460] non-existing PPS 0 referenced
    Last message repeated 1 times                                                   

...

...

[h264 @ 0x265f460] decode_slice_header error
[h264 @ 0x265f460] non-existing PPS 0 referenced
[h264 @ 0x265f460] decode_slice_header error
[h264 @ 0x265f460] non-existing PPS 0 referenced
[h264 @ 0x265f460] decode_slice_header error
[h264 @ 0x265f460] non-existing PPS 0 referenced
[h264 @ 0x265f460] decode_slice_header error
[h264 @ 0x265f460] non-existing PPS 0 referenced
[h264 @ 0x265f460] decode_slice_header error
[h264 @ 0x265f460] non-existing PPS 0 referenced
[h264 @ 0x265f460] decode_slice_header error
[h264 @ 0x265f460] non-existing PPS 0 referenced
[h264 @ 0x265f460] decode_slice_header error
[h264 @ 0x265f460] non-existing PPS 0 referenced
[h264 @ 0x265f460] decode_slice_header error
[h264 @ 0x265f460] no frame!
Input #0, hls,applehttp, from 'http://cdn.rasset.ie/hls-live/_definst_/rte1/rte1-270.m3u8':
  Duration: N/A, start: 313.499289, bitrate: N/A
  Program 0
    Metadata:
      variant_bitrate : 0
    Stream #0:0: Video: h264 (Main) ([27][0][0][0] / 0x001B), yuv420p, 480x270, 25 fps, 25 tbr, 90k tbn, 50 tbc
    Stream #0:1: Audio: aac (LC) ([15][0][0][0] / 0x000F), 48000 Hz, stereo, fltp, 80 kb/s
Please use -q:a or -q:v, -qscale is ambiguous
Output #0, avi, to 'out.avi':
  Metadata:
    ISFT            : Lavf57.4.100
    Stream #0:0: Video: mpeg4 (FMP4 / 0x34504D46), yuv420p, 480x270, q=2-31, 200 kb/s, 25 fps, 25 tbn, 25 tbc
    Metadata:
      encoder         : Lavc57.6.100 mpeg4
    Stream #0:1: Audio: ac3 ([0] [0][0] / 0x2000), 48000 Hz, stereo, fltp, 192 kb/s
    Metadata:
      encoder         : Lavc57.6.100 ac3
Stream mapping:
  Stream #0:0 -> #0:0 (h264 (native) -> mpeg4 (native))
  Stream #0:1 -> #0:1 (aac (native) -> ac3 (native))
Press [q] to stop, [?] for help
frame=  672 fps= 61 q=2.0 Lsize=    3557kB time=00:00:30.00 bitrate= 971.3kbits/s   
video:2805kB audio:703kB subtitle:0kB other streams:0kB global headers:0kB muxing overhead: 1.413547%

comment:5 Changed 4 years ago by anssi

Not sure. Here is an earlier dump I modified to play locally, which doesn't work:

http://onse.fi/files/ticket4930-sample.zip (4MB)

(unzip all to same directory and play the m3u8 file)

comment:6 Changed 4 years ago by gorilla.maguila

Another link that is not working now with the same problem:

http://cdn.rasset.ie/hls-live/_definst_/rte2/rte2-270.m3u8

comment:7 Changed 4 years ago by gorilla.maguila

Hi,

Any progress on this issue?

Is there any I can do to help solving this?

Thanks

Version 0, edited 4 years ago by gorilla.maguila (next)

comment:8 Changed 3 years ago by mobdro

This issue is still reproducible with 3.1.1:

ffplay -user-agent "Mozilla" http://cdn.rasset.ie/hls-live/_definst_/rte2/rte2-270.m3u8 -loglevel debug
ffplay version 3.1.1 Copyright (c) 2003-2016 the FFmpeg developers
  built with gcc 6.1.1 (GCC) 20160602
  configuration: --prefix=/usr --disable-debug --disable-static --disable-stripping --enable-avisynth --enable-avresample --enable-fontconfig --enable-gmp --enable-gnutls --enable-gpl --enable-ladspa --enable-libass --enable-libbluray --enable-libfreetype --enable-libfribidi --enable-libgsm --enable-libiec61883 --enable-libmodplug --enable-libmp3lame --enable-libopencore_amrnb --enable-libopencore_amrwb --enable-libopenjpeg --enable-libopus --enable-libpulse --enable-libschroedinger --enable-libsoxr --enable-libspeex --enable-libssh --enable-libtheora --enable-libv4l2 --enable-libvidstab --enable-libvorbis --enable-libvpx --enable-libwebp --enable-libx264 --enable-libx265 --enable-libxvid --enable-netcdf --enable-shared --enable-version3 --enable-x11grab
  libavutil      55. 28.100 / 55. 28.100
  libavcodec     57. 48.101 / 57. 48.101
  libavformat    57. 41.100 / 57. 41.100
  libavdevice    57.  0.101 / 57.  0.101
  libavfilter     6. 47.100 /  6. 47.100
  libavresample   3.  0.  0 /  3.  0.  0
  libswscale      4.  1.100 /  4.  1.100
  libswresample   2.  1.100 /  2.  1.100
  libpostproc    54.  0.100 / 54.  0.100
[http @ 0x7f1ccc007980] Setting default whitelist 'http,https,tls,rtp,tcp,udp,crypto,httpproxy'
[http @ 0x7f1ccc007980] request: GET /hls-live/_definst_/rte2/rte2-270.m3u8 HTTP/1.1                                                                                                           
User-Agent: Mozilla                                                                                                                                                                            
Accept: */*                                                                                                                                                                                    
Range: bytes=0-                                                                                                                                                                                
Connection: close                                                                                                                                                                              
Host: cdn.rasset.ie                                                                                                                                                                            
Icy-MetaData: 1                                                                                                                                                                                


[hls,applehttp @ 0x7f1ccc009240] Format hls,applehttp probed with size=2048 and score=100                                                                                                      
[hls,applehttp @ 0x7f1ccc009240] HLS request for url 'http://cdn.rasset.ie/hls-live/streams/events/_definst_/rte2/rte2-270Num2041.ts', offset 0, playlist 0                                    
[https @ 0x7f1ccc00fce0] request: GET /hls-key/rte2.bin HTTP/1.10   
User-Agent: Mozilla                                                                                                                                                                            
Accept: */*                                                                                                                                                                                    
Connection: close                                                                                                                                                                              
Host: www.rte.ie                                                                                                                                                                               
Icy-MetaData: 1                                                                                                                                                                                


[AVIOContext @ 0x7f1ccc596780] Statistics: 16 bytes read, 0 seeks   
[http @ 0x7f1ccc56fc00] request: GET /hls-live/streams/events/_definst_/rte2/rte2-270Num2041.ts HTTP/1.1                                                                                       
User-Agent: Mozilla                                                                                                                                                                            
Accept: */*                                                                                                                                                                                    
Connection: close                                                                                                                                                                              
Host: cdn.rasset.ie                                                                                                                                                                            
Icy-MetaData: 1                                                                                                                                                                                


Format mpegts probed with size=2048 and score=50B sq=    0B f=0/0   
[mpegts @ 0x7f1ccc00edc0] stream=0 stream_type=f pid=102 prog_reg_desc=                                                                                                                        
[mpegts @ 0x7f1ccc00edc0] Before avformat_find_stream_info() pos: 0 bytes read:32768 seeks:0 nb_streams:1                                                                                      
[mpegts @ 0x7f1ccc00edc0] All info found                                                                                                                                                       
[mpegts @ 0x7f1ccc00edc0] After avformat_find_stream_info() pos: 752 bytes read:32768 seeks:0 frames:1                                                                                         
[hls,applehttp @ 0x7f1ccc009240] Before avformat_find_stream_info() pos: 642 bytes read:642 seeks:0 nb_streams:1                                                                               
[hls,applehttp @ 0x7f1ccc009240] All info found                                                                                                                                                
[hls,applehttp @ 0x7f1ccc009240] After avformat_find_stream_info() pos: 642 bytes read:642 seeks:0 frames:1                                                                                    
Input #0, hls,applehttp, from 'http://cdn.rasset.ie/hls-live/_definst_/rte2/rte2-270.m3u8':
  Duration: N/A, start: 16328.700000, bitrate: 82 kb/s
  Program 0 
    Metadata:
      variant_bitrate : 0
    Stream #0:0, 1, 1/90000: Audio: aac (LC) ([15][0][0][0] / 0x000F), 48000 Hz, stereo, fltp, 82 kb/s
detected 12 logical cores
[ffplay_abuffer @ 0x7f1ccc10b3e0] Setting 'sample_rate' to value '48000'                                                                                                                       
[ffplay_abuffer @ 0x7f1ccc10b3e0] Setting 'sample_fmt' to value 'fltp'                                                                                                                         
[ffplay_abuffer @ 0x7f1ccc10b3e0] Setting 'channels' to value '2'                                                                                                                              
[ffplay_abuffer @ 0x7f1ccc10b3e0] Setting 'time_base' to value '1/48000'                                                                                                                       
[ffplay_abuffer @ 0x7f1ccc10b3e0] Setting 'channel_layout' to value '0x3'                                                                                                                      
[ffplay_abuffer @ 0x7f1ccc10b3e0] tb:1/48000 samplefmt:fltp samplerate:48000 chlayout:0x3                                                                                                      
[ffplay_abuffersink @ 0x7f1ccc659900] auto-inserting filter 'auto-inserted resampler 0' between the filter 'ffplay_abuffer' and the filter 'ffplay_abuffersink'                                
[AVFilterGraph @ 0x7f1ccc123b00] query_formats: 2 queried, 0 merged, 3 already done, 0 delayed                                                                                                 
[auto-inserted resampler 0 @ 0x7f1ccc5878c0] [SWR @ 0x7f1ccc8dbae0] Using fltp internally between filters                                                                                      
[auto-inserted resampler 0 @ 0x7f1ccc5878c0] ch:2 chl:stereo fmt:fltp r:48000Hz -> ch:2 chl:stereo fmt:s16 r:48000Hz                                                                           
[mpegts @ 0x7f1ccc00edc0] stream=1 stream_type=1b pid=101 prog_reg_desc=                                                                                                                       
Audio frame changed from rate:48000 ch:2 fmt:fltp layout:stereo serial:-1 to rate:48000 ch:2 fmt:fltp layout:stereo serial:1                                                                   
[NULL @ 0x7f1ccc3c1280] SPS unavailable in decode_picture_timing
[NULL @ 0x7f1ccc3c1280] non-existing PPS 0 referenced
[hls,applehttp @ 0x7f1ccc009240] Invalid stream index 1
[NULL @ 0x7f1ccc3c1280] SPS unavailable in decode_picture_timing
[NULL @ 0x7f1ccc3c1280] non-existing PPS 0 referenced
[hls,applehttp @ 0x7f1ccc009240] Invalid stream index 1
[NULL @ 0x7f1ccc3c1280] SPS unavailable in decode_picture_timing
[NULL @ 0x7f1ccc3c1280] non-existing PPS 0 referenced
[hls,applehttp @ 0x7f1ccc009240] Invalid stream index 1
[NULL @ 0x7f1ccc3c1280] SPS unavailable in decode_picture_timing
[NULL @ 0x7f1ccc3c1280] non-existing PPS 0 referenced
[hls,applehttp @ 0x7f1ccc009240] Invalid stream index 1
[NULL @ 0x7f1ccc3c1280] SPS unavailable in decode_picture_timing
[NULL @ 0x7f1ccc3c1280] non-existing PPS 0 referenced
[hls,applehttp @ 0x7f1ccc009240] Invalid stream index 1
[NULL @ 0x7f1ccc3c1280] SPS unavailable in decode_picture_timing
[NULL @ 0x7f1ccc3c1280] non-existing PPS 0 referenced
[hls,applehttp @ 0x7f1ccc009240] Invalid stream index 1
[NULL @ 0x7f1ccc3c1280] SPS unavailable in decode_picture_timing
[NULL @ 0x7f1ccc3c1280] non-existing PPS 0 referenced
[hls,applehttp @ 0x7f1ccc009240] Invalid stream index 1
[NULL @ 0x7f1ccc3c1280] SPS unavailable in decode_picture_timing
[NULL @ 0x7f1ccc3c1280] non-existing PPS 0 referenced
[hls,applehttp @ 0x7f1ccc009240] Invalid stream index 1

comment:10 Changed 3 years ago by cehoyos

  • Keywords bounty added

comment:11 Changed 3 years ago by anssi

  • Owner set to anssi

I'll take a closer look at this.

comment:12 Changed 3 years ago by anssi

  • Analyzed by developer set

This is because the HLS demuxer clears AVFMTCTX_NOHEADER for the mpegts subdemuxer, which prevents the usual "look a bit more in case more streams are found" behavior of avformat_find_stream_info(), causing the video stream to sometimes not be found with the HLS stream of this ticket.

Thanks to mpegts improvements (6eda91ad54fd321461 "mpegts: stop analyzing when pmt for all programs have been found") made in the meantime I think it should be okay to remove that now, thus allowing all streams to be found.

The following patch fixes this issue, and I expect to push that within a day unless any problems surface in my testing: https://github.com/anssih/FFmpeg/commit/2fd2c0bf7478ec481792eab7f42085af0f9e109d

There is also a related issue in avformat_find_stream_info() affecting FFmpeg 3.1 and later which causes some needlessly-long probing of the sample in comment 5, which should be fixed by this patch (which I have submitted for review on ffmpeg-devel@): https://github.com/anssih/FFmpeg/commit/be52a0d8c1ae244411091d57a72fc3e773872f6b (edit: fixed version https://github.com/anssih/FFmpeg/commit/16f01f43a6f361580aaa3898b3adb22dd41e2535 )

Related: My first solution involved adding support for dynamic streams into the HLS demuxer (propagate new streams from subdemuxer), but as that ultimately turned out to not be necessary I won't be applying that at this time (as it adds complexity and risks regressions without having any sample it helps with). In case that feature or parts of it turn out to be useful in the future I've put the code here: https://github.com/anssih/FFmpeg/commit/68eac58088b27593b28eba33632167ed2ebb23f5

Last edited 3 years ago by anssi (previous) (diff)

comment:14 follow-up: Changed 3 years ago by anssi

  • Resolution set to fixed
  • Status changed from open to closed

Fixed in 4d85069e5dff37e4a9904767242b47e14cf62a9c, 9884f17e343b37aef442fafa05bd0113cdf47087, 83db3c84fa72e8d4d864ed796438ebfb2ee4bcc3, 04964ac311abe670fb3b60290a330f2067544b13 in master. I recommend also 60873bf992eab1d3bad8dd0fd11336363d44854d if backporting on top of FFmpeg 3.1.x.

In the end simply dropping the one line as mentioned in comment:12 was not enough due to extra delay it caused in case of some other streams, so I went with the more complex dynamic streams alternative after all, see commit messages for detailed info.

comment:15 in reply to: ↑ 14 Changed 3 years ago by blueice_haller

  • Resolution fixed deleted
  • Status changed from closed to reopened

Using ffmpeg-20160927-92de2c2-win64-static on Windows from https://ffmpeg.zeranoe.com/builds/ it works to ffplay

Using ffprobe and ffmpeg version 3.0.2 on Linux Receiver Fails.

ffprobe http://wdr_ardevent1-lh.akamaihd.net/i/wdrardevent1_weltweit@112049/master.m3u8

Result:

root@xpeedlx3:/media/hdd/movie# ffmpeg -i http://wdr_ardevent1-lh.akamaihd.net/i/wdrardevent1_weltweit@112049/master.m3u8 -c  copy -bsf:a aac_adtstoasc  "/media/hdd/movie/`date +"%Y%m%d %H%M"` wdr_ardevent1.mp4"
ffmpeg version 3.0.2 Copyright (c) 2000-2016 the FFmpeg developers
  built with gcc 5.3.0 (GCC)
  configuration: --disable-stripping --enable-pic --enable-shared --enable-pthreads --enable-nonfree --cross-prefix=mipsel-oe-linux- --ld='mipsel-oe-linux-gcc -mel -mabi=32 -mhard-float -march=mips32 --sysroot=/home/theo/Desktop/5.3CIPlus/oe-alliance/builds/opennfr/hd2400/tmp/sysroots/hd2400' --arch=mipsel --target-os=linux --enable-cross-compile --extra-cflags=' -Os -pipe -g -feliminate-unused-debug-types -fdebug-prefix-map=/home/theo/Desktop/5.3CIPlus/oe-alliance/builds/opennfr/hd2400/tmp/work/mips32el-oe-linux/ffmpeg/3.0.2-r4/build=/usr/src/ffmpeg -fdebug-prefix-map=/home/theo/Desktop/5.3CIPlus/oe-alliance/builds/opennfr/hd2400/tmp/work/mips32el-oe-linux/ffmpeg/3.0.2-r4/ffmpeg-3.0.2=/usr/src/ffmpeg -fdebug-prefix-map=/home/theo/Desktop/5.3CIPlus/oe-alliance/builds/opennfr/hd2400/tmp/sysroots/x86_64-linux= -fdebug-prefix-map=/home/theo/Desktop/5.3CIPlus/oe-alliance/builds/opennfr/hd2400/tmp/sysroots/hd2400= -mel -mabi=32 -mhard-float -march=mips32 --sysroot=/home/theo/Desktop/5.3CIPlus/oe-alliance/builds/opennfr/hd2400/tmp/sysroots/hd2400' --extra-ldflags='-Wl,-O1 -Wl,--as-needed' --sysroot=/home/theo/Desktop/5.3CIPlus/oe-alliance/builds/opennfr/hd2400/tmp/sysroots/hd2400 --enable-hardcoded-tables --disable-static --disable-runtime-cpudetect --disable-ffserver --disable-ffplay --enable-ffprobe --disable-iconv --disable-postproc --disable-doc --disable-altivec --disable-amd3dnow --disable-amd3dnowext --disable-mmx --disable-mmxext --disable-sse --disable-sse2 --disable-sse3 --disable-ssse3 --disable-sse4 --disable-sse42 --disable-avx --disable-xop --disable-fma3 --disable-fma4 --disable-avx2 --disable-armv5te --disable-armv6 --disable-armv6t2 --disable-vfp --disable-neon --disable-inline-asm --disable-yasm --disable-fast-unaligned --disable-muxers --enable-muxer=mpeg1video --enable-encoders --enable-encoder=mpeg1video --disable-decoders --enable-decoder=alac --enable-decoder=ape --enable-decoder=atrac1 --enable-decoder=atrac3 --enable-decoder=atrac3p --enable-decoder=cook --enable-decoder=dsd_lsbf --enable-decoder=dsd_lsbf_planar --enable-decoder=dsd_msbf --enable-decoder=dsd_msbf_planar --enable-decoder=eac3 --enable-decoder=evrc --enable-decoder=iac --enable-decoder=imc --enable-decoder=mace3 --enable-decoder=mace6 --enable-decoder=metasound --enable-decoder=mjpeg --enable-decoder=mlp --enable-decoder=mp1 --enable-decoder=mp3adu --enable-decoder=mp3on4 --enable-decoder=mpeg1video --enable-decoder=nellymoser --enable-decoder=pcm_alaw --enable-decoder=pcm_bluray --enable-decoder=pcm_dvd --enable-decoder=pcm_f32be --enable-decoder=pcm_f32le --enable-decoder=pcm_f64be --enable-decoder=pcm_f64le --enable-decoder=pcm_lxf --enable-decoder=pcm_mulaw --enable-decoder=pcm_s16be --enable-decoder=pcm_s16be_planar --enable-decoder=pcm_s16le --enable-decoder=pcm_s16le_planar --enable-decoder=pcm_s24be --enable-decoder=pcm_s24daud --enable-decoder=pcm_s24le --enable-decoder=pcm_s24le_planar --enable-decoder=pcm_s32be --enable-decoder=pcm_s32le --enable-decoder=pcm_s32le_planar --enable-decoder=pcm_s8 --enable-decoder=pcm_s8_planar --enable-decoder=pcm_u16be --enable-decoder=pcm_u16le --enable-decoder=pcm_u24be --enable-decoder=pcm_u24le --enable-decoder=pcm_u32be --enable-decoder=pcm_u32le --enable-decoder=pcm_u8 --enable-decoder=pcm_zork --enable-decoder=ra_144 --enable-decoder=ra_288 --enable-decoder=ralf --enable-decoder=s302m --enable-decoder=shorten --enable-decoder=sipr --enable-decoder=sonic --enable-decoder=tak --enable-decoder=truehd --enable-decoder=truespeech --enable-decoder=tta --enable-decoder=wmalossless --enable-decoder=wmapro --enable-decoder=wmav1 --enable-decoder=wmav2 --enable-decoder=wmavoice --enable-decoder=aac --enable-decoder=aac_latm --enable-decoder=adpcm_ct --enable-decoder=adpcm_g722 --enable-decoder=adpcm_g726 --enable-decoder=adpcm_g726le --enable-decoder=adpcm_ima_amv --enable-decoder=adpcm_ima_oki --enable-decoder=adpcm_ima_qt --enable-decoder=adpcm_ima_rad --enable-decoder=adpcm_ima_wav --enable-decoder=adpcm_ms --enable-decoder=adpcm_sbpro_2 --enable-decoder=adpcm_sbpro_3 --enable-decoder=adpcm_sbpro_4 --enable-decoder=adpcm_swf --enable-decoder=adpcm_yamaha --enable-decoder=flac --enable-decoder=g723_1 --enable-decoder=g729 --enable-decoder=opus --enable-decoder=qcelp --enable-decoder=qdm2 --enable-decoder=vorbis --enable-decoder=wavpack --disable-demuxer=adp --disable-demuxer=adx --disable-demuxer=afc --disable-demuxer=anm --disable-demuxer=apc --disable-demuxer=apng --disable-demuxer=ast --disable-demuxer=avs --disable-demuxer=bethsoftvid --disable-demuxer=bfi --disable-demuxer=bink --disable-demuxer=bmv --disable-demuxer=brstm --disable-demuxer=c93 --disable-demuxer=cdg --disable-demuxer=dnxhd --disable-demuxer=dsicin --disable-demuxer=dfa --disable-demuxer=dxa --disable-demuxer=ea --disable-demuxer=ea_cdata --disable-demuxer=frm --disable-demuxer=gif --disable-demuxer=gsm --disable-demuxer=gxf --disable-demuxer=hnm --disable-demuxer=ico --disable-demuxer=ilbc --disable-demuxer=iss --disable-demuxer=jv --disable-demuxer=mm --disable-demuxer=paf --disable-demuxer=pva --disable-demuxer=qcp --disable-demuxer=redspark --disable-demuxer=rl2 --disable-demuxer=roq --disable-demuxer=rsd --disable-demuxer=rso --disable-demuxer=siff --disable-demuxer=smjpeg --disable-demuxer=smush --disable-demuxer=sol --disable-demuxer=thp --disable-demuxer=tiertexseq --disable-demuxer=tmv --disable-demuxer=tty --disable-demuxer=txd --disable-demuxer=vqf --disable-demuxer=wsaud --disable-demuxer=wsvqa --disable-demuxer=xa --disable-demuxer=xbin --disable-demuxer=yop --enable-demuxer=image2 --disable-demuxer=image2pipe --disable-demuxer=ingenient --disable-demuxer=image_bmp_pipe --disable-demuxer=image_dds_pipe --disable-demuxer=image_dpx_pipe --disable-demuxer=image_exr_pipe --disable-demuxer=image_j2k_pipe --disable-demuxer=image_jpegls_pipe --disable-demuxer=image_pictor_pipe --disable-demuxer=image_png_pipe --disable-demuxer=image_qdraw_pipe --disable-demuxer=image_sgi_pipe --disable-demuxer=image_sunrast_pipe --disable-demuxer=image_tiff_pipe --disable-demuxer=image_webp_pipe --disable-demuxer=image_jpeg_pipe --disable-filters --enable-filter=scale --disable-protocol=data --disable-protocol=icecast --disable-protocol=md5 --disable-protocol=pipe --disable-protocol=unix --disable-mips32r2 --disable-mipsdsp --disable-mipsdspr2 --disable-mipsdsp --disable-indevs --disable-outdevs --enable-bzlib --disable-zlib --disable-bsfs --enable-libbluray --enable-protocol=bluray --enable-librtmp --pkg-config=pkg-config --disable-debug --extra-cflags='-ffunction-sections -fdata-sections -fno-aggressive-loop-optimizations' --extra-ldflags='-Wl,--gc-sections,-lrt' --prefix=/usr --libdir=/usr/lib --shlibdir=/usr/lib --datadir=/usr/share/ffmpeg --enable-avdevice --enable-avfilter --disable-bzlib --disable-libfaac --disable-gpl --disable-libgsm --disable-indev=jack --disable-libvorbis --disable-lzma --disable-libmp3lame --enable-openssl --disable-libschroedinger --disable-libspeex --disable-libtheora --disable-vaapi --disable-libvpx --disable-x11grab --disable-libx264 --disable-outdev=xv
  libavutil      55. 17.103 / 55. 17.103
  libavcodec     57. 24.102 / 57. 24.102
  libavformat    57. 25.100 / 57. 25.100
  libavdevice    57.  0.101 / 57.  0.101
  libavfilter     6. 31.100 /  6. 31.100
  libswscale      4.  0.100 /  4.  0.100
  libswresample   2.  0.101 /  2.  0.101
[h264 @ 0x5150f0] non-existing PPS 0 referenced
    Last message repeated 1 times
[h264 @ 0x5150f0] decode_slice_header error
[h264 @ 0x5150f0] no frame!
[h264 @ 0x5150f0] non-existing PPS 0 referenced
    Last message repeated 1 times
[h264 @ 0x5150f0] decode_slice_header error
[h264 @ 0x5150f0] no frame!
[h264 @ 0x5150f0] non-existing PPS 0 referenced
    Last message repeated 1 times
[h264 @ 0x5150f0] decode_slice_header error
[h264 @ 0x5150f0] no frame!
[h264 @ 0x5150f0] non-existing PPS 0 referenced
    Last message repeated 1 times
[h264 @ 0x5150f0] decode_slice_header error
[h264 @ 0x5150f0] no frame!
[h264 @ 0x5150f0] non-existing PPS 0 referenced
    Last message repeated 1 times
[h264 @ 0x5150f0] decode_slice_header error
[h264 @ 0x5150f0] no frame!
[h264 @ 0x5150f0] non-existing PPS 0 referenced
    Last message repeated 1 times
[h264 @ 0x5150f0] decode_slice_header error
[h264 @ 0x5150f0] no frame!
[h264 @ 0x5150f0] non-existing PPS 0 referenced
    Last message repeated 1 times
[h264 @ 0x5150f0] decode_slice_header error
[h264 @ 0x5150f0] no frame!
[h264 @ 0x5150f0] non-existing PPS 0 referenced
    Last message repeated 1 times
[h264 @ 0x5150f0] decode_slice_header error
[h264 @ 0x5150f0] no frame!
[h264 @ 0x5150f0] non-existing PPS 0 referenced
    Last message repeated 1 times
[h264 @ 0x5150f0] decode_slice_header error
[h264 @ 0x5150f0] no frame!
[h264 @ 0x5150f0] non-existing PPS 0 referenced
    Last message repeated 1 times
[h264 @ 0x5150f0] decode_slice_header error
[h264 @ 0x5150f0] no frame!
[h264 @ 0x5150f0] non-existing PPS 0 referenced
    Last message repeated 1 times
[h264 @ 0x5150f0] decode_slice_header error
[h264 @ 0x5150f0] no frame!
[h264 @ 0x5150f0] non-existing PPS 0 referenced
    Last message repeated 1 times
[h264 @ 0x5150f0] decode_slice_header error
[h264 @ 0x5150f0] no frame!
[h264 @ 0x5150f0] non-existing PPS 0 referenced
    Last message repeated 1 times
[h264 @ 0x5150f0] decode_slice_header error
[h264 @ 0x5150f0] no frame!
[h264 @ 0x5150f0] non-existing PPS 0 referenced
    Last message repeated 1 times
[h264 @ 0x5150f0] decode_slice_header error
[h264 @ 0x5150f0] no frame!
[h264 @ 0x5150f0] non-existing PPS 0 referenced
    Last message repeated 1 times
[h264 @ 0x5150f0] decode_slice_header error
[h264 @ 0x5150f0] no frame!
[h264 @ 0x5150f0] non-existing PPS 0 referenced
    Last message repeated 1 times
[h264 @ 0x5150f0] decode_slice_header error
[h264 @ 0x5150f0] no frame!
[h264 @ 0x5150f0] non-existing PPS 0 referenced
    Last message repeated 1 times
[h264 @ 0x5150f0] decode_slice_header error
[h264 @ 0x5150f0] no frame!
[h264 @ 0x5150f0] non-existing PPS 0 referenced
    Last message repeated 1 times
[h264 @ 0x5150f0] decode_slice_header error
[h264 @ 0x5150f0] no frame!
[h264 @ 0x5150f0] non-existing PPS 0 referenced
    Last message repeated 1 times
[h264 @ 0x5150f0] decode_slice_header error
[h264 @ 0x5150f0] no frame!
[h264 @ 0x5150f0] non-existing PPS 0 referenced
    Last message repeated 1 times
[h264 @ 0x5150f0] decode_slice_header error
[h264 @ 0x5150f0] no frame!
[h264 @ 0x515ae0] non-existing PPS 0 referenced
    Last message repeated 1 times
[h264 @ 0x515ae0] decode_slice_header error
[h264 @ 0x515ae0] no frame!
[h264 @ 0x515ae0] non-existing PPS 0 referenced
    Last message repeated 1 times
[h264 @ 0x515ae0] decode_slice_header error
[h264 @ 0x515ae0] no frame!
[h264 @ 0x515ae0] non-existing PPS 0 referenced
    Last message repeated 1 times
[h264 @ 0x515ae0] decode_slice_header error
[h264 @ 0x515ae0] no frame!
[h264 @ 0x515ae0] non-existing PPS 0 referenced
    Last message repeated 1 times
[h264 @ 0x515ae0] decode_slice_header error
[h264 @ 0x515ae0] no frame!
[h264 @ 0x515ae0] non-existing PPS 0 referenced
    Last message repeated 1 times
[h264 @ 0x515ae0] decode_slice_header error
[h264 @ 0x515ae0] no frame!
[h264 @ 0x515ae0] non-existing PPS 0 referenced
    Last message repeated 1 times
[h264 @ 0x515ae0] decode_slice_header error
[h264 @ 0x515ae0] no frame!
[h264 @ 0x515ae0] non-existing PPS 0 referenced
    Last message repeated 1 times
[h264 @ 0x515ae0] decode_slice_header error
[h264 @ 0x515ae0] no frame!
[h264 @ 0x515ae0] non-existing PPS 0 referenced
    Last message repeated 1 times
[h264 @ 0x515ae0] decode_slice_header error
[h264 @ 0x515ae0] no frame!
[h264 @ 0x515ae0] non-existing PPS 0 referenced
    Last message repeated 1 times
[h264 @ 0x515ae0] decode_slice_header error
[h264 @ 0x515ae0] no frame!
[h264 @ 0x515ae0] non-existing PPS 0 referenced
    Last message repeated 1 times
[h264 @ 0x515ae0] decode_slice_header error
[h264 @ 0x515ae0] no frame!
[h264 @ 0x5462d0] non-existing PPS 0 referenced
    Last message repeated 1 times
[h264 @ 0x5462d0] decode_slice_header error
[h264 @ 0x5462d0] no frame!
[h264 @ 0x5462d0] non-existing PPS 0 referenced
    Last message repeated 1 times
[h264 @ 0x5462d0] decode_slice_header error
[h264 @ 0x5462d0] no frame!
[h264 @ 0x5462d0] non-existing PPS 0 referenced
    Last message repeated 1 times
[h264 @ 0x5462d0] decode_slice_header error
[h264 @ 0x5462d0] no frame!
[h264 @ 0x5462d0] non-existing PPS 0 referenced
    Last message repeated 1 times
[h264 @ 0x5462d0] decode_slice_header error
[h264 @ 0x5462d0] no frame!
[h264 @ 0x5462d0] non-existing PPS 0 referenced
    Last message repeated 1 times
[h264 @ 0x5462d0] decode_slice_header error
[h264 @ 0x5462d0] no frame!
[h264 @ 0x5462d0] non-existing PPS 0 referenced
    Last message repeated 1 times
[h264 @ 0x5462d0] decode_slice_header error
[h264 @ 0x5462d0] no frame!
[h264 @ 0x5462d0] non-existing PPS 0 referenced
    Last message repeated 1 times
[h264 @ 0x5462d0] decode_slice_header error
[h264 @ 0x5462d0] no frame!
[h264 @ 0x5462d0] non-existing PPS 0 referenced
    Last message repeated 1 times
[h264 @ 0x5462d0] decode_slice_header error
[h264 @ 0x5462d0] no frame!
[h264 @ 0x5462d0] non-existing PPS 0 referenced
    Last message repeated 1 times
[h264 @ 0x5462d0] decode_slice_header error
[h264 @ 0x5462d0] no frame!
[h264 @ 0x5462d0] non-existing PPS 0 referenced
    Last message repeated 1 times
[h264 @ 0x5462d0] decode_slice_header error
[h264 @ 0x5462d0] no frame!
[h264 @ 0x5462d0] non-existing PPS 0 referenced
    Last message repeated 1 times
[h264 @ 0x5462d0] decode_slice_header error
[h264 @ 0x5462d0] no frame!
[h264 @ 0x5462d0] non-existing PPS 0 referenced
    Last message repeated 1 times
[h264 @ 0x5462d0] decode_slice_header error
[h264 @ 0x5462d0] no frame!
[h264 @ 0x5462d0] non-existing PPS 0 referenced
    Last message repeated 1 times
[h264 @ 0x5462d0] decode_slice_header error
[h264 @ 0x5462d0] no frame!
[h264 @ 0x5462d0] non-existing PPS 0 referenced
    Last message repeated 1 times
[h264 @ 0x5462d0] decode_slice_header error
[h264 @ 0x5462d0] no frame!
[h264 @ 0x5462d0] non-existing PPS 0 referenced
    Last message repeated 1 times
[h264 @ 0x5462d0] decode_slice_header error
[h264 @ 0x5462d0] no frame!
[h264 @ 0x5462d0] non-existing PPS 0 referenced
    Last message repeated 1 times
[h264 @ 0x5462d0] decode_slice_header error
[h264 @ 0x5462d0] no frame!
[h264 @ 0x5462d0] non-existing PPS 0 referenced
    Last message repeated 1 times
[h264 @ 0x5462d0] decode_slice_header error
[h264 @ 0x5462d0] no frame!
[h264 @ 0x5462d0] non-existing PPS 0 referenced
    Last message repeated 1 times
[h264 @ 0x5462d0] decode_slice_header error
[h264 @ 0x5462d0] no frame!
[h264 @ 0x5462d0] non-existing PPS 0 referenced
    Last message repeated 1 times
[h264 @ 0x5462d0] decode_slice_header error
[h264 @ 0x5462d0] no frame!
[h264 @ 0x5462d0] non-existing PPS 0 referenced
    Last message repeated 1 times
[h264 @ 0x5462d0] decode_slice_header error
[h264 @ 0x5462d0] no frame!
[h264 @ 0x5462d0] non-existing PPS 0 referenced
    Last message repeated 1 times
[h264 @ 0x5462d0] decode_slice_header error
[h264 @ 0x5462d0] no frame!
[h264 @ 0x5462d0] non-existing PPS 0 referenced
    Last message repeated 1 times
[h264 @ 0x5462d0] decode_slice_header error
[h264 @ 0x5462d0] no frame!
[h264 @ 0x5462d0] non-existing PPS 0 referenced
    Last message repeated 1 times
[h264 @ 0x5462d0] decode_slice_header error
[h264 @ 0x5462d0] no frame!
[h264 @ 0x5462d0] non-existing PPS 0 referenced
    Last message repeated 1 times
[h264 @ 0x5462d0] decode_slice_header error
[h264 @ 0x5462d0] no frame!
[h264 @ 0x5462d0] non-existing PPS 0 referenced
    Last message repeated 1 times
[h264 @ 0x5462d0] decode_slice_header error
[h264 @ 0x5462d0] no frame!
[h264 @ 0x5462d0] non-existing PPS 0 referenced
    Last message repeated 1 times
[h264 @ 0x5462d0] decode_slice_header error
[h264 @ 0x5462d0] no frame!
[h264 @ 0x5462d0] non-existing PPS 0 referenced
    Last message repeated 1 times
[h264 @ 0x5462d0] decode_slice_header error
[h264 @ 0x5462d0] no frame!
[h264 @ 0x5462d0] non-existing PPS 0 referenced
    Last message repeated 1 times
[h264 @ 0x5462d0] decode_slice_header error
[h264 @ 0x5462d0] no frame!
[h264 @ 0x5462d0] non-existing PPS 0 referenced
    Last message repeated 1 times
[h264 @ 0x5462d0] decode_slice_header error
[h264 @ 0x5462d0] no frame!
[h264 @ 0x5462d0] non-existing PPS 0 referenced
    Last message repeated 1 times
[h264 @ 0x5462d0] decode_slice_header error
[h264 @ 0x5462d0] no frame!
[h264 @ 0x5462d0] non-existing PPS 0 referenced
    Last message repeated 1 times
[h264 @ 0x5462d0] decode_slice_header error
[h264 @ 0x5462d0] no frame!
[h264 @ 0x6eba90] non-existing PPS 0 referenced
    Last message repeated 1 times
[h264 @ 0x6eba90] decode_slice_header error
[h264 @ 0x6eba90] no frame!
[h264 @ 0x6eba90] non-existing PPS 0 referenced
    Last message repeated 1 times
[h264 @ 0x6eba90] decode_slice_header error
[h264 @ 0x6eba90] no frame!
[h264 @ 0x6eba90] non-existing PPS 0 referenced
    Last message repeated 1 times
[h264 @ 0x6eba90] decode_slice_header error
[h264 @ 0x6eba90] no frame!
[h264 @ 0x758780] non-existing PPS 0 referenced
    Last message repeated 1 times
[h264 @ 0x758780] decode_slice_header error
[h264 @ 0x758780] no frame!
[h264 @ 0x758780] non-existing PPS 0 referenced
    Last message repeated 1 times
[h264 @ 0x758780] decode_slice_header error
[h264 @ 0x758780] no frame!
[h264 @ 0x758780] non-existing PPS 0 referenced
    Last message repeated 1 times
[h264 @ 0x758780] decode_slice_header error
[h264 @ 0x758780] no frame!
[h264 @ 0x758780] non-existing PPS 0 referenced
    Last message repeated 1 times
[h264 @ 0x758780] decode_slice_header error
[h264 @ 0x758780] no frame!
[h264 @ 0x758780] non-existing PPS 0 referenced
    Last message repeated 1 times
[h264 @ 0x758780] decode_slice_header error
[h264 @ 0x758780] no frame!
[h264 @ 0x758780] non-existing PPS 0 referenced
    Last message repeated 1 times
[h264 @ 0x758780] decode_slice_header error
[h264 @ 0x758780] no frame!
[h264 @ 0x758780] non-existing PPS 0 referenced
    Last message repeated 1 times
[h264 @ 0x758780] decode_slice_header error
[h264 @ 0x758780] no frame!
[h264 @ 0x758780] non-existing PPS 0 referenced
    Last message repeated 1 times
[h264 @ 0x758780] decode_slice_header error
[h264 @ 0x758780] no frame!
[h264 @ 0x758780] non-existing PPS 0 referenced
    Last message repeated 1 times
[h264 @ 0x758780] decode_slice_header error
[h264 @ 0x758780] no frame!
[h264 @ 0x758780] non-existing PPS 0 referenced
    Last message repeated 1 times
[h264 @ 0x758780] decode_slice_header error
[h264 @ 0x758780] no frame!
[h264 @ 0x758780] non-existing PPS 0 referenced
    Last message repeated 1 times
[h264 @ 0x758780] decode_slice_header error
[h264 @ 0x758780] no frame!
[h264 @ 0x758780] non-existing PPS 0 referenced
    Last message repeated 1 times
[h264 @ 0x758780] decode_slice_header error
[h264 @ 0x758780] no frame!
[h264 @ 0x758780] non-existing PPS 0 referenced
    Last message repeated 1 times
[h264 @ 0x758780] decode_slice_header error
[h264 @ 0x758780] no frame!
[h264 @ 0x758780] non-existing PPS 0 referenced
    Last message repeated 1 times
[h264 @ 0x758780] decode_slice_header error
[h264 @ 0x758780] no frame!
[h264 @ 0x758780] non-existing PPS 0 referenced
    Last message repeated 1 times
[h264 @ 0x758780] decode_slice_header error
[h264 @ 0x758780] no frame!
[h264 @ 0x758780] non-existing PPS 0 referenced
    Last message repeated 1 times
[h264 @ 0x758780] decode_slice_header error
[h264 @ 0x758780] no frame!
[h264 @ 0x758780] non-existing PPS 0 referenced
    Last message repeated 1 times
[h264 @ 0x758780] decode_slice_header error
[h264 @ 0x758780] no frame!
[h264 @ 0x758780] non-existing PPS 0 referenced
    Last message repeated 1 times
[h264 @ 0x758780] decode_slice_header error
[h264 @ 0x758780] no frame!
[h264 @ 0x758780] non-existing PPS 0 referenced
    Last message repeated 1 times
[h264 @ 0x758780] decode_slice_header error
[h264 @ 0x758780] no frame!
[h264 @ 0x758780] non-existing PPS 0 referenced
    Last message repeated 1 times
[h264 @ 0x758780] decode_slice_header error
[h264 @ 0x758780] no frame!
[h264 @ 0x758780] non-existing PPS 0 referenced
    Last message repeated 1 times
[h264 @ 0x758780] decode_slice_header error
[h264 @ 0x758780] no frame!
[h264 @ 0x758780] non-existing PPS 0 referenced
    Last message repeated 1 times
[h264 @ 0x758780] decode_slice_header error
[h264 @ 0x758780] no frame!
[h264 @ 0x758780] non-existing PPS 0 referenced
    Last message repeated 1 times
[h264 @ 0x758780] decode_slice_header error
[h264 @ 0x758780] no frame!
[h264 @ 0x758780] non-existing PPS 0 referenced
    Last message repeated 1 times
[h264 @ 0x758780] decode_slice_header error
[h264 @ 0x758780] no frame!
[h264 @ 0x758780] non-existing PPS 0 referenced
    Last message repeated 1 times
[h264 @ 0x758780] decode_slice_header error
[h264 @ 0x758780] no frame!
[h264 @ 0x758780] non-existing PPS 0 referenced
    Last message repeated 1 times
[h264 @ 0x758780] decode_slice_header error
[h264 @ 0x758780] no frame!
[h264 @ 0x758780] non-existing PPS 0 referenced
    Last message repeated 1 times
[h264 @ 0x758780] decode_slice_header error
[h264 @ 0x758780] no frame!
[h264 @ 0x758780] non-existing PPS 0 referenced
    Last message repeated 1 times
[h264 @ 0x758780] decode_slice_header error
[h264 @ 0x758780] no frame!
[h264 @ 0x758780] non-existing PPS 0 referenced
    Last message repeated 1 times
[h264 @ 0x758780] decode_slice_header error
[h264 @ 0x758780] no frame!
[h264 @ 0x758780] non-existing PPS 0 referenced
    Last message repeated 1 times
[h264 @ 0x758780] decode_slice_header error
[h264 @ 0x758780] no frame!
[h264 @ 0x758780] non-existing PPS 0 referenced
    Last message repeated 1 times
[h264 @ 0x758780] decode_slice_header error
[h264 @ 0x758780] no frame!
[h264 @ 0x758780] non-existing PPS 0 referenced
    Last message repeated 1 times
[h264 @ 0x758780] decode_slice_header error
[h264 @ 0x758780] no frame!
[h264 @ 0x758780] non-existing PPS 0 referenced
    Last message repeated 1 times
[h264 @ 0x758780] decode_slice_header error
[h264 @ 0x758780] no frame!
[h264 @ 0x758780] non-existing PPS 0 referenced
    Last message repeated 1 times
[h264 @ 0x758780] decode_slice_header error
[h264 @ 0x758780] no frame!
[h264 @ 0x758780] non-existing PPS 0 referenced
    Last message repeated 1 times
[h264 @ 0x758780] decode_slice_header error
[h264 @ 0x758780] no frame!
[h264 @ 0x758780] non-existing PPS 0 referenced
    Last message repeated 1 times
[h264 @ 0x758780] decode_slice_header error
[h264 @ 0x758780] no frame!
[h264 @ 0x520d90] non-existing PPS 0 referenced
    Last message repeated 1 times
[h264 @ 0x520d90] decode_slice_header error
[h264 @ 0x520d90] no frame!
[h264 @ 0x520d90] non-existing PPS 0 referenced
    Last message repeated 1 times
[h264 @ 0x520d90] decode_slice_header error
[h264 @ 0x520d90] no frame!
[h264 @ 0x520d90] non-existing PPS 0 referenced
    Last message repeated 1 times
[h264 @ 0x520d90] decode_slice_header error
[h264 @ 0x520d90] no frame!
[h264 @ 0x520d90] non-existing PPS 0 referenced
    Last message repeated 1 times
[h264 @ 0x520d90] decode_slice_header error
[h264 @ 0x520d90] no frame!
[h264 @ 0x520d90] non-existing PPS 0 referenced
    Last message repeated 1 times
[h264 @ 0x520d90] decode_slice_header error
[h264 @ 0x520d90] no frame!
[h264 @ 0x520d90] non-existing PPS 0 referenced
    Last message repeated 1 times
[h264 @ 0x520d90] decode_slice_header error
[h264 @ 0x520d90] no frame!
[h264 @ 0x520d90] non-existing PPS 0 referenced
    Last message repeated 1 times
[h264 @ 0x520d90] decode_slice_header error
[h264 @ 0x520d90] no frame!
[h264 @ 0x520d90] non-existing PPS 0 referenced
    Last message repeated 1 times
[h264 @ 0x520d90] decode_slice_header error
[h264 @ 0x520d90] no frame!
[h264 @ 0x520d90] non-existing PPS 0 referenced
    Last message repeated 1 times
[h264 @ 0x520d90] decode_slice_header error
[h264 @ 0x520d90] no frame!
[h264 @ 0x520d90] non-existing PPS 0 referenced
    Last message repeated 1 times
[h264 @ 0x520d90] decode_slice_header error
[h264 @ 0x520d90] no frame!
[h264 @ 0x520d90] non-existing PPS 0 referenced
    Last message repeated 1 times
[h264 @ 0x520d90] decode_slice_header error
[h264 @ 0x520d90] no frame!
[h264 @ 0x90a020] non-existing PPS 0 referenced
    Last message repeated 1 times
[h264 @ 0x90a020] decode_slice_header error
[h264 @ 0x90a020] no frame!
[h264 @ 0x90a020] non-existing PPS 0 referenced
    Last message repeated 1 times
[h264 @ 0x90a020] decode_slice_header error
[h264 @ 0x90a020] no frame!
[h264 @ 0x90a020] non-existing PPS 0 referenced
    Last message repeated 1 times
[h264 @ 0x90a020] decode_slice_header error
[h264 @ 0x90a020] no frame!
[h264 @ 0x90a020] non-existing PPS 0 referenced
    Last message repeated 1 times
[h264 @ 0x90a020] decode_slice_header error
[h264 @ 0x90a020] no frame!
[h264 @ 0x90a020] non-existing PPS 0 referenced
    Last message repeated 1 times
[h264 @ 0x90a020] decode_slice_header error
[h264 @ 0x90a020] no frame!
[h264 @ 0x90a020] non-existing PPS 0 referenced
    Last message repeated 1 times
[h264 @ 0x90a020] decode_slice_header error
[h264 @ 0x90a020] no frame!
[h264 @ 0x90a020] non-existing PPS 0 referenced
    Last message repeated 1 times
[h264 @ 0x90a020] decode_slice_header error
[h264 @ 0x90a020] no frame!
[h264 @ 0x90a020] non-existing PPS 0 referenced
    Last message repeated 1 times
[h264 @ 0x90a020] decode_slice_header error
[h264 @ 0x90a020] no frame!
[h264 @ 0x90a020] non-existing PPS 0 referenced
    Last message repeated 1 times
[h264 @ 0x90a020] decode_slice_header error
[h264 @ 0x90a020] no frame!
[h264 @ 0x90a020] non-existing PPS 0 referenced
    Last message repeated 1 times
[h264 @ 0x90a020] decode_slice_header error
[h264 @ 0x90a020] no frame!
[h264 @ 0x90a020] non-existing PPS 0 referenced
    Last message repeated 1 times
[h264 @ 0x90a020] decode_slice_header error
[h264 @ 0x90a020] no frame!
[h264 @ 0x90a020] non-existing PPS 0 referenced
    Last message repeated 1 times
[h264 @ 0x90a020] decode_slice_header error
[h264 @ 0x90a020] no frame!
[h264 @ 0x90a020] non-existing PPS 0 referenced
    Last message repeated 1 times
[h264 @ 0x90a020] decode_slice_header error
[h264 @ 0x90a020] no frame!
[h264 @ 0x90a020] non-existing PPS 0 referenced
    Last message repeated 1 times
[h264 @ 0x90a020] decode_slice_header error
[h264 @ 0x90a020] no frame!
[h264 @ 0x90a020] non-existing PPS 0 referenced
    Last message repeated 1 times
[h264 @ 0x90a020] decode_slice_header error
[h264 @ 0x90a020] no frame!
[h264 @ 0x90a020] non-existing PPS 0 referenced
    Last message repeated 1 times
[h264 @ 0x90a020] decode_slice_header error
[h264 @ 0x90a020] no frame!
[h264 @ 0x90a020] non-existing PPS 0 referenced
    Last message repeated 1 times
[h264 @ 0x90a020] decode_slice_header error
[h264 @ 0x90a020] no frame!
[h264 @ 0x90a020] non-existing PPS 0 referenced
    Last message repeated 1 times
[h264 @ 0x90a020] decode_slice_header error
[h264 @ 0x90a020] no frame!
[h264 @ 0x90a020] non-existing PPS 0 referenced
    Last message repeated 1 times
[h264 @ 0x90a020] decode_slice_header error
[h264 @ 0x90a020] no frame!
[h264 @ 0x90a020] non-existing PPS 0 referenced
    Last message repeated 1 times
[h264 @ 0x90a020] decode_slice_header error
[h264 @ 0x90a020] no frame!
[h264 @ 0x90a020] non-existing PPS 0 referenced
    Last message repeated 1 times
[h264 @ 0x90a020] decode_slice_header error
[h264 @ 0x90a020] no frame!
[h264 @ 0x90a020] non-existing PPS 0 referenced
    Last message repeated 1 times
[h264 @ 0x90a020] decode_slice_header error
[h264 @ 0x90a020] no frame!
[h264 @ 0x90a020] non-existing PPS 0 referenced
    Last message repeated 1 times
[h264 @ 0x90a020] decode_slice_header error
[h264 @ 0x90a020] no frame!
[h264 @ 0x90a020] non-existing PPS 0 referenced
    Last message repeated 1 times
[h264 @ 0x90a020] decode_slice_header error
[h264 @ 0x90a020] no frame!
[h264 @ 0x90a020] non-existing PPS 0 referenced
    Last message repeated 1 times
[h264 @ 0x90a020] decode_slice_header error
[h264 @ 0x90a020] no frame!
[h264 @ 0x90a020] non-existing PPS 0 referenced
    Last message repeated 1 times
[h264 @ 0x90a020] decode_slice_header error
[h264 @ 0x90a020] no frame!
[h264 @ 0x90a020] non-existing PPS 0 referenced
    Last message repeated 1 times
[h264 @ 0x90a020] decode_slice_header error
[h264 @ 0x90a020] no frame!
[h264 @ 0x90a020] non-existing PPS 0 referenced
    Last message repeated 1 times
[h264 @ 0x90a020] decode_slice_header error
[h264 @ 0x90a020] no frame!
[h264 @ 0x90a020] non-existing PPS 0 referenced
    Last message repeated 1 times
[h264 @ 0x90a020] decode_slice_header error
[h264 @ 0x90a020] no frame!
[h264 @ 0x90a020] non-existing PPS 0 referenced
    Last message repeated 1 times
[h264 @ 0x90a020] decode_slice_header error
[h264 @ 0x90a020] no frame!
[h264 @ 0x90a020] non-existing PPS 0 referenced
    Last message repeated 1 times
[h264 @ 0x90a020] decode_slice_header error
[h264 @ 0x90a020] no frame!
[h264 @ 0x90a020] non-existing PPS 0 referenced
    Last message repeated 1 times
[h264 @ 0x90a020] decode_slice_header error
[h264 @ 0x90a020] no frame!
[h264 @ 0x90a020] non-existing PPS 0 referenced
    Last message repeated 1 times
[h264 @ 0x90a020] decode_slice_header error
[h264 @ 0x90a020] no frame!
[h264 @ 0x90a020] non-existing PPS 0 referenced
    Last message repeated 1 times
[h264 @ 0x90a020] decode_slice_header error
[h264 @ 0x90a020] no frame!
[h264 @ 0x90a020] non-existing PPS 0 referenced
    Last message repeated 1 times
[h264 @ 0x90a020] decode_slice_header error
[h264 @ 0x90a020] no frame!
[h264 @ 0x734600] non-existing PPS 0 referenced
    Last message repeated 1 times
[h264 @ 0x734600] decode_slice_header error
[h264 @ 0x734600] no frame!
[h264 @ 0x734600] non-existing PPS 0 referenced
    Last message repeated 1 times
[h264 @ 0x734600] decode_slice_header error
[h264 @ 0x734600] no frame!
[h264 @ 0x734600] non-existing PPS 0 referenced
    Last message repeated 1 times
[h264 @ 0x734600] decode_slice_header error
[h264 @ 0x734600] no frame!
[h264 @ 0x734600] non-existing PPS 0 referenced
    Last message repeated 1 times
[h264 @ 0x734600] decode_slice_header error
[h264 @ 0x734600] no frame!
[h264 @ 0x734600] non-existing PPS 0 referenced
    Last message repeated 1 times
[h264 @ 0x734600] decode_slice_header error
[h264 @ 0x734600] no frame!
[h264 @ 0x734600] non-existing PPS 0 referenced
    Last message repeated 1 times
[h264 @ 0x734600] decode_slice_header error
[h264 @ 0x734600] no frame!
[h264 @ 0x734600] non-existing PPS 0 referenced
    Last message repeated 1 times
[h264 @ 0x734600] decode_slice_header error
[h264 @ 0x734600] no frame!
[h264 @ 0x734600] non-existing PPS 0 referenced
    Last message repeated 1 times
[h264 @ 0x734600] decode_slice_header error
[h264 @ 0x734600] no frame!
[h264 @ 0x734600] non-existing PPS 0 referenced
    Last message repeated 1 times
[h264 @ 0x734600] decode_slice_header error
[h264 @ 0x734600] no frame!
[h264 @ 0x734600] non-existing PPS 0 referenced
    Last message repeated 1 times
[h264 @ 0x734600] decode_slice_header error
[h264 @ 0x734600] no frame!
[h264 @ 0x734600] non-existing PPS 0 referenced
    Last message repeated 1 times
[h264 @ 0x734600] decode_slice_header error
[h264 @ 0x734600] no frame!
[h264 @ 0x734600] non-existing PPS 0 referenced
    Last message repeated 1 times
[h264 @ 0x734600] decode_slice_header error
[h264 @ 0x734600] no frame!
[h264 @ 0x734600] non-existing PPS 0 referenced
    Last message repeated 1 times
[h264 @ 0x734600] decode_slice_header error
[h264 @ 0x734600] no frame!
[h264 @ 0x734600] non-existing PPS 0 referenced
    Last message repeated 1 times
[h264 @ 0x734600] decode_slice_header error
[h264 @ 0x734600] no frame!
[h264 @ 0x734600] non-existing PPS 0 referenced
    Last message repeated 1 times
[h264 @ 0x734600] decode_slice_header error
[h264 @ 0x734600] no frame!
[h264 @ 0x734600] non-existing PPS 0 referenced
    Last message repeated 1 times
[h264 @ 0x734600] decode_slice_header error
[h264 @ 0x734600] no frame!
[h264 @ 0x734600] non-existing PPS 0 referenced
    Last message repeated 1 times
[h264 @ 0x734600] decode_slice_header error
[h264 @ 0x734600] no frame!
[h264 @ 0x734600] non-existing PPS 0 referenced
    Last message repeated 1 times
[h264 @ 0x734600] decode_slice_header error
[h264 @ 0x734600] no frame!
[h264 @ 0x734600] non-existing PPS 0 referenced
    Last message repeated 1 times
[h264 @ 0x734600] decode_slice_header error
[h264 @ 0x734600] no frame!
[h264 @ 0x734600] non-existing PPS 0 referenced
    Last message repeated 1 times
[h264 @ 0x734600] decode_slice_header error
[h264 @ 0x734600] no frame!
[h264 @ 0x734600] non-existing PPS 0 referenced
    Last message repeated 1 times
[h264 @ 0x734600] decode_slice_header error
[h264 @ 0x734600] no frame!
[h264 @ 0x734600] non-existing PPS 0 referenced
    Last message repeated 1 times
[h264 @ 0x734600] decode_slice_header error
[h264 @ 0x734600] no frame!
[h264 @ 0x734600] non-existing PPS 0 referenced
    Last message repeated 1 times
[h264 @ 0x734600] decode_slice_header error
[h264 @ 0x734600] no frame!
[h264 @ 0x734600] non-existing PPS 0 referenced
    Last message repeated 1 times
[h264 @ 0x734600] decode_slice_header error
[h264 @ 0x734600] no frame!
[h264 @ 0x734600] non-existing PPS 0 referenced
    Last message repeated 1 times
[h264 @ 0x734600] decode_slice_header error
[h264 @ 0x734600] no frame!
[h264 @ 0x734600] non-existing PPS 0 referenced
    Last message repeated 1 times
[h264 @ 0x734600] decode_slice_header error
[h264 @ 0x734600] no frame!
[h264 @ 0x734600] non-existing PPS 0 referenced
    Last message repeated 1 times
[h264 @ 0x734600] decode_slice_header error
[h264 @ 0x734600] no frame!
[h264 @ 0x734600] non-existing PPS 0 referenced
    Last message repeated 1 times
[h264 @ 0x734600] decode_slice_header error
[h264 @ 0x734600] no frame!
[h264 @ 0x734600] non-existing PPS 0 referenced
    Last message repeated 1 times
[h264 @ 0x734600] decode_slice_header error
[h264 @ 0x734600] no frame!
[h264 @ 0x734600] non-existing PPS 0 referenced
    Last message repeated 1 times
[h264 @ 0x734600] decode_slice_header error
[h264 @ 0x734600] no frame!
[h264 @ 0x734600] non-existing PPS 0 referenced
    Last message repeated 1 times
[h264 @ 0x734600] decode_slice_header error
[h264 @ 0x734600] no frame!
[h264 @ 0x734600] non-existing PPS 0 referenced
    Last message repeated 1 times
[h264 @ 0x734600] decode_slice_header error
[h264 @ 0x734600] no frame!
[h264 @ 0x734600] non-existing PPS 0 referenced
    Last message repeated 1 times
[h264 @ 0x734600] decode_slice_header error
[h264 @ 0x734600] no frame!
[h264 @ 0x734600] non-existing PPS 0 referenced
    Last message repeated 1 times
[h264 @ 0x734600] decode_slice_header error
[h264 @ 0x734600] no frame!
[h264 @ 0x734600] non-existing PPS 0 referenced
    Last message repeated 1 times
[h264 @ 0x734600] decode_slice_header error
[h264 @ 0x734600] no frame!
[h264 @ 0x734600] non-existing PPS 0 referenced
    Last message repeated 1 times
[h264 @ 0x734600] decode_slice_header error
[h264 @ 0x734600] no frame!
[h264 @ 0x734600] non-existing PPS 0 referenced
    Last message repeated 1 times
[h264 @ 0x734600] decode_slice_header error
[h264 @ 0x734600] no frame!
[h264 @ 0x734600] non-existing PPS 0 referenced
    Last message repeated 1 times
[h264 @ 0x734600] decode_slice_header error
[h264 @ 0x734600] no frame!
[h264 @ 0x734600] non-existing PPS 0 referenced
    Last message repeated 1 times
[h264 @ 0x734600] decode_slice_header error
[h264 @ 0x734600] no frame!
[h264 @ 0x734600] non-existing PPS 0 referenced
    Last message repeated 1 times
[h264 @ 0x734600] decode_slice_header error
[h264 @ 0x734600] no frame!
[h264 @ 0x734600] non-existing PPS 0 referenced
    Last message repeated 1 times
[h264 @ 0x734600] decode_slice_header error
[h264 @ 0x734600] no frame!
[h264 @ 0x734600] non-existing PPS 0 referenced
    Last message repeated 1 times
[h264 @ 0x734600] decode_slice_header error
[h264 @ 0x734600] no frame!
[h264 @ 0x734600] non-existing PPS 0 referenced
    Last message repeated 1 times
[h264 @ 0x734600] decode_slice_header error
[h264 @ 0x734600] no frame!
[h264 @ 0xb02210] non-existing PPS 0 referenced
    Last message repeated 1 times
[h264 @ 0xb02210] decode_slice_header error
[h264 @ 0xb02210] no frame!
[h264 @ 0xb02210] non-existing PPS 0 referenced
    Last message repeated 1 times
[h264 @ 0xb02210] decode_slice_header error
[h264 @ 0xb02210] no frame!
[h264 @ 0xb02210] non-existing PPS 0 referenced
    Last message repeated 1 times
[h264 @ 0xb02210] decode_slice_header error
[h264 @ 0xb02210] no frame!
[h264 @ 0xb02210] non-existing PPS 0 referenced
    Last message repeated 1 times
[h264 @ 0xb02210] decode_slice_header error
[h264 @ 0xb02210] no frame!
[h264 @ 0xb02210] non-existing PPS 0 referenced
    Last message repeated 1 times
[h264 @ 0xb02210] decode_slice_header error
[h264 @ 0xb02210] no frame!
[h264 @ 0xb02210] non-existing PPS 0 referenced
    Last message repeated 1 times
[h264 @ 0xb02210] decode_slice_header error
[h264 @ 0xb02210] no frame!
[h264 @ 0xb02210] non-existing PPS 0 referenced
    Last message repeated 1 times
[h264 @ 0xb02210] decode_slice_header error
[h264 @ 0xb02210] no frame!
[h264 @ 0xb02210] non-existing PPS 0 referenced
    Last message repeated 1 times
[h264 @ 0xb02210] decode_slice_header error
[h264 @ 0xb02210] no frame!
[h264 @ 0xb02210] non-existing PPS 0 referenced
    Last message repeated 1 times
[h264 @ 0xb02210] decode_slice_header error
[h264 @ 0xb02210] no frame!
[h264 @ 0xb02210] non-existing PPS 0 referenced
    Last message repeated 1 times
[h264 @ 0xb02210] decode_slice_header error
[h264 @ 0xb02210] no frame!
[h264 @ 0xb2d590] non-existing PPS 0 referenced
    Last message repeated 1 times
[h264 @ 0xb2d590] decode_slice_header error
[h264 @ 0xb2d590] no frame!
[h264 @ 0xb2d590] non-existing PPS 0 referenced
    Last message repeated 1 times
[h264 @ 0xb2d590] decode_slice_header error
[h264 @ 0xb2d590] no frame!
[h264 @ 0xb2d590] non-existing PPS 0 referenced
    Last message repeated 1 times
[h264 @ 0xb2d590] decode_slice_header error
[h264 @ 0xb2d590] no frame!
[h264 @ 0xb2d590] non-existing PPS 0 referenced
    Last message repeated 1 times
[h264 @ 0xb2d590] decode_slice_header error
[h264 @ 0xb2d590] no frame!
[h264 @ 0xb2d590] non-existing PPS 0 referenced
    Last message repeated 1 times
[h264 @ 0xb2d590] decode_slice_header error
[h264 @ 0xb2d590] no frame!
[h264 @ 0xb2d590] non-existing PPS 0 referenced
    Last message repeated 1 times
[h264 @ 0xb2d590] decode_slice_header error
[h264 @ 0xb2d590] no frame!
[h264 @ 0xb2d590] non-existing PPS 0 referenced
    Last message repeated 1 times
[h264 @ 0xb2d590] decode_slice_header error
[h264 @ 0xb2d590] no frame!
[h264 @ 0xb2d590] non-existing PPS 0 referenced
    Last message repeated 1 times
[h264 @ 0xb2d590] decode_slice_header error
[h264 @ 0xb2d590] no frame!
[h264 @ 0xb2d590] non-existing PPS 0 referenced
    Last message repeated 1 times
[h264 @ 0xb2d590] decode_slice_header error
[h264 @ 0xb2d590] no frame!
[h264 @ 0xb2d590] non-existing PPS 0 referenced
    Last message repeated 1 times
[h264 @ 0xb2d590] decode_slice_header error
[h264 @ 0xb2d590] no frame!
[h264 @ 0xb2d590] non-existing PPS 0 referenced
    Last message repeated 1 times
[h264 @ 0xb2d590] decode_slice_header error
[h264 @ 0xb2d590] no frame!
[h264 @ 0xb2d590] non-existing PPS 0 referenced
    Last message repeated 1 times
[h264 @ 0xb2d590] decode_slice_header error
[h264 @ 0xb2d590] no frame!
[h264 @ 0xb2d590] non-existing PPS 0 referenced
    Last message repeated 1 times
[h264 @ 0xb2d590] decode_slice_header error
[h264 @ 0xb2d590] no frame!
[h264 @ 0xb2d590] non-existing PPS 0 referenced
    Last message repeated 1 times
[h264 @ 0xb2d590] decode_slice_header error
[h264 @ 0xb2d590] no frame!
[h264 @ 0xb2d590] non-existing PPS 0 referenced
    Last message repeated 1 times
[h264 @ 0xb2d590] decode_slice_header error
[h264 @ 0xb2d590] no frame!
[h264 @ 0xb2d590] non-existing PPS 0 referenced
    Last message repeated 1 times
[h264 @ 0xb2d590] decode_slice_header error
[h264 @ 0xb2d590] no frame!
[h264 @ 0xb2d590] non-existing PPS 0 referenced
    Last message repeated 1 times
[h264 @ 0xb2d590] decode_slice_header error
[h264 @ 0xb2d590] no frame!
[h264 @ 0xb2d590] non-existing PPS 0 referenced
    Last message repeated 1 times
[h264 @ 0xb2d590] decode_slice_header error
[h264 @ 0xb2d590] no frame!
[h264 @ 0xb2d590] non-existing PPS 0 referenced
    Last message repeated 1 times
[h264 @ 0xb2d590] decode_slice_header error
[h264 @ 0xb2d590] no frame!
[h264 @ 0xb2d590] non-existing PPS 0 referenced
    Last message repeated 1 times
[h264 @ 0xb2d590] decode_slice_header error
[h264 @ 0xb2d590] no frame!
[h264 @ 0xa90e50] non-existing PPS 0 referenced
    Last message repeated 1 times
[h264 @ 0xa90e50] decode_slice_header error
[h264 @ 0xa90e50] no frame!
[h264 @ 0xa90e50] non-existing PPS 0 referenced
    Last message repeated 1 times
[h264 @ 0xa90e50] decode_slice_header error
[h264 @ 0xa90e50] no frame!
[h264 @ 0xa90e50] non-existing PPS 0 referenced
    Last message repeated 1 times
[h264 @ 0xa90e50] decode_slice_header error
[h264 @ 0xa90e50] no frame!
[h264 @ 0xa90e50] non-existing PPS 0 referenced
    Last message repeated 1 times
[h264 @ 0xa90e50] decode_slice_header error
[h264 @ 0xa90e50] no frame!
[h264 @ 0xa90e50] non-existing PPS 0 referenced
    Last message repeated 1 times
[h264 @ 0xa90e50] decode_slice_header error
[h264 @ 0xa90e50] no frame!
[h264 @ 0xa90e50] non-existing PPS 0 referenced
    Last message repeated 1 times
[h264 @ 0xa90e50] decode_slice_header error
[h264 @ 0xa90e50] no frame!
[h264 @ 0xa90e50] non-existing PPS 0 referenced
    Last message repeated 1 times
[h264 @ 0xa90e50] decode_slice_header error
[h264 @ 0xa90e50] no frame!
[h264 @ 0xa90e50] non-existing PPS 0 referenced
    Last message repeated 1 times
[h264 @ 0xa90e50] decode_slice_header error
[h264 @ 0xa90e50] no frame!
[h264 @ 0xa90e50] non-existing PPS 0 referenced
    Last message repeated 1 times
[h264 @ 0xa90e50] decode_slice_header error
[h264 @ 0xa90e50] no frame!
[h264 @ 0xa90e50] non-existing PPS 0 referenced
    Last message repeated 1 times
[h264 @ 0xa90e50] decode_slice_header error
[h264 @ 0xa90e50] no frame!
[h264 @ 0x4e1350] non-existing PPS 0 referenced
    Last message repeated 1 times
[h264 @ 0x4e1350] decode_slice_header error
[h264 @ 0x4e1350] no frame!
[h264 @ 0x4e1350] non-existing PPS 0 referenced
    Last message repeated 1 times
[h264 @ 0x4e1350] decode_slice_header error
[h264 @ 0x4e1350] no frame!
[h264 @ 0x4e1350] non-existing PPS 0 referenced
    Last message repeated 1 times
[h264 @ 0x4e1350] decode_slice_header error
[h264 @ 0x4e1350] no frame!
[h264 @ 0x4e1350] non-existing PPS 0 referenced
    Last message repeated 1 times
[h264 @ 0x4e1350] decode_slice_header error
[h264 @ 0x4e1350] no frame!
[h264 @ 0x4e1350] non-existing PPS 0 referenced
    Last message repeated 1 times
[h264 @ 0x4e1350] decode_slice_header error
[h264 @ 0x4e1350] no frame!
[h264 @ 0x4e1350] non-existing PPS 0 referenced
    Last message repeated 1 times
[h264 @ 0x4e1350] decode_slice_header error
[h264 @ 0x4e1350] no frame!
[h264 @ 0x4e1350] non-existing PPS 0 referenced
    Last message repeated 1 times
[h264 @ 0x4e1350] decode_slice_header error
[h264 @ 0x4e1350] no frame!
[h264 @ 0x4e1350] non-existing PPS 0 referenced
    Last message repeated 1 times
[h264 @ 0x4e1350] decode_slice_header error
[h264 @ 0x4e1350] no frame!
[h264 @ 0x4e1350] non-existing PPS 0 referenced
    Last message repeated 1 times
[h264 @ 0x4e1350] decode_slice_header error
[h264 @ 0x4e1350] no frame!
[h264 @ 0x4e1350] non-existing PPS 0 referenced
    Last message repeated 1 times
[h264 @ 0x4e1350] decode_slice_header error
[h264 @ 0x4e1350] no frame!
[h264 @ 0x4e1350] non-existing PPS 0 referenced
    Last message repeated 1 times
[h264 @ 0x4e1350] decode_slice_header error
[h264 @ 0x4e1350] no frame!
[h264 @ 0x4e1350] non-existing PPS 0 referenced
    Last message repeated 1 times
[h264 @ 0x4e1350] decode_slice_header error
[h264 @ 0x4e1350] no frame!
[h264 @ 0x4e1350] non-existing PPS 0 referenced
    Last message repeated 1 times
[h264 @ 0x4e1350] decode_slice_header error
[h264 @ 0x4e1350] no frame!
[h264 @ 0x4e1350] non-existing PPS 0 referenced
    Last message repeated 1 times
[h264 @ 0x4e1350] decode_slice_header error
[h264 @ 0x4e1350] no frame!
[h264 @ 0x4e1350] non-existing PPS 0 referenced
    Last message repeated 1 times
[h264 @ 0x4e1350] decode_slice_header error
[h264 @ 0x4e1350] no frame!
[h264 @ 0x4e1350] non-existing PPS 0 referenced
    Last message repeated 1 times
[h264 @ 0x4e1350] decode_slice_header error
[h264 @ 0x4e1350] no frame!
[h264 @ 0x4e1350] non-existing PPS 0 referenced
    Last message repeated 1 times
[h264 @ 0x4e1350] decode_slice_header error
[h264 @ 0x4e1350] no frame!
[h264 @ 0x4e1350] non-existing PPS 0 referenced
    Last message repeated 1 times
[h264 @ 0x4e1350] decode_slice_header error
[h264 @ 0x4e1350] no frame!
[h264 @ 0x4e1350] non-existing PPS 0 referenced
    Last message repeated 1 times
[h264 @ 0x4e1350] decode_slice_header error
[h264 @ 0x4e1350] no frame!
[h264 @ 0x4e1350] non-existing PPS 0 referenced
    Last message repeated 1 times
[h264 @ 0x4e1350] decode_slice_header error
[h264 @ 0x4e1350] no frame!
[h264 @ 0x4e1350] non-existing PPS 0 referenced
    Last message repeated 1 times
[h264 @ 0x4e1350] decode_slice_header error
[h264 @ 0x4e1350] no frame!
[h264 @ 0x4e1350] non-existing PPS 0 referenced
    Last message repeated 1 times
[h264 @ 0x4e1350] decode_slice_header error
[h264 @ 0x4e1350] no frame!
[h264 @ 0x4e1350] non-existing PPS 0 referenced
    Last message repeated 1 times
[h264 @ 0x4e1350] decode_slice_header error
[h264 @ 0x4e1350] no frame!
[h264 @ 0x4e1350] non-existing PPS 0 referenced
    Last message repeated 1 times
[h264 @ 0x4e1350] decode_slice_header error
[h264 @ 0x4e1350] no frame!
[h264 @ 0x4e1350] non-existing PPS 0 referenced
    Last message repeated 1 times
[h264 @ 0x4e1350] decode_slice_header error
[h264 @ 0x4e1350] no frame!
[h264 @ 0x4e1350] non-existing PPS 0 referenced
    Last message repeated 1 times
[h264 @ 0x4e1350] decode_slice_header error
[h264 @ 0x4e1350] no frame!
[h264 @ 0x4e1350] non-existing PPS 0 referenced
    Last message repeated 1 times
[h264 @ 0x4e1350] decode_slice_header error
[h264 @ 0x4e1350] no frame!
[h264 @ 0x4e1350] non-existing PPS 0 referenced
    Last message repeated 1 times
[h264 @ 0x4e1350] decode_slice_header error
[h264 @ 0x4e1350] no frame!
[h264 @ 0x4e1350] non-existing PPS 0 referenced
    Last message repeated 1 times
[h264 @ 0x4e1350] decode_slice_header error
[h264 @ 0x4e1350] no frame!
[h264 @ 0x4e1350] non-existing PPS 0 referenced
    Last message repeated 1 times
[h264 @ 0x4e1350] decode_slice_header error
[h264 @ 0x4e1350] no frame!
[h264 @ 0x4e1350] non-existing PPS 0 referenced
    Last message repeated 1 times
[h264 @ 0x4e1350] decode_slice_header error
[h264 @ 0x4e1350] no frame!
[h264 @ 0x4e1350] non-existing PPS 0 referenced
    Last message repeated 1 times
[h264 @ 0x4e1350] decode_slice_header error
[h264 @ 0x4e1350] no frame!
[h264 @ 0x4e1350] non-existing PPS 0 referenced
    Last message repeated 1 times
[h264 @ 0x4e1350] decode_slice_header error
[h264 @ 0x4e1350] no frame!
[h264 @ 0x4e1350] non-existing PPS 0 referenced
    Last message repeated 1 times
[h264 @ 0x4e1350] decode_slice_header error
[h264 @ 0x4e1350] no frame!
[h264 @ 0x4e1350] non-existing PPS 0 referenced
    Last message repeated 1 times
[h264 @ 0x4e1350] decode_slice_header error
[h264 @ 0x4e1350] no frame!
[h264 @ 0x4e1350] non-existing PPS 0 referenced
    Last message repeated 1 times
[h264 @ 0x4e1350] decode_slice_header error
[h264 @ 0x4e1350] no frame!
[h264 @ 0x4e1350] non-existing PPS 0 referenced
    Last message repeated 1 times
[h264 @ 0x4e1350] decode_slice_header error
[h264 @ 0x4e1350] no frame!
[h264 @ 0x4e1350] non-existing PPS 0 referenced
    Last message repeated 1 times
[h264 @ 0x4e1350] decode_slice_header error
[h264 @ 0x4e1350] no frame!
[h264 @ 0x4e1350] non-existing PPS 0 referenced
    Last message repeated 1 times
[h264 @ 0x4e1350] decode_slice_header error
[h264 @ 0x4e1350] no frame!
[h264 @ 0x4e1350] non-existing PPS 0 referenced
    Last message repeated 1 times
[h264 @ 0x4e1350] decode_slice_header error
[h264 @ 0x4e1350] no frame!
[h264 @ 0x4e1350] non-existing PPS 0 referenced
    Last message repeated 1 times
[h264 @ 0x4e1350] decode_slice_header error
[h264 @ 0x4e1350] no frame!
[h264 @ 0x4e1350] non-existing PPS 0 referenced
    Last message repeated 1 times
[h264 @ 0x4e1350] decode_slice_header error
[h264 @ 0x4e1350] no frame!
[h264 @ 0x4e1350] non-existing PPS 0 referenced
    Last message repeated 1 times
[h264 @ 0x4e1350] decode_slice_header error
[h264 @ 0x4e1350] no frame!
[h264 @ 0x4e1350] non-existing PPS 0 referenced
    Last message repeated 1 times
[h264 @ 0x4e1350] decode_slice_header error
[h264 @ 0x4e1350] no frame!
[h264 @ 0x4e1350] non-existing PPS 0 referenced
    Last message repeated 1 times
[h264 @ 0x4e1350] decode_slice_header error
[h264 @ 0x4e1350] no frame!
[h264 @ 0xd9a080] non-existing PPS 0 referenced
    Last message repeated 1 times
[h264 @ 0xd9a080] decode_slice_header error
[h264 @ 0xd9a080] no frame!
[h264 @ 0xd9a080] non-existing PPS 0 referenced
    Last message repeated 1 times
[h264 @ 0xd9a080] decode_slice_header error
[h264 @ 0xd9a080] no frame!
[h264 @ 0xd9a080] non-existing PPS 0 referenced
    Last message repeated 1 times
[h264 @ 0xd9a080] decode_slice_header error
[h264 @ 0xd9a080] no frame!
[h264 @ 0xd9a080] non-existing PPS 0 referenced
    Last message repeated 1 times
[h264 @ 0xd9a080] decode_slice_header error
[h264 @ 0xd9a080] no frame!
[h264 @ 0xd9a080] non-existing PPS 0 referenced
    Last message repeated 1 times
[h264 @ 0xd9a080] decode_slice_header error
[h264 @ 0xd9a080] no frame!
[h264 @ 0xd9a080] non-existing PPS 0 referenced
    Last message repeated 1 times
[h264 @ 0xd9a080] decode_slice_header error
[h264 @ 0xd9a080] no frame!
[h264 @ 0xd9a080] non-existing PPS 0 referenced
    Last message repeated 1 times
[h264 @ 0xd9a080] decode_slice_header error
[h264 @ 0xd9a080] no frame!
[h264 @ 0xd9a080] non-existing PPS 0 referenced
    Last message repeated 1 times
[h264 @ 0xd9a080] decode_slice_header error
[h264 @ 0xd9a080] no frame!
[h264 @ 0xd9a080] non-existing PPS 0 referenced
    Last message repeated 1 times
[h264 @ 0xd9a080] decode_slice_header error
[h264 @ 0xd9a080] no frame!
[h264 @ 0xd9a080] non-existing PPS 0 referenced
    Last message repeated 1 times
[h264 @ 0xd9a080] decode_slice_header error
[h264 @ 0xd9a080] no frame!
[h264 @ 0xd042e0] non-existing PPS 0 referenced
    Last message repeated 1 times
[h264 @ 0xd042e0] decode_slice_header error
[h264 @ 0xd042e0] no frame!
[h264 @ 0xd042e0] non-existing PPS 0 referenced
    Last message repeated 1 times
[h264 @ 0xd042e0] decode_slice_header error
[h264 @ 0xd042e0] no frame!
[h264 @ 0xd042e0] non-existing PPS 0 referenced
    Last message repeated 1 times
[h264 @ 0xd042e0] decode_slice_header error
[h264 @ 0xd042e0] no frame!
[h264 @ 0xd042e0] non-existing PPS 0 referenced
    Last message repeated 1 times
[h264 @ 0xd042e0] decode_slice_header error
[h264 @ 0xd042e0] no frame!
[h264 @ 0xd042e0] non-existing PPS 0 referenced
    Last message repeated 1 times
[h264 @ 0xd042e0] decode_slice_header error
[h264 @ 0xd042e0] no frame!
[h264 @ 0xd042e0] non-existing PPS 0 referenced
    Last message repeated 1 times
[h264 @ 0xd042e0] decode_slice_header error
[h264 @ 0xd042e0] no frame!
[h264 @ 0xd042e0] non-existing PPS 0 referenced
    Last message repeated 1 times
[h264 @ 0xd042e0] decode_slice_header error
[h264 @ 0xd042e0] no frame!
[h264 @ 0xd042e0] non-existing PPS 0 referenced
    Last message repeated 1 times
[h264 @ 0xd042e0] decode_slice_header error
[h264 @ 0xd042e0] no frame!
[h264 @ 0xd042e0] non-existing PPS 0 referenced
    Last message repeated 1 times
[h264 @ 0xd042e0] decode_slice_header error
[h264 @ 0xd042e0] no frame!
[h264 @ 0xd042e0] non-existing PPS 0 referenced
    Last message repeated 1 times
[h264 @ 0xd042e0] decode_slice_header error
[h264 @ 0xd042e0] no frame!
[h264 @ 0xd042e0] non-existing PPS 0 referenced
    Last message repeated 1 times
[h264 @ 0xd042e0] decode_slice_header error
[h264 @ 0xd042e0] no frame!
[h264 @ 0xd042e0] non-existing PPS 0 referenced
    Last message repeated 1 times
[h264 @ 0xd042e0] decode_slice_header error
[h264 @ 0xd042e0] no frame!
[h264 @ 0xd042e0] non-existing PPS 0 referenced
    Last message repeated 1 times
[h264 @ 0xd042e0] decode_slice_header error
[h264 @ 0xd042e0] no frame!
[h264 @ 0xd042e0] non-existing PPS 0 referenced
    Last message repeated 1 times
[h264 @ 0xd042e0] decode_slice_header error
[h264 @ 0xd042e0] no frame!
[h264 @ 0xd042e0] non-existing PPS 0 referenced
    Last message repeated 1 times
[h264 @ 0xd042e0] decode_slice_header error
[h264 @ 0xd042e0] no frame!
[h264 @ 0xd042e0] non-existing PPS 0 referenced
    Last message repeated 1 times
[h264 @ 0xd042e0] decode_slice_header error
[h264 @ 0xd042e0] no frame!
[h264 @ 0xd042e0] non-existing PPS 0 referenced
    Last message repeated 1 times
[h264 @ 0xd042e0] decode_slice_header error
[h264 @ 0xd042e0] no frame!
[h264 @ 0xd042e0] non-existing PPS 0 referenced
    Last message repeated 1 times
[h264 @ 0xd042e0] decode_slice_header error
[h264 @ 0xd042e0] no frame!
[h264 @ 0xd042e0] non-existing PPS 0 referenced
    Last message repeated 1 times
[h264 @ 0xd042e0] decode_slice_header error
[h264 @ 0xd042e0] no frame!
[h264 @ 0xd042e0] non-existing PPS 0 referenced
    Last message repeated 1 times
[h264 @ 0xd042e0] decode_slice_header error
[h264 @ 0xd042e0] no frame!
[h264 @ 0xd042e0] non-existing PPS 0 referenced
    Last message repeated 1 times
[h264 @ 0xd042e0] decode_slice_header error
[h264 @ 0xd042e0] no frame!
[h264 @ 0xd042e0] non-existing PPS 0 referenced
    Last message repeated 1 times
[h264 @ 0xd042e0] decode_slice_header error
[h264 @ 0xd042e0] no frame!
[h264 @ 0xd042e0] non-existing PPS 0 referenced
    Last message repeated 1 times
[h264 @ 0xd042e0] decode_slice_header error
[h264 @ 0xd042e0] no frame!
[h264 @ 0xd042e0] non-existing PPS 0 referenced
    Last message repeated 1 times
[h264 @ 0xd042e0] decode_slice_header error
[h264 @ 0xd042e0] no frame!
[h264 @ 0xd042e0] non-existing PPS 0 referenced
    Last message repeated 1 times
[h264 @ 0xd042e0] decode_slice_header error
[h264 @ 0xd042e0] no frame!
[h264 @ 0xd042e0] non-existing PPS 0 referenced
    Last message repeated 1 times
[h264 @ 0xd042e0] decode_slice_header error
[h264 @ 0xd042e0] no frame!
[h264 @ 0xd042e0] non-existing PPS 0 referenced
    Last message repeated 1 times
[h264 @ 0xd042e0] decode_slice_header error
[h264 @ 0xd042e0] no frame!
[h264 @ 0xd042e0] non-existing PPS 0 referenced
    Last message repeated 1 times
[h264 @ 0xd042e0] decode_slice_header error
[h264 @ 0xd042e0] no frame!
[h264 @ 0xd042e0] non-existing PPS 0 referenced
    Last message repeated 1 times
[h264 @ 0xd042e0] decode_slice_header error
[h264 @ 0xd042e0] no frame!
[h264 @ 0xd042e0] non-existing PPS 0 referenced
    Last message repeated 1 times
[h264 @ 0xd042e0] decode_slice_header error
[h264 @ 0xd042e0] no frame!
[h264 @ 0xd042e0] non-existing PPS 0 referenced
    Last message repeated 1 times
[h264 @ 0xd042e0] decode_slice_header error
[h264 @ 0xd042e0] no frame!
[h264 @ 0xd042e0] non-existing PPS 0 referenced
    Last message repeated 1 times
[h264 @ 0xd042e0] decode_slice_header error
[h264 @ 0xd042e0] no frame!
[h264 @ 0xd042e0] non-existing PPS 0 referenced
    Last message repeated 1 times
[h264 @ 0xd042e0] decode_slice_header error
[h264 @ 0xd042e0] no frame!
[h264 @ 0xd042e0] non-existing PPS 0 referenced
    Last message repeated 1 times
[h264 @ 0xd042e0] decode_slice_header error
[h264 @ 0xd042e0] no frame!
[h264 @ 0xd042e0] non-existing PPS 0 referenced
    Last message repeated 1 times
[h264 @ 0xd042e0] decode_slice_header error
[h264 @ 0xd042e0] no frame!
[h264 @ 0xd042e0] non-existing PPS 0 referenced
    Last message repeated 1 times
[h264 @ 0xd042e0] decode_slice_header error
[h264 @ 0xd042e0] no frame!
[h264 @ 0xd042e0] non-existing PPS 0 referenced
    Last message repeated 1 times
[h264 @ 0xd042e0] decode_slice_header error
[h264 @ 0xd042e0] no frame!
[h264 @ 0xd042e0] non-existing PPS 0 referenced
    Last message repeated 1 times
[h264 @ 0xd042e0] decode_slice_header error
[h264 @ 0xd042e0] no frame!
[h264 @ 0xd042e0] non-existing PPS 0 referenced
    Last message repeated 1 times
[h264 @ 0xd042e0] decode_slice_header error
[h264 @ 0xd042e0] no frame!
[h264 @ 0xd042e0] non-existing PPS 0 referenced
    Last message repeated 1 times
[h264 @ 0xd042e0] decode_slice_header error
[h264 @ 0xd042e0] no frame!
[h264 @ 0xd042e0] non-existing PPS 0 referenced
    Last message repeated 1 times
[h264 @ 0xd042e0] decode_slice_header error
[h264 @ 0xd042e0] no frame!
[h264 @ 0xd042e0] non-existing PPS 0 referenced
    Last message repeated 1 times
[h264 @ 0xd042e0] decode_slice_header error
[h264 @ 0xd042e0] no frame!
[h264 @ 0xd042e0] non-existing PPS 0 referenced
    Last message repeated 1 times
[h264 @ 0xd042e0] decode_slice_header error
[h264 @ 0xd042e0] no frame!
[h264 @ 0xd042e0] non-existing PPS 0 referenced
    Last message repeated 1 times
[h264 @ 0xd042e0] decode_slice_header error
[h264 @ 0xd042e0] no frame!
[h264 @ 0xd042e0] non-existing PPS 0 referenced
    Last message repeated 1 times
[h264 @ 0xd042e0] decode_slice_header error
[h264 @ 0xd042e0] no frame!
Input #0, hls,applehttp, from 'http://wdr_ardevent1-lh.akamaihd.net/i/wdrardevent1_weltweit@112049/master.m3u8':
  Duration: N/A, start: 1159.501533, bitrate: N/A
  Program 0
    Metadata:
      variant_bitrate : 184000
    Stream #0:0: Video: h264 (Baseline) ([27][0][0][0] / 0x001B), yuv420p(tv), 320x180 [SAR 1:1 DAR 16:9], 12 fps, 12 tbr, 90k tbn, 24 tbc
    Metadata:
      variant_bitrate : 184000
    Stream #0:1: Audio: aac (LC) ([15][0][0][0] / 0x000F), 48000 Hz, stereo, fltp, 62 kb/s
    Metadata:
      variant_bitrate : 184000
    Stream #0:2: Data: timed_id3 (ID3  / 0x20334449)
    Metadata:
      variant_bitrate : 184000
  Program 1
    Metadata:
      variant_bitrate : 184000
    Stream #0:3: Video: h264 (Baseline) ([27][0][0][0] / 0x001B), yuv420p(tv), 320x180 [SAR 1:1 DAR 16:9], 12 fps, 12 tbr, 90k tbn, 24 tbc
    Metadata:
      variant_bitrate : 184000
    Stream #0:4: Audio: aac (LC) ([15][0][0][0] / 0x000F), 48000 Hz, stereo, fltp, 55 kb/s
    Metadata:
      variant_bitrate : 184000
    Stream #0:5: Data: timed_id3 (ID3  / 0x20334449)
    Metadata:
      variant_bitrate : 184000
  Program 2
    Metadata:
      variant_bitrate : 320000
    Stream #0:6: Video: h264 (Baseline) ([27][0][0][0] / 0x001B), yuv420p(tv), 480x270 [SAR 1:1 DAR 16:9], 25 fps, 25 tbr, 90k tbn, 50 tbc
    Metadata:
      variant_bitrate : 320000
    Stream #0:7: Audio: aac (LC) ([15][0][0][0] / 0x000F), 48000 Hz, stereo, fltp, 62 kb/s
    Metadata:
      variant_bitrate : 320000
    Stream #0:8: Data: timed_id3 (ID3  / 0x20334449)
    Metadata:
      variant_bitrate : 320000
  Program 3
    Metadata:
      variant_bitrate : 320000
    Stream #0:9: Video: h264 (Baseline) ([27][0][0][0] / 0x001B), yuv420p(tv), 480x270 [SAR 1:1 DAR 16:9], 25 tbr, 90k tbn, 50 tbc
    Metadata:
      variant_bitrate : 320000
    Stream #0:10: Audio: aac (LC) ([15][0][0][0] / 0x000F), 48000 Hz, stereo, fltp, 64 kb/s
    Metadata:
      variant_bitrate : 320000
    Stream #0:11: Data: timed_id3 (ID3  / 0x20334449)
    Metadata:
      variant_bitrate : 320000
  Program 4
    Metadata:
      variant_bitrate : 608000
    Stream #0:12: Video: h264 (Baseline) ([27][0][0][0] / 0x001B), yuv420p(tv), 512x288 [SAR 1:1 DAR 16:9], 25 fps, 25 tbr, 90k tbn, 50 tbc
    Metadata:
      variant_bitrate : 608000
    Stream #0:13: Audio: aac (LC) ([15][0][0][0] / 0x000F), 48000 Hz, stereo, fltp, 102 kb/s
    Metadata:
      variant_bitrate : 608000
    Stream #0:14: Data: timed_id3 (ID3  / 0x20334449)
    Metadata:
      variant_bitrate : 608000
  Program 5
    Metadata:
      variant_bitrate : 608000
    Stream #0:15: Video: h264 (Baseline) ([27][0][0][0] / 0x001B), yuv420p(tv), 512x288 [SAR 1:1 DAR 16:9], 25 tbr, 90k tbn, 50 tbc
    Metadata:
      variant_bitrate : 608000
    Stream #0:16: Audio: aac (LC) ([15][0][0][0] / 0x000F), 48000 Hz, stereo, fltp, 89 kb/s
    Metadata:
      variant_bitrate : 608000
    Stream #0:17: Data: timed_id3 (ID3  / 0x20334449)
    Metadata:
      variant_bitrate : 608000
  Program 6
    Metadata:
      variant_bitrate : 1216000
    Stream #0:18: Video: h264 (Main) ([27][0][0][0] / 0x001B), yuv420p(tv), 640x360 [SAR 1:1 DAR 16:9], 25 tbr, 90k tbn, 50 tbc
    Metadata:
      variant_bitrate : 1216000
    Stream #0:19: Audio: aac (LC) ([15][0][0][0] / 0x000F), 48000 Hz, stereo, fltp, 201 kb/s
    Metadata:
      variant_bitrate : 1216000
    Stream #0:20: Data: timed_id3 (ID3  / 0x20334449)
    Metadata:
      variant_bitrate : 1216000
  Program 7
    Metadata:
      variant_bitrate : 1216000
    Stream #0:21: Video: h264 (Main) ([27][0][0][0] / 0x001B), yuv420p(tv), 640x360 [SAR 1:1 DAR 16:9], 25 fps, 25 tbr, 90k tbn, 50 tbc
    Metadata:
      variant_bitrate : 1216000
    Stream #0:22: Audio: aac (LC) ([15][0][0][0] / 0x000F), 48000 Hz, stereo, fltp, 199 kb/s
    Metadata:
      variant_bitrate : 1216000
    Stream #0:23: Data: timed_id3 (ID3  / 0x20334449)
    Metadata:
      variant_bitrate : 1216000
  Program 8
    Metadata:
      variant_bitrate : 1992000
    Stream #0:24: Video: h264 (Main) ([27][0][0][0] / 0x001B), yuv420p(tv), 960x540 [SAR 1:1 DAR 16:9], 25 tbr, 90k tbn, 50 tbc
    Metadata:
      variant_bitrate : 1992000
    Stream #0:25: Audio: aac (LC) ([15][0][0][0] / 0x000F), 48000 Hz, stereo, fltp, 194 kb/s
    Metadata:
      variant_bitrate : 1992000
    Stream #0:26: Data: timed_id3 (ID3  / 0x20334449)
    Metadata:
      variant_bitrate : 1992000
  Program 9
    Metadata:
      variant_bitrate : 1992000
    Stream #0:27: Video: h264 (Main) ([27][0][0][0] / 0x001B), yuv420p(tv), 960x540 [SAR 1:1 DAR 16:9], 25 tbr, 90k tbn, 50 tbc
    Metadata:
      variant_bitrate : 1992000
    Stream #0:28: Audio: aac (LC) ([15][0][0][0] / 0x000F), 48000 Hz, stereo, fltp, 184 kb/s
    Metadata:
      variant_bitrate : 1992000
    Stream #0:29: Data: timed_id3 (ID3  / 0x20334449)
    Metadata:
      variant_bitrate : 1992000
  Program 10
    Metadata:
      variant_bitrate : 2691000
    Stream #0:30: Video: h264 (Main) ([27][0][0][0] / 0x001B), yuv420p(tv), 960x540 [SAR 1:1 DAR 16:9], 25 tbr, 90k tbn, 50 tbc
    Metadata:
      variant_bitrate : 2691000
    Stream #0:31: Audio: aac (LC) ([15][0][0][0] / 0x000F), 48000 Hz, stereo, fltp, 194 kb/s
    Metadata:
      variant_bitrate : 2691000
    Stream #0:32: Data: timed_id3 (ID3  / 0x20334449)
    Metadata:
      variant_bitrate : 2691000
  Program 11
    Metadata:
      variant_bitrate : 2691000
    Stream #0:33: Video: h264 (Main) ([27][0][0][0] / 0x001B), yuv420p(tv), 960x540 [SAR 1:1 DAR 16:9], 25 tbr, 90k tbn, 50 tbc
    Metadata:
      variant_bitrate : 2691000
    Stream #0:34: Audio: aac (LC) ([15][0][0][0] / 0x000F), 48000 Hz, stereo, fltp, 188 kb/s
    Metadata:
      variant_bitrate : 2691000
    Stream #0:35: Data: timed_id3 (ID3  / 0x20334449)
    Metadata:
      variant_bitrate : 2691000
  Program 12
    Metadata:
      variant_bitrate : 3776000
    Stream #0:36: Video: h264 (Main) ([27][0][0][0] / 0x001B), yuv420p(tv), 1280x720 [SAR 1:1 DAR 16:9], 25 tbr, 90k tbn, 50 tbc
    Metadata:
      variant_bitrate : 3776000
    Stream #0:37: Audio: aac (LC) ([15][0][0][0] / 0x000F), 48000 Hz, stereo, fltp, 194 kb/s
    Metadata:
      variant_bitrate : 3776000
    Stream #0:38: Data: timed_id3 (ID3  / 0x20334449)
    Metadata:
      variant_bitrate : 3776000
  Program 13
    Metadata:
      variant_bitrate : 3776000
    Stream #0:39: Video: h264 (Main) ([27][0][0][0] / 0x001B), yuv420p(tv), 1280x720 [SAR 1:1 DAR 16:9], 25 tbr, 90k tbn, 50 tbc
    Metadata:
      variant_bitrate : 3776000
    Stream #0:40: Audio: aac (LC) ([15][0][0][0] / 0x000F), 48000 Hz, stereo, fltp, 188 kb/s
    Metadata:
      variant_bitrate : 3776000
    Stream #0:41: Data: timed_id3 (ID3  / 0x20334449)
    Metadata:
      variant_bitrate : 3776000
  Program 14
    Metadata:
      variant_bitrate : 56000
    Stream #0:42: Audio: aac (LC) ([15][0][0][0] / 0x000F), 48000 Hz, stereo, fltp, 54 kb/s
    Metadata:
      variant_bitrate : 56000
    Stream #0:43: Data: timed_id3 (ID3  / 0x20334449)
    Metadata:
      variant_bitrate : 56000
  Program 15
    Metadata:
      variant_bitrate : 56000
    Stream #0:44: Audio: aac (LC) ([15][0][0][0] / 0x000F), 48000 Hz, stereo, fltp, 52 kb/s
    Metadata:
      variant_bitrate : 56000
    Stream #0:45: Data: timed_id3 (ID3  / 0x20334449)
    Metadata:
      variant_bitrate : 56000
[NULL @ 0x4fc550] Unable to find a suitable output format for '/media/hdd/movie/20160929 2201 wdr_ardevent1.mp4'
/media/hdd/movie/20160929 2201 wdr_ardevent1.mp4: Invalid argument
root@xpeedlx3:/media/hdd/movie#

How to get newer Version of ffmpeg?

root@xpeedlx3:/media/hdd/movie# cat /proc/cpuinfo
system type             : BCM7425B2 STB platform
machine                 : Unknown
processor               : 0
cpu model               : Brcm4380 V1.1  FPU V0.1
BogoMIPS                : 864.25
cpu MHz                 : 1305.086
wait instruction        : yes
microsecond timers      : yes
tlb_entries             : 64
extra interrupt vector  : yes
hardware watchpoint     : no
isa                     : mips1 mips2 mips32r1
ASEs implemented        :
shadow register sets    : 1
kscratch registers      : 0
core                    : 0
VCED exceptions         : not available
VCEI exceptions         : not available

processor               : 1
cpu model               : Brcm4380 V1.1  FPU V0.1
BogoMIPS                : 655.36
cpu MHz                 : 1305.086
wait instruction        : yes
microsecond timers      : yes
tlb_entries             : 64
extra interrupt vector  : yes
hardware watchpoint     : no
isa                     : mips1 mips2 mips32r1
ASEs implemented        :
shadow register sets    : 1
kscratch registers      : 0
core                    : 0
VCED exceptions         : not available
VCEI exceptions         : not available

root@xpeedlx3:/media/hdd/movie# cat /proc/version
Linux version 3.14.2 (theo@Ubuntu12) (gcc version 5.3.0 (GCC) ) #1 SMP Wed Apr 20 12:48:19 CEST 2016
root@xpeedlx3:/media/hdd/movie#
Last edited 3 years ago by blueice_haller (previous) (diff)

comment:16 Changed 3 years ago by cehoyos

  • Resolution set to fixed
  • Status changed from reopened to closed
Note: See TracTickets for help on using tickets.