Opened 4 years ago

Closed 4 years ago

#4741 closed defect (fixed)

mjpeg: wrong resolution reported for avid meridian qt (black bar)

Reported by: ami_stuff Owned by:
Priority: normal Component: undetermined
Version: unspecified Keywords:
Cc: Blocked By:
Blocking: Reproduced by developer: yes
Analyzed by developer: no

Description

C:\>ffmpeg -i avidmeridianntsc.mov out.avi
ffmpeg version N-73818-g9ebe041 Copyright (c) 2000-2015 the FFmpeg developers
  built with gcc 4.9.2 (GCC)
  configuration: --enable-gpl --enable-version3 --disable-w32threads --enable-av
isynth --enable-bzlib --enable-fontconfig --enable-frei0r --enable-gnutls --enab
le-iconv --enable-libass --enable-libbluray --enable-libbs2b --enable-libcaca --
enable-libdcadec --enable-libfreetype --enable-libgme --enable-libgsm --enable-l
ibilbc --enable-libmodplug --enable-libmp3lame --enable-libopencore-amrnb --enab
le-libopencore-amrwb --enable-libopenjpeg --enable-libopus --enable-librtmp --en
able-libschroedinger --enable-libsoxr --enable-libspeex --enable-libtheora --ena
ble-libtwolame --enable-libvidstab --enable-libvo-aacenc --enable-libvo-amrwbenc
 --enable-libvorbis --enable-libvpx --enable-libwavpack --enable-libwebp --enabl
e-libx264 --enable-libx265 --enable-libxavs --enable-libxvid --enable-lzma --ena
ble-decklink --enable-zlib
  libavutil      54. 28.100 / 54. 28.100
  libavcodec     56. 49.101 / 56. 49.101
  libavformat    56. 40.101 / 56. 40.101
  libavdevice    56.  4.100 / 56.  4.100
  libavfilter     5. 25.100 /  5. 25.100
  libswscale      3.  1.101 /  3.  1.101
  libswresample   1.  2.101 /  1.  2.101
  libpostproc    53.  3.100 / 53.  3.100
Input #0, mov,mp4,m4a,3gp,3g2,mj2, from 'avidmeridianntsc.mov
':
  Metadata:
    major_brand     : qt
    minor_version   : 537199360
    compatible_brands: qt
    creation_time   : 2012-04-19 22:04:43
  Duration: 00:00:12.64, start: 0.000000, bitrate: 1414 kb/s
    Stream #0:0(eng): Video: mjpeg (AVDJ / 0x4A445641), yuvj422p(pc, bt470bg/unk
nown/unknown), 320x245, 1412 kb/s, 23.97 fps, 23.97 tbr, 1000k tbn, 1000k tbc (d
efault)
    Metadata:
      creation_time   : 2012-04-19 22:04:43
      handler_name    : Procedura obs│ugi skrˇtˇw danych Apple
      encoder         : Avid Meridien 15:1s NTSC 601
[swscaler @ 034f1560] deprecated pixel format used, make sure you did set range
correctly
Output #0, avi, to 'out.avi':
  Metadata:
    major_brand     : qt
    minor_version   : 537199360
    compatible_brands: qt
    ISFT            : Lavf56.40.101
    Stream #0:0(eng): Video: mpeg4 (FMP4 / 0x34504D46), yuv420p, 320x245, q=2-31
, 200 kb/s, 23.97 fps, 23.97 tbn, 23.97 tbc (default)
    Metadata:
      creation_time   : 2012-04-19 22:04:43
      handler_name    : Procedura obs│ugi skrˇtˇw danych Apple
      encoder         : Lavc56.49.101 mpeg4
Stream mapping:
  Stream #0:0 -> #0:0 (mjpeg (native) -> mpeg4 (native))
Press [q] to stop, [?] for help
frame=  303 fps=0.0 q=6.2 Lsize=     408kB time=00:00:12.64 bitrate= 264.5kbits/
s
video:395kB audio:0kB subtitle:0kB other streams:0kB global headers:0kB muxing o
verhead: 3.239510%

Attachments (2)

avidmeridianntsc.mov (2.1 MB) - added by ami_stuff 4 years ago.
avidmeridianpal.mov (2.1 MB) - added by ami_stuff 4 years ago.

Change History (3)

Changed 4 years ago by ami_stuff

Changed 4 years ago by ami_stuff

comment:1 Changed 4 years ago by michael

  • Reproduced by developer set
  • Resolution set to fixed
  • Status changed from new to closed
Note: See TracTickets for help on using tickets.