Opened 4 years ago

Last modified 4 years ago

#4601 new enhancement

jpeg2000: Support for image offsets is not implemented

Reported by: cehoyos Owned by:
Priority: wish Component: avcodec
Version: git-master Keywords: j2k
Cc: Blocked By:
Blocking: Reproduced by developer: no
Analyzed by developer: no

Description

$ ffmpeg -i p1_05.j2k
ffmpeg version N-72797-g0916938 Copyright (c) 2000-2015 the FFmpeg developers
  built with gcc 4.7 (SUSE Linux)
  configuration: --enable-gpl --enable-libopenjpeg
  libavutil      54. 27.100 / 54. 27.100
  libavcodec     56. 41.100 / 56. 41.100
  libavformat    56. 36.100 / 56. 36.100
  libavdevice    56.  4.100 / 56.  4.100
  libavfilter     5. 16.101 /  5. 16.101
  libswscale      3.  1.101 /  3.  1.101
  libswresample   1.  2.100 /  1.  2.100
  libpostproc    53.  3.100 / 53.  3.100
[jpeg2000 @ 0x333c2c0] Support for image offsets is not implemented. Update your FFmpeg version to the newest one from Git. If the problem still occurs, it means that your file has a feature which has not been implemented.
[jpeg2000 @ 0x333c2c0] If you want to help, upload a sample of this file to ftp://upload.ffmpeg.org/incoming/ and contact the ffmpeg-devel mailing list. (ffmpeg-devel@ffmpeg.org)
[jpeg2000 @ 0x333c2c0] error during processing marker segment ff51
[j2k_pipe @ 0x333b3e0] decoding for stream 0 failed
[j2k_pipe @ 0x333b3e0] Could not find codec parameters for stream 0 (Video: jpeg2000 (JPEG 2000 no codestream restrictions), none): unspecified size
Consider increasing the value for the 'analyzeduration' and 'probesize' options
p1_05.j2k: could not find codec parameters
Input #0, j2k_pipe, from 'p1_05.j2k':
  Duration: N/A, bitrate: N/A
    Stream #0:0: Video: jpeg2000 (JPEG 2000 no codestream restrictions), none, 25 tbr, 25 tbn, 25 tbc
At least one output file must be specified
$ ffmpeg -i p1_05.j2k
ffmpeg version N-72794-gdbbb31e Copyright (c) 2000-2015 the FFmpeg developers
  built with gcc 4.7 (SUSE Linux)
  configuration: --enable-libopenjpeg --disable-decoder=jpeg2000
  libavutil      54. 27.100 / 54. 27.100
  libavcodec     56. 41.100 / 56. 41.100
  libavformat    56. 36.100 / 56. 36.100
  libavdevice    56.  4.100 / 56.  4.100
  libavfilter     5. 16.101 /  5. 16.101
  libswscale      3.  1.101 /  3.  1.101
  libswresample   1.  2.100 /  1.  2.100
Input #0, j2k_pipe, from 'p1_05.j2k':
  Duration: N/A, bitrate: N/A
    Stream #0:0: Video: jpeg2000, rgb24, 512x512, 25 tbr, 25 tbn, 25 tbc
At least one output file must be specified

Attachments (1)

p1_05.j2k (275.9 KB) - added by cehoyos 4 years ago.

Download all attachments as: .zip

Change History (2)

Changed 4 years ago by cehoyos

comment:1 Changed 4 years ago by cehoyos

  • Type changed from defect to enhancement
Note: See TracTickets for help on using tickets.