Opened 3 years ago

Last modified 3 years ago

#4442 open enhancement

Support writing cover art to flac

Reported by: cehoyos Owned by:
Priority: wish Component: avformat
Version: git-master Keywords: flac
Cc: jamrial@gmail.com Blocked By:
Blocking: Reproduced by developer: no
Analyzed by developer: no

Description

$ ffmpeg -i fate-suite/cover_art/cover_art.flac out.flac
ffmpeg version N-71320-gc4b2017 Copyright (c) 2000-2015 the FFmpeg developers
  built with gcc 4.7 (SUSE Linux)
  configuration: --enable-gpl
  libavutil      54. 22.100 / 54. 22.100
  libavcodec     56. 34.100 / 56. 34.100
  libavformat    56. 29.100 / 56. 29.100
  libavdevice    56.  4.100 / 56.  4.100
  libavfilter     5. 13.101 /  5. 13.101
  libswscale      3.  1.101 /  3.  1.101
  libswresample   1.  1.100 /  1.  1.100
  libpostproc    53.  3.100 / 53.  3.100
Input #0, flac, from 'fate-suite/cover_art/cover_art.flac':
  Metadata:
    RATING          : 0
    ALBUM           : Ангелофрения
    ARTIST          : Мельница
    TITLE           : Дороги
    TRACKTOTAL      : 11
    TOTALTRACKS     : 11
    GENRE           : Folk
    DATE            : 2012
    track           : 2
  Duration: 00:03:09.05, start: 0.000000, bitrate: 1 kb/s
    Stream #0:0: Audio: flac, 44100 Hz, stereo, s16
    Stream #0:1: Video: mjpeg, yuvj420p(pc, bt470bg/unknown/unknown), 350x350 [SAR 1:1 DAR 1:1], 90k tbr, 90k tbn, 90k tbc
    Metadata:
      comment         : Other
Output #0, flac, to 'out.flac':
  Metadata:
    RATING          : 0
    ALBUM           : Ангелофрения
    ARTIST          : Мельница
    TITLE           : Дороги
    TRACKTOTAL      : 11
    TOTALTRACKS     : 11
    GENRE           : Folk
    DATE            : 2012
    TRACKNUMBER     : 2
    encoder         : Lavf56.29.100
    Stream #0:0: Audio: flac, 44100 Hz, stereo, s16, 128 kb/s
    Metadata:
      encoder         : Lavc56.34.100 flac
Stream mapping:
  Stream #0:0 -> #0:0 (flac (native) -> flac (native))
Press [q] to stop, [?] for help
[flac @ 0x3a9cb40] overread: 1
size=      11kB time=00:00:00.09 bitrate= 946.9kbits/s
video:0kB audio:2kB subtitle:0kB other streams:0kB global headers:0kB muxing overhead: 334.202209%

Change History (1)

comment:1 Changed 3 years ago by jamrial

  • Cc jamrial@gmail.com added
  • Status changed from new to open

Related to ticket #4448 (see my comments there).

Note: See TracTickets for help on using tickets.