Opened 3 years ago

Last modified 18 months ago

#4398 open defect

FLV Sample muxing to mpegts and output file with no Video

Reported by: BlackDream Owned by:
Priority: normal Component: undetermined
Version: git-master Keywords: h264 flv mpegts
Cc: Blocked By:
Blocking: Reproduced by developer: yes
Analyzed by developer: no

Description

Command:

ffmpeg -y -i "test_stream.flv" -bsf:v h264_mp4toannexb -c copy -f mpegts /var/www/html/test.ts

FFmpeg output:

ffmpeg version N-45583-g2139e58-   http://johnvansickle.com/ffmpeg/    Copyright (c) 2000-2015 the FFmpeg developers
  built with gcc 4.9.2 (Debian 4.9.2-10)
  configuration: --enable-gpl --enable-version3 --disable-shared --disable-debug --enable-runtime-cpudetect --enable-libmp3lame --enable-libx264 --enable-libx265 --enable-libwebp --enable-libspeex --enable-libvorbis --enable-libvpx --enable-libfreetype --enable-fontconfig --enable-libxvid --enable-libopencore-amrnb --enable-libopencore-amrwb --enable-libtheora --enable-libvo-aacenc --enable-libvo-amrwbenc --enable-gray --enable-libopenjpeg --enable-libopus --enable-libass --enable-gnutls --enable-libvidstab --cc=gcc-4.9
  libavutil      54. 20.101 / 54. 20.101
  libavcodec     56. 30.100 / 56. 30.100
  libavformat    56. 26.101 / 56. 26.101
  libavdevice    56.  4.100 / 56.  4.100
  libavfilter     5. 13.101 /  5. 13.101
  libswscale      3.  1.101 /  3.  1.101
  libswresample   1.  1.100 /  1.  1.100
  libpostproc    53.  3.100 / 53.  3.100
Input #0, flv, from 'test_stream.flv':
  Metadata:
    author          : NovaRS
    comment         : NovaRS
    copyright       : NovaRS
    title           : NovaRS
    encoder         : BIGTV
  Duration: 00:00:10.52, start: 0.016000, bitrate: 1047 kb/s
    Stream #0:0: Video: h264 (High), yuv420p, 720x576 [SAR 64:45 DAR 16:9], 1000 kb/s, 25 fps, 25 tbr, 1k tbn, 50 tbc
    Stream #0:1: Audio: aac (LC), 22050 Hz, stereo, fltp, 128 kb/s
Output #0, mpegts, to '/var/www/html/test.ts':
  Metadata:
    author          : NovaRS
    comment         : NovaRS
    copyright       : NovaRS
    title           : NovaRS
    encoder         : Lavf56.26.101
    Stream #0:0: Video: h264, yuv420p, 720x576 [SAR 64:45 DAR 16:9], q=2-31, 1000 kb/s, 25 fps, 25 tbr, 90k tbn, 25 tbc
    Stream #0:1: Audio: aac, 22050 Hz, stereo, 128 kb/s
Stream mapping:
  Stream #0:0 -> #0:0 (copy)
  Stream #0:1 -> #0:1 (copy)
Press [q] to stop, [?] for help
frame=  264 fps=0.0 q=-1.0 Lsize=    1484kB time=00:00:10.54 bitrate=1153.0kbits/s
video:1171kB audio:165kB subtitle:0kB other streams:0kB global headers:0kB muxing overhead: 11.078672%

FFprobe the output file /var/www/html/test.ts

ffprobe /var/www/html/test.ts
ffprobe version N-45583-g2139e58-   http://johnvansickle.com/ffmpeg/    Copyright (c) 2007-2015 the FFmpeg developers
  built with gcc 4.9.2 (Debian 4.9.2-10)
  configuration: --enable-gpl --enable-version3 --disable-shared --disable-debug --enable-runtime-cpudetect --enable-libmp3lame --enable-libx264 --enable-libx265 --enable-libwebp --enable-libspeex --enable-libvorbis --enable-libvpx --enable-libfreetype --enable-fontconfig --enable-libxvid --enable-libopencore-amrnb --enable-libopencore-amrwb --enable-libtheora --enable-libvo-aacenc --enable-libvo-amrwbenc --enable-gray --enable-libopenjpeg --enable-libopus --enable-libass --enable-gnutls --enable-libvidstab --cc=gcc-4.9
  libavutil      54. 20.101 / 54. 20.101
  libavcodec     56. 30.100 / 56. 30.100
  libavformat    56. 26.101 / 56. 26.101
  libavdevice    56.  4.100 / 56.  4.100
  libavfilter     5. 13.101 /  5. 13.101
  libswscale      3.  1.101 /  3.  1.101
  libswresample   1.  1.100 /  1.  1.100
  libpostproc    53.  3.100 / 53.  3.100
[h264 @ 0x4254240] non-existing PPS 0 referenced
    Last message repeated 1 times
[h264 @ 0x4254240] decode_slice_header error
[h264 @ 0x4254240] no frame!
[h264 @ 0x4254240] non-existing PPS 0 referenced
    Last message repeated 1 times
[h264 @ 0x4254240] decode_slice_header error
[h264 @ 0x4254240] no frame!
[h264 @ 0x4254240] non-existing PPS 0 referenced
    Last message repeated 1 times
[h264 @ 0x4254240] decode_slice_header error
[h264 @ 0x4254240] no frame!
[h264 @ 0x4254240] non-existing PPS 0 referenced
    Last message repeated 1 times
[h264 @ 0x4254240] decode_slice_header error
[h264 @ 0x4254240] no frame!
[h264 @ 0x4254240] non-existing PPS 0 referenced
    Last message repeated 1 times
[h264 @ 0x4254240] decode_slice_header error
[h264 @ 0x4254240] no frame!
[h264 @ 0x4254240] non-existing PPS 0 referenced
    Last message repeated 1 times
[h264 @ 0x4254240] decode_slice_header error
[h264 @ 0x4254240] no frame!
[h264 @ 0x4254240] non-existing PPS 0 referenced
    Last message repeated 1 times
[h264 @ 0x4254240] decode_slice_header error
[h264 @ 0x4254240] no frame!
[h264 @ 0x4254240] non-existing PPS 0 referenced
    Last message repeated 1 times
[h264 @ 0x4254240] decode_slice_header error
[h264 @ 0x4254240] no frame!
[h264 @ 0x4254240] non-existing PPS 0 referenced
    Last message repeated 1 times
[h264 @ 0x4254240] decode_slice_header error
[h264 @ 0x4254240] no frame!
[h264 @ 0x4254240] non-existing PPS 0 referenced
    Last message repeated 1 times
[h264 @ 0x4254240] decode_slice_header error
[h264 @ 0x4254240] no frame!
[h264 @ 0x4254240] non-existing PPS 0 referenced
    Last message repeated 1 times
[h264 @ 0x4254240] decode_slice_header error
[h264 @ 0x4254240] no frame!
[h264 @ 0x4254240] non-existing PPS 0 referenced
    Last message repeated 1 times
[h264 @ 0x4254240] decode_slice_header error
[h264 @ 0x4254240] no frame!
[h264 @ 0x4254240] non-existing PPS 0 referenced
    Last message repeated 1 times
[h264 @ 0x4254240] decode_slice_header error
[h264 @ 0x4254240] no frame!
[h264 @ 0x4254240] non-existing PPS 0 referenced
    Last message repeated 1 times
[h264 @ 0x4254240] decode_slice_header error
[h264 @ 0x4254240] no frame!
[h264 @ 0x4254240] non-existing PPS 0 referenced
    Last message repeated 1 times
[h264 @ 0x4254240] decode_slice_header error
[h264 @ 0x4254240] no frame!
[h264 @ 0x4254240] non-existing PPS 0 referenced
    Last message repeated 1 times
[h264 @ 0x4254240] decode_slice_header error
[h264 @ 0x4254240] no frame!
[h264 @ 0x4254240] non-existing PPS 0 referenced
    Last message repeated 1 times
[h264 @ 0x4254240] decode_slice_header error
[h264 @ 0x4254240] no frame!
[h264 @ 0x4254240] non-existing PPS 0 referenced
    Last message repeated 1 times
[h264 @ 0x4254240] decode_slice_header error
[h264 @ 0x4254240] no frame!
[h264 @ 0x4254240] non-existing PPS 0 referenced
    Last message repeated 1 times
[h264 @ 0x4254240] decode_slice_header error
[h264 @ 0x4254240] no frame!
[h264 @ 0x4254240] non-existing PPS 0 referenced
    Last message repeated 1 times
[h264 @ 0x4254240] decode_slice_header error
[h264 @ 0x4254240] no frame!
[h264 @ 0x4254240] non-existing PPS 0 referenced
    Last message repeated 1 times
[h264 @ 0x4254240] decode_slice_header error
[h264 @ 0x4254240] no frame!
[h264 @ 0x4254240] non-existing PPS 0 referenced
    Last message repeated 1 times
[h264 @ 0x4254240] decode_slice_header error
[h264 @ 0x4254240] no frame!
[h264 @ 0x4254240] non-existing PPS 0 referenced
    Last message repeated 1 times
[h264 @ 0x4254240] decode_slice_header error
[h264 @ 0x4254240] no frame!
[h264 @ 0x4254240] non-existing PPS 0 referenced
    Last message repeated 1 times
[h264 @ 0x4254240] decode_slice_header error
[h264 @ 0x4254240] no frame!
[h264 @ 0x4254240] non-existing PPS 0 referenced
    Last message repeated 1 times
[h264 @ 0x4254240] decode_slice_header error
[h264 @ 0x4254240] no frame!
[h264 @ 0x4254240] non-existing PPS 0 referenced
    Last message repeated 1 times
[h264 @ 0x4254240] decode_slice_header error
[h264 @ 0x4254240] no frame!
[h264 @ 0x4254240] non-existing PPS 0 referenced
    Last message repeated 1 times
[h264 @ 0x4254240] decode_slice_header error
[h264 @ 0x4254240] no frame!
[h264 @ 0x4254240] non-existing PPS 0 referenced
    Last message repeated 1 times
[h264 @ 0x4254240] decode_slice_header error
[h264 @ 0x4254240] no frame!
[h264 @ 0x4254240] non-existing PPS 0 referenced
    Last message repeated 1 times
[h264 @ 0x4254240] decode_slice_header error
[h264 @ 0x4254240] no frame!
[h264 @ 0x4254240] non-existing PPS 0 referenced
    Last message repeated 1 times
[h264 @ 0x4254240] decode_slice_header error
[h264 @ 0x4254240] no frame!
[h264 @ 0x4254240] non-existing PPS 0 referenced
    Last message repeated 1 times
[h264 @ 0x4254240] decode_slice_header error
[h264 @ 0x4254240] no frame!
[h264 @ 0x4254240] non-existing PPS 0 referenced
    Last message repeated 1 times
[h264 @ 0x4254240] decode_slice_header error
[h264 @ 0x4254240] no frame!
[h264 @ 0x4254240] non-existing PPS 0 referenced
    Last message repeated 1 times
[h264 @ 0x4254240] decode_slice_header error
[h264 @ 0x4254240] no frame!
[h264 @ 0x4254240] non-existing PPS 0 referenced
    Last message repeated 1 times
[h264 @ 0x4254240] decode_slice_header error
[h264 @ 0x4254240] no frame!
[h264 @ 0x4254240] non-existing PPS 0 referenced
    Last message repeated 1 times
[h264 @ 0x4254240] decode_slice_header error
[h264 @ 0x4254240] no frame!
[h264 @ 0x4254240] non-existing PPS 0 referenced
    Last message repeated 1 times
[h264 @ 0x4254240] decode_slice_header error
[h264 @ 0x4254240] no frame!
[h264 @ 0x4254240] non-existing PPS 0 referenced
    Last message repeated 1 times
[h264 @ 0x4254240] decode_slice_header error
[h264 @ 0x4254240] no frame!
[h264 @ 0x4254240] non-existing PPS 0 referenced
    Last message repeated 1 times
[h264 @ 0x4254240] decode_slice_header error
[h264 @ 0x4254240] no frame!
[h264 @ 0x4254240] non-existing PPS 0 referenced
    Last message repeated 1 times
[h264 @ 0x4254240] decode_slice_header error
[h264 @ 0x4254240] no frame!
[h264 @ 0x4254240] non-existing PPS 0 referenced
    Last message repeated 1 times
[h264 @ 0x4254240] decode_slice_header error
[h264 @ 0x4254240] no frame!
[h264 @ 0x4254240] non-existing PPS 0 referenced
    Last message repeated 1 times
[h264 @ 0x4254240] decode_slice_header error
[h264 @ 0x4254240] no frame!
[h264 @ 0x4254240] non-existing PPS 0 referenced
    Last message repeated 1 times
[h264 @ 0x4254240] decode_slice_header error
[h264 @ 0x4254240] no frame!
[h264 @ 0x4254240] non-existing PPS 0 referenced
    Last message repeated 1 times
[h264 @ 0x4254240] decode_slice_header error
[h264 @ 0x4254240] no frame!
[h264 @ 0x4254240] non-existing PPS 0 referenced
    Last message repeated 1 times
[h264 @ 0x4254240] decode_slice_header error
[h264 @ 0x4254240] no frame!
[h264 @ 0x4254240] non-existing PPS 0 referenced
    Last message repeated 1 times
[h264 @ 0x4254240] decode_slice_header error
[h264 @ 0x4254240] no frame!
[h264 @ 0x4254240] non-existing PPS 0 referenced
    Last message repeated 1 times
[h264 @ 0x4254240] decode_slice_header error
[h264 @ 0x4254240] no frame!
[h264 @ 0x4254240] non-existing PPS 0 referenced
    Last message repeated 1 times
[h264 @ 0x4254240] decode_slice_header error
[h264 @ 0x4254240] no frame!
[h264 @ 0x4254240] non-existing PPS 0 referenced
    Last message repeated 1 times
[h264 @ 0x4254240] decode_slice_header error
[h264 @ 0x4254240] no frame!
[h264 @ 0x4254240] non-existing PPS 0 referenced
    Last message repeated 1 times
[h264 @ 0x4254240] decode_slice_header error
[h264 @ 0x4254240] no frame!
[h264 @ 0x4254240] non-existing PPS 0 referenced
    Last message repeated 1 times
[h264 @ 0x4254240] decode_slice_header error
[h264 @ 0x4254240] no frame!
[h264 @ 0x4254240] non-existing PPS 0 referenced
    Last message repeated 1 times
[h264 @ 0x4254240] decode_slice_header error
[h264 @ 0x4254240] no frame!
[h264 @ 0x4254240] non-existing PPS 0 referenced
    Last message repeated 1 times
[h264 @ 0x4254240] decode_slice_header error
[h264 @ 0x4254240] no frame!
[h264 @ 0x4254240] non-existing PPS 0 referenced
    Last message repeated 1 times
[h264 @ 0x4254240] decode_slice_header error
[h264 @ 0x4254240] no frame!
[h264 @ 0x4254240] non-existing PPS 0 referenced
    Last message repeated 1 times
[h264 @ 0x4254240] decode_slice_header error
[h264 @ 0x4254240] no frame!
[h264 @ 0x4254240] non-existing PPS 0 referenced
    Last message repeated 1 times
[h264 @ 0x4254240] decode_slice_header error
[h264 @ 0x4254240] no frame!
[h264 @ 0x4254240] non-existing PPS 0 referenced
    Last message repeated 1 times
[h264 @ 0x4254240] decode_slice_header error
[h264 @ 0x4254240] no frame!
[h264 @ 0x4254240] non-existing PPS 0 referenced
    Last message repeated 1 times
[h264 @ 0x4254240] decode_slice_header error
[h264 @ 0x4254240] no frame!
[h264 @ 0x4254240] non-existing PPS 0 referenced
    Last message repeated 1 times
[h264 @ 0x4254240] decode_slice_header error
[h264 @ 0x4254240] no frame!
[h264 @ 0x4254240] non-existing PPS 0 referenced
    Last message repeated 1 times
[h264 @ 0x4254240] decode_slice_header error
[h264 @ 0x4254240] no frame!
[h264 @ 0x4254240] non-existing PPS 0 referenced
    Last message repeated 1 times
[h264 @ 0x4254240] decode_slice_header error
[h264 @ 0x4254240] no frame!
[h264 @ 0x4254240] non-existing PPS 0 referenced
    Last message repeated 1 times
[h264 @ 0x4254240] decode_slice_header error
[h264 @ 0x4254240] no frame!
[h264 @ 0x4254240] non-existing PPS 0 referenced
    Last message repeated 1 times
[h264 @ 0x4254240] decode_slice_header error
[h264 @ 0x4254240] no frame!
[h264 @ 0x4254240] non-existing PPS 0 referenced
    Last message repeated 1 times
[h264 @ 0x4254240] decode_slice_header error
[h264 @ 0x4254240] no frame!
[h264 @ 0x4254240] non-existing PPS 0 referenced
    Last message repeated 1 times
[h264 @ 0x4254240] decode_slice_header error
[h264 @ 0x4254240] no frame!
[h264 @ 0x4254240] non-existing PPS 0 referenced
    Last message repeated 1 times
[h264 @ 0x4254240] decode_slice_header error
[h264 @ 0x4254240] no frame!
[h264 @ 0x4254240] non-existing PPS 0 referenced
    Last message repeated 1 times
[h264 @ 0x4254240] decode_slice_header error
[h264 @ 0x4254240] no frame!
[h264 @ 0x4254240] non-existing PPS 0 referenced
    Last message repeated 1 times
[h264 @ 0x4254240] decode_slice_header error
[h264 @ 0x4254240] no frame!
[h264 @ 0x4254240] non-existing PPS 0 referenced
    Last message repeated 1 times
[h264 @ 0x4254240] decode_slice_header error
[h264 @ 0x4254240] no frame!
[h264 @ 0x4254240] non-existing PPS 0 referenced
    Last message repeated 1 times
[h264 @ 0x4254240] decode_slice_header error
[h264 @ 0x4254240] no frame!
[h264 @ 0x4254240] non-existing PPS 0 referenced
    Last message repeated 1 times
[h264 @ 0x4254240] decode_slice_header error
[h264 @ 0x4254240] no frame!
[h264 @ 0x4254240] non-existing PPS 0 referenced
    Last message repeated 1 times
[h264 @ 0x4254240] decode_slice_header error
[h264 @ 0x4254240] no frame!
[h264 @ 0x4254240] non-existing PPS 0 referenced
    Last message repeated 1 times
[h264 @ 0x4254240] decode_slice_header error
[h264 @ 0x4254240] no frame!
[h264 @ 0x4254240] non-existing PPS 0 referenced
    Last message repeated 1 times
[h264 @ 0x4254240] decode_slice_header error
[h264 @ 0x4254240] no frame!
[h264 @ 0x4254240] non-existing PPS 0 referenced
    Last message repeated 1 times
[h264 @ 0x4254240] decode_slice_header error
[h264 @ 0x4254240] no frame!
[h264 @ 0x4254240] non-existing PPS 0 referenced
    Last message repeated 1 times
[h264 @ 0x4254240] decode_slice_header error
[h264 @ 0x4254240] no frame!
[h264 @ 0x4254240] non-existing PPS 0 referenced
    Last message repeated 1 times
[h264 @ 0x4254240] decode_slice_header error
[h264 @ 0x4254240] no frame!
[h264 @ 0x4254240] non-existing PPS 0 referenced
    Last message repeated 1 times
[h264 @ 0x4254240] decode_slice_header error
[h264 @ 0x4254240] no frame!
[h264 @ 0x4254240] non-existing PPS 0 referenced
    Last message repeated 1 times
[h264 @ 0x4254240] decode_slice_header error
[h264 @ 0x4254240] no frame!
[h264 @ 0x4254240] non-existing PPS 0 referenced
    Last message repeated 1 times
[h264 @ 0x4254240] decode_slice_header error
[h264 @ 0x4254240] no frame!
[h264 @ 0x4254240] non-existing PPS 0 referenced
    Last message repeated 1 times
[h264 @ 0x4254240] decode_slice_header error
[h264 @ 0x4254240] no frame!
[h264 @ 0x4254240] non-existing PPS 0 referenced
    Last message repeated 1 times
[h264 @ 0x4254240] decode_slice_header error
[h264 @ 0x4254240] no frame!
[h264 @ 0x4254240] non-existing PPS 0 referenced
    Last message repeated 1 times
[h264 @ 0x4254240] decode_slice_header error
[h264 @ 0x4254240] no frame!
[h264 @ 0x4254240] non-existing PPS 0 referenced
    Last message repeated 1 times
[h264 @ 0x4254240] decode_slice_header error
[h264 @ 0x4254240] no frame!
[h264 @ 0x4254240] non-existing PPS 0 referenced
    Last message repeated 1 times
[h264 @ 0x4254240] decode_slice_header error
[h264 @ 0x4254240] no frame!
[h264 @ 0x4254240] non-existing PPS 0 referenced
    Last message repeated 1 times
[h264 @ 0x4254240] decode_slice_header error
[h264 @ 0x4254240] no frame!
[h264 @ 0x4254240] non-existing PPS 0 referenced
    Last message repeated 1 times
[h264 @ 0x4254240] decode_slice_header error
[h264 @ 0x4254240] no frame!
[h264 @ 0x4254240] non-existing PPS 0 referenced
    Last message repeated 1 times
[h264 @ 0x4254240] decode_slice_header error
[h264 @ 0x4254240] no frame!
[h264 @ 0x4254240] non-existing PPS 0 referenced
    Last message repeated 1 times
[h264 @ 0x4254240] decode_slice_header error
[h264 @ 0x4254240] no frame!
[h264 @ 0x4254240] non-existing PPS 0 referenced
    Last message repeated 1 times
[h264 @ 0x4254240] decode_slice_header error
[h264 @ 0x4254240] no frame!
[h264 @ 0x4254240] non-existing PPS 0 referenced
    Last message repeated 1 times
[h264 @ 0x4254240] decode_slice_header error
[h264 @ 0x4254240] no frame!
[h264 @ 0x4254240] non-existing PPS 0 referenced
    Last message repeated 1 times
[h264 @ 0x4254240] decode_slice_header error
[h264 @ 0x4254240] no frame!
[h264 @ 0x4254240] non-existing PPS 0 referenced
    Last message repeated 1 times
[h264 @ 0x4254240] decode_slice_header error
[h264 @ 0x4254240] no frame!
[h264 @ 0x4254240] non-existing PPS 0 referenced
    Last message repeated 1 times
[h264 @ 0x4254240] decode_slice_header error
[h264 @ 0x4254240] no frame!
[h264 @ 0x4254240] non-existing PPS 0 referenced
    Last message repeated 1 times
[h264 @ 0x4254240] decode_slice_header error
[h264 @ 0x4254240] no frame!
[h264 @ 0x4254240] non-existing PPS 0 referenced
    Last message repeated 1 times
[h264 @ 0x4254240] decode_slice_header error
[h264 @ 0x4254240] no frame!
[h264 @ 0x4254240] non-existing PPS 0 referenced
    Last message repeated 1 times
[h264 @ 0x4254240] decode_slice_header error
[h264 @ 0x4254240] no frame!
[h264 @ 0x4254240] non-existing PPS 0 referenced
    Last message repeated 1 times
[h264 @ 0x4254240] decode_slice_header error
[h264 @ 0x4254240] no frame!
[h264 @ 0x4254240] non-existing PPS 0 referenced
    Last message repeated 1 times
[h264 @ 0x4254240] decode_slice_header error
[h264 @ 0x4254240] no frame!
[h264 @ 0x4254240] non-existing PPS 0 referenced
    Last message repeated 1 times
[h264 @ 0x4254240] decode_slice_header error
[h264 @ 0x4254240] no frame!
[h264 @ 0x4254240] non-existing PPS 0 referenced
    Last message repeated 1 times
[h264 @ 0x4254240] decode_slice_header error
[h264 @ 0x4254240] no frame!
[h264 @ 0x4254240] non-existing PPS 0 referenced
    Last message repeated 1 times
[h264 @ 0x4254240] decode_slice_header error
[h264 @ 0x4254240] no frame!
[h264 @ 0x4254240] non-existing PPS 0 referenced
    Last message repeated 1 times
[h264 @ 0x4254240] decode_slice_header error
[h264 @ 0x4254240] no frame!
[h264 @ 0x4254240] non-existing PPS 0 referenced
    Last message repeated 1 times
[h264 @ 0x4254240] decode_slice_header error
[h264 @ 0x4254240] no frame!
[h264 @ 0x4254240] non-existing PPS 0 referenced
    Last message repeated 1 times
[h264 @ 0x4254240] decode_slice_header error
[h264 @ 0x4254240] no frame!
[h264 @ 0x4254240] non-existing PPS 0 referenced
    Last message repeated 1 times
[h264 @ 0x4254240] decode_slice_header error
[h264 @ 0x4254240] no frame!
[h264 @ 0x4254240] non-existing PPS 0 referenced
    Last message repeated 1 times
[h264 @ 0x4254240] decode_slice_header error
[h264 @ 0x4254240] no frame!
[h264 @ 0x4254240] non-existing PPS 0 referenced
    Last message repeated 1 times
[h264 @ 0x4254240] decode_slice_header error
[h264 @ 0x4254240] no frame!
[h264 @ 0x4254240] non-existing PPS 0 referenced
    Last message repeated 1 times
[h264 @ 0x4254240] decode_slice_header error
[h264 @ 0x4254240] no frame!
[h264 @ 0x4254240] non-existing PPS 0 referenced
    Last message repeated 1 times
[h264 @ 0x4254240] decode_slice_header error
[h264 @ 0x4254240] no frame!
[h264 @ 0x4254240] non-existing PPS 0 referenced
    Last message repeated 1 times
[h264 @ 0x4254240] decode_slice_header error
[h264 @ 0x4254240] no frame!
[h264 @ 0x4254240] non-existing PPS 0 referenced
    Last message repeated 1 times
[h264 @ 0x4254240] decode_slice_header error
[h264 @ 0x4254240] no frame!
[h264 @ 0x4254240] non-existing PPS 0 referenced
    Last message repeated 1 times
[h264 @ 0x4254240] decode_slice_header error
[h264 @ 0x4254240] no frame!
[h264 @ 0x4254240] non-existing PPS 0 referenced
    Last message repeated 1 times
[h264 @ 0x4254240] decode_slice_header error
[h264 @ 0x4254240] no frame!
[h264 @ 0x4254240] non-existing PPS 0 referenced
    Last message repeated 1 times
[h264 @ 0x4254240] decode_slice_header error
[h264 @ 0x4254240] no frame!
[h264 @ 0x4254240] non-existing PPS 0 referenced
    Last message repeated 1 times
[h264 @ 0x4254240] decode_slice_header error
[h264 @ 0x4254240] no frame!
[h264 @ 0x4254240] non-existing PPS 0 referenced
    Last message repeated 1 times
[h264 @ 0x4254240] decode_slice_header error
[h264 @ 0x4254240] no frame!
[h264 @ 0x4254240] non-existing PPS 0 referenced
    Last message repeated 1 times
[h264 @ 0x4254240] decode_slice_header error
[h264 @ 0x4254240] no frame!
[h264 @ 0x4254240] non-existing PPS 0 referenced
    Last message repeated 1 times
[h264 @ 0x4254240] decode_slice_header error
[h264 @ 0x4254240] no frame!
[h264 @ 0x4254240] non-existing PPS 0 referenced
    Last message repeated 1 times
[h264 @ 0x4254240] decode_slice_header error
[h264 @ 0x4254240] no frame!
[h264 @ 0x4254240] non-existing PPS 0 referenced
    Last message repeated 1 times
[h264 @ 0x4254240] decode_slice_header error
[h264 @ 0x4254240] no frame!
[h264 @ 0x4254240] non-existing PPS 0 referenced
    Last message repeated 1 times
[h264 @ 0x4254240] decode_slice_header error
[h264 @ 0x4254240] no frame!
[h264 @ 0x4254240] non-existing PPS 0 referenced
    Last message repeated 1 times
[h264 @ 0x4254240] decode_slice_header error
[h264 @ 0x4254240] no frame!
[h264 @ 0x4254240] non-existing PPS 0 referenced
    Last message repeated 1 times
[h264 @ 0x4254240] decode_slice_header error
[h264 @ 0x4254240] no frame!
[h264 @ 0x4254240] non-existing PPS 0 referenced
    Last message repeated 1 times
[h264 @ 0x4254240] decode_slice_header error
[h264 @ 0x4254240] no frame!
[h264 @ 0x4254240] non-existing PPS 0 referenced
    Last message repeated 1 times
[h264 @ 0x4254240] decode_slice_header error
[h264 @ 0x4254240] no frame!
[h264 @ 0x4254240] non-existing PPS 0 referenced
    Last message repeated 1 times
[h264 @ 0x4254240] decode_slice_header error
[h264 @ 0x4254240] no frame!
[h264 @ 0x4254240] non-existing PPS 0 referenced
    Last message repeated 1 times
[h264 @ 0x4254240] decode_slice_header error
[h264 @ 0x4254240] no frame!
[h264 @ 0x4254240] non-existing PPS 0 referenced
[mpegts @ 0x42501a0] decoding for stream 0 failed
[mpegts @ 0x42501a0] Could not find codec parameters for stream 0 (Video: h264 ([27][0][0][0] / 0x001B), none): unspecified size
Consider increasing the value for the 'analyzeduration' and 'probesize' options
Input #0, mpegts, from '/var/www/html/test.ts':
  Duration: 00:00:10.74, start: 1.416000, bitrate: 1131 kb/s
  Program 1
    Metadata:
      service_name    : NovaRS
      service_provider: FFmpeg
    Stream #0:0[0x100]: Video: h264 ([27][0][0][0] / 0x001B), none, 25 fps, 25 tbr, 90k tbn, 180k tbc
    Stream #0:1[0x101]: Audio: aac (LC) ([15][0][0][0] / 0x000F), 22050 Hz, stereo, fltp, 116 kb/s

Tested on VLC Player and same, no Video Picture. Audio works fine.

Attachments (1)

test_stream.flv (1.3 MB) - added by BlackDream 3 years ago.

Download all attachments as: .zip

Change History (2)

Changed 3 years ago by BlackDream

comment:1 Changed 18 months ago by cehoyos

  • Keywords h264 flv mpegts added
  • Reproduced by developer set
  • Status changed from new to open
Note: See TracTickets for help on using tickets.