Opened 3 years ago

Closed 3 years ago

Last modified 3 years ago

#4191 closed defect (duplicate)

ffmpeg crash on

Reported by: vipjml Owned by:
Priority: normal Component: undetermined
Version: unspecified Keywords:
Cc: Blocked By:
Blocking: Reproduced by developer: no
Analyzed by developer: no

Description

Summary of the bug:
How to reproduce:

tools/ffmpeg -i oridata/4.mp4  -ar 44100  -b:a 47k a.mp4
ffmpeg version 2.4.1-   http://johnvansickle.com/ffmpeg/    Copyright (c) 2000-2014 the FFmpeg developers
  built on Sep 24 2014 18:52:48 with gcc 4.8 (Debian 4.8.3-11)
  configuration: --enable-gpl --enable-version3 --disable-shared --disable-debug --enable-runtime-cpudetect --enable-libmp3lame --enable-libx264 --enable-libx265 --enable-libwebp --enable-libspeex --enable-libvorbis --enable-libvpx --enable-libfreetype --enable-fontconfig --enable-libxvid --enable-libopencore-amrnb --enable-libopencore-amrwb --enable-libtheora --enable-libvo-aacenc --enable-libvo-amrwbenc --enable-gray --enable-libopenjpeg --enable-libopus --disable-ffserver --enable-libass --enable-gnutls --cc=gcc-4.8
  libavutil      54.  7.100 / 54.  7.100
  libavcodec     56.  1.100 / 56.  1.100
  libavformat    56.  4.101 / 56.  4.101
  libavdevice    56.  0.100 / 56.  0.100
  libavfilter     5.  1.100 /  5.  1.100
  libswscale      3.  0.100 /  3.  0.100
  libswresample   1.  1.100 /  1.  1.100
  libpostproc    53.  0.100 / 53.  0.100
Input #0, mov,mp4,m4a,3gp,3g2,mj2, from 'oridata/4.mp4':
  Metadata:
    major_brand     : isom
    minor_version   : 512
    compatible_brands: isomiso2avc1mp41
    creation_time   : 1970-01-01 00:00:00
    encoder         : Lavf52.84.0
  Duration: 00:45:21.03, start: 0.000000, bitrate: 749 kb/s
    Stream #0:0(und): Video: h264 (Constrained Baseline) (avc1 / 0x31637661), yuv420p, 480x320 [SAR 1:1 DAR 3:2], 699 kb/s, 25 fps, 25 tbr, 25 tbn, 50 tbc (default)
    Metadata:
      creation_time   : 1970-01-01 00:00:00
      handler_name    : VideoHandler
    Stream #0:1(und): Audio: aac (mp4a / 0x6134706D), 48000 Hz, stereo, fltp, 43 kb/s (default)
    Metadata:
      creation_time   : 1970-01-01 00:00:00
      handler_name    : SoundHandler
File 'a.mp4' already exists. Overwrite ? [y/N] y
[libx264 @ 0x40ede60] using SAR=1/1
[libx264 @ 0x40ede60] using cpu capabilities: MMX2 SSE Cache64
[libx264 @ 0x40ede60] profile High, level 2.1
[libx264 @ 0x40ede60] 264 - core 142 r50 dd79a61 - H.264/MPEG-4 AVC codec - Copyleft 2003-2014 - http://www.videolan.org/x264.html - options: cabac=1 ref=3 deblock=1:0:0 analyse=0x3:0x113 me=hex subme=7 psy=1 psy_rd=1.00:0.00 mixed_ref=1 me_range=16 chroma_me=1 trellis=1 8x8dct=1 cqm=0 deadzone=21,11 fast_pskip=1 chroma_qp_offset=-2 threads=12 lookahead_threads=2 sliced_threads=0 nr=0 decimate=1 interlaced=0 bluray_compat=0 constrained_intra=0 bframes=3 b_pyramid=2 b_adapt=1 b_bias=0 direct=1 weightb=1 open_gop=0 weightp=2 keyint=250 keyint_min=25 scenecut=40 intra_refresh=0 rc_lookahead=40 rc=crf mbtree=1 crf=23.0 qcomp=0.60 qpmin=0 qpmax=69 qpstep=4 ip_ratio=1.40 aq=1:1.00
Output #0, mp4, to 'a.mp4':
  Metadata:
    major_brand     : isom
    minor_version   : 512
    compatible_brands: isomiso2avc1mp41
    encoder         : Lavf56.4.101
    Stream #0:0(und): Video: h264 (libx264) ([33][0][0][0] / 0x0021), yuv420p, 480x320 [SAR 1:1 DAR 3:2], q=-1--1, 25 fps, 12800 tbn, 25 tbc (default)
    Metadata:
      creation_time   : 1970-01-01 00:00:00
      handler_name    : VideoHandler
      encoder         : Lavc56.1.100 libx264
    Stream #0:1(und): Audio: aac (libvo_aacenc) ([64][0][0][0] / 0x0040), 44100 Hz, stereo, s16, 47 kb/s (default)
    Metadata:
      creation_time   : 1970-01-01 00:00:00
      handler_name    : SoundHandler
      encoder         : Lavc56.1.100 libvo_aacenc
Stream mapping:
  Stream #0:0 -> #0:0 (h264 (native) -> h264 (libx264))
  Stream #0:1 -> #0:1 (aac (native) -> aac (libvo_aacenc))
Press [q] to stop, [?] for help
Segmentation fault2 q=28.0 size=   19509kB time=00:30:54.39 bitrate=  86.2kbits/

Patches should be submitted to the ffmpeg-devel mailing list and not this bug tracker.

Change History (3)

comment:1 Changed 3 years ago by vipjml

  • Resolution set to needs_more_info
  • Status changed from new to closed

comment:2 Changed 3 years ago by vipjml

  • Resolution changed from needs_more_info to duplicate

comment:3 Changed 3 years ago by cehoyos

  • Component changed from ffmpeg to undetermined
Note: See TracTickets for help on using tickets.