Opened 5 years ago

Closed 5 years ago

#4123 closed defect (duplicate)

Artifact remains in output for too long with fps filter

Reported by: b_jonas Owned by:
Priority: minor Component: undetermined
Version: unspecified Keywords:
Cc: Blocked By:
Blocking: Reproduced by developer: no
Analyzed by developer: no

Description

Dear ffmpeg team!

This bug report shows a case when using the fps filter causes a video artifact to remain in the output for many more frames than it does without the fps filter.

As input, you need the video "white-car.txt" which I have uploaded to the ftp server upload.ffmpeg.org . This is a h264 video file, 5 megabytes in size, which has an error in it, probably because a frame or part of it was damaged when I have recorded the original from network.

I have first played the video file with the following command:

ffmpeg -report -v 99 -i white-car.mkv -vsync passthrough -q 4 d-%05d.jpg

The output is 183 image files. On the output "d-00157.jpg", you can see serious artifacts, noticable for example if you compare the white car closest to the camera and the ground below it with the surrounding frames. On the following frame "d-00158.jpg" and frames after it, the artifacts on the car and the ground below mostly disappear, with only a little noise remaining. (Some artifacts still remain on the upper half of the picture.)

Now I have instead played the video with the following command, including an fps filter:

ffmpeg.exe -v 99 -report -i white-car.mkv -filter fps=25 -vsync passthrough -q 4 f-%05d.jpg

This creates 249 output files. The artifact is visible on "f-00214.jpg" on the white car and the ground below. However, most of the artifact on the door of the white car still remains in the output in all the following output images, unlike what I got with the previous command. These aren't merely duplicate frames, because you can see the man in the upper half of the images walking.

I believe this is a bug, because the fps filter should not cause an artifact to remain in the output for longer than it normally does. The artifact could of course remain in the output for a few frames if the frame happens to be duplicated, but that is not the case here.

For this test, I am using the Zeranoe ffmpeg build on Windows x64, version ffmpeg-20141120-git-4388e78-win64-shared. The rest of the ticket shall show the full report output from the two commands.


ffmpeg started on 2014-11-20 at 11:22:53
Report written to "ffmpeg-20141120-112253.log"
Command line:
"E:\\ambrus\\local\\ffmpeg-20141120-git-4388e78-win64-shared\\bin\\ffmpeg.exe" -report -v 99 -i white-car.mkv -vsync passthrough -q 4 "d-%05d.jpg"
ffmpeg version N-67838-g4388e78 Copyright (c) 2000-2014 the FFmpeg developers
  built on Nov 19 2014 22:16:57 with gcc 4.9.2 (GCC)
  configuration: --disable-static --enable-shared --enable-gpl --enable-version3 --disable-w32threads --enable-avisynth --enable-bzlib --enable-fontconfig --enable-frei0r --enable-gnutls --enable-iconv --enable-libass --enable-libbluray --enable-libbs2b --enable-libcaca --enable-libfreetype --enable-libgme --enable-libgsm --enable-libilbc --enable-libmodplug --enable-libmp3lame --enable-libopencore-amrnb --enable-libopencore-amrwb --enable-libopenjpeg --enable-libopus --enable-librtmp --enable-libschroedinger --enable-libsoxr --enable-libspeex --enable-libtheora --enable-libtwolame --enable-libvidstab --enable-libvo-aacenc --enable-libvo-amrwbenc --enable-libvorbis --enable-libvpx --enable-libwavpack --enable-libwebp --enable-libx264 --enable-libx265 --enable-libxavs --enable-libxvid --enable-zlib
  libavutil      54. 14.100 / 54. 14.100
  libavcodec     56. 12.101 / 56. 12.101
  libavformat    56. 14.100 / 56. 14.100
  libavdevice    56.  3.100 / 56.  3.100
  libavfilter     5.  2.103 /  5.  2.103
  libswscale      3.  1.101 /  3.  1.101
  libswresample   1.  1.100 /  1.  1.100
  libpostproc    53.  3.100 / 53.  3.100
Splitting the commandline.
Reading option '-report' ... matched as option 'report' (generate a report) with argument '1'.
Reading option '-v' ... matched as option 'v' (set logging level) with argument '99'.
Reading option '-i' ... matched as input file with argument 'white-car.mkv'.
Reading option '-vsync' ... matched as option 'vsync' (video sync method) with argument 'passthrough'.
Reading option '-q' ... matched as option 'q' (use fixed quality scale (VBR)) with argument '4'.
Reading option 'd-%05d.jpg' ... matched as output file.
Finished splitting the commandline.
Parsing a group of options: global .
Applying option report (generate a report) with argument 1.
Applying option v (set logging level) with argument 99.
Applying option vsync (video sync method) with argument passthrough.
Successfully parsed a group of options.
Parsing a group of options: input file white-car.mkv.
Successfully parsed a group of options.
Opening an input file: white-car.mkv.
[matroska,webm @ 000000000049fce0] Format matroska,webm probed with size=2048 and score=100
st:0 removing common factor 1000000 from timebase
[matroska,webm @ 000000000049fce0] Before avformat_find_stream_info() pos: 569 bytes read:32768 seeks:0
[matroska,webm @ 000000000049fce0] All info found
rfps: 29.750000 0.015109
rfps: 29.750000 0.015109
rfps: 29.833333 0.005044
rfps: 29.833333 0.005044
rfps: 29.916667 0.000415
rfps: 30.000000 0.001221
rfps: 30.000000 0.001221
rfps: 30.083333 0.007463
rfps: 30.083333 0.007463
rfps: 30.166667 0.019140
rfps: 59.750000 0.008200
rfps: 59.750000 0.008200
rfps: 59.833333 0.001659
rfps: 59.916667 0.000554
rfps: 59.916667 0.000554
rfps: 60.000000 0.004884
rfps: 60.000000 0.004884
rfps: 29.970030 0.000305
rfps: 29.970030 0.000305
rfps: 59.940060 0.001221
rfps: 59.940060 0.001221
[matroska,webm @ 000000000049fce0] After avformat_find_stream_info() pos: 1579062 bytes read:1596736 seeks:0 frames:48
Input #0, matroska,webm, from 'white-car.mkv':
  Metadata:
    title           : RTSP server
    ENCODER         : Lavf56.14.100
  Duration: 00:00:09.92, start: 0.000000, bitrate: 4730 kb/s
    Stream #0:0, 48, 1/1000: Video: h264 (High), yuv420p(left), 1280x720, 1/2000, SAR 1:1 DAR 16:9, 1k fps, 29.97 tbr, 1k tbn, 2k tbc (default)
Successfully opened the file.
Parsing a group of options: output file d-%05d.jpg.
Applying option q (use fixed quality scale (VBR)) with argument 4.
Successfully parsed a group of options.
Opening an output file: d-%05d.jpg.
Successfully opened the file.
detected 4 logical cores
[graph 0 input from stream 0:0 @ 00000000004a9ea0] Setting 'video_size' to value '1280x720'
[graph 0 input from stream 0:0 @ 00000000004a9ea0] Setting 'pix_fmt' to value '0'
[graph 0 input from stream 0:0 @ 00000000004a9ea0] Setting 'time_base' to value '1/1000'
[graph 0 input from stream 0:0 @ 00000000004a9ea0] Setting 'pixel_aspect' to value '1/1'
[graph 0 input from stream 0:0 @ 00000000004a9ea0] Setting 'sws_param' to value 'flags=2'
[graph 0 input from stream 0:0 @ 00000000004a9ea0] Setting 'frame_rate' to value '30000/1001'
[graph 0 input from stream 0:0 @ 00000000004a9ea0] w:1280 h:720 pixfmt:yuv420p tb:1/1000 fr:30000/1001 sar:1/1 sws_param:flags=2
[format @ 00000000026fef00] compat: called with args=[yuvj420p|yuvj422p|yuvj444p]
[format @ 00000000026fef00] Setting 'pix_fmts' to value 'yuvj420p|yuvj422p|yuvj444p'
[auto-inserted scaler 0 @ 000000000027ab80] Setting 'flags' to value '0x4'
[auto-inserted scaler 0 @ 000000000027ab80] w:iw h:ih flags:'0x4' interl:0
[format @ 00000000026fef00] auto-inserting filter 'auto-inserted scaler 0' between the filter 'Parsed_null_0' and the filter 'format'
[AVFilterGraph @ 000000000027d6e0] query_formats: 4 queried, 2 merged, 1 already done, 0 delayed
[auto-inserted scaler 0 @ 000000000027ab80] picking yuvj420p out of 3 ref:yuv420p alpha:0
[swscaler @ 00000000004a0fe0] deprecated pixel format used, make sure you did set range correctly
[auto-inserted scaler 0 @ 000000000027ab80] w:1280 h:720 fmt:yuv420p sar:1/1 -> w:1280 h:720 fmt:yuvj420p sar:1/1 flags:0x4
[mjpeg @ 000000000049db80] intra_quant_bias = 96 inter_quant_bias = 0
[mjpeg @ 00000000026490a0] intra_quant_bias = 96 inter_quant_bias = 0
[mjpeg @ 0000000002693460] intra_quant_bias = 96 inter_quant_bias = 0
[mjpeg @ 00000000026d29a0] intra_quant_bias = 96 inter_quant_bias = 0
[mjpeg @ 0000000002b949c0] intra_quant_bias = 96 inter_quant_bias = 0
Output #0, image2, to 'd-%05d.jpg':
  Metadata:
    title           : RTSP server
    encoder         : Lavf56.14.100
    Stream #0:0, 0, 1001/30000: Video: mjpeg, yuvj420p(pc, left), 1280x720 [SAR 1:1 DAR 16:9], 1001/30000, q=2-31, 200 kb/s, 29.97 fps, 29.97 tbn, 29.97 tbc (default)
    Metadata:
      encoder         : Lavc56.12.101 mjpeg
Stream mapping:
  Stream #0:0 -> #0:0 (h264 (native) -> mjpeg (native))
Press [q] to stop, [?] for help
[AVIOContext @ 00000000004a0340] Statistics: 0 seeks, 6 writeouts
[AVIOContext @ 00000000064f3e60] Statistics: 0 seeks, 6 writeouts
[AVIOContext @ 00000000064f3e60] Statistics: 0 seeks, 6 writeouts
[AVIOContext @ 00000000064f3e60] Statistics: 0 seeks, 6 writeouts
[AVIOContext @ 00000000064f3e60] Statistics: 0 seeks, 7 writeouts
[AVIOContext @ 00000000064f3e60] Statistics: 0 seeks, 7 writeouts
[AVIOContext @ 00000000064f3e60] Statistics: 0 seeks, 7 writeouts
[AVIOContext @ 00000000064f3e60] Statistics: 0 seeks, 7 writeouts
[AVIOContext @ 00000000064f3e60] Statistics: 0 seeks, 7 writeouts
[AVIOContext @ 00000000064f3e60] Statistics: 0 seeks, 7 writeouts
[AVIOContext @ 00000000064f3e60] Statistics: 0 seeks, 7 writeouts
[AVIOContext @ 00000000064f3e60] Statistics: 0 seeks, 7 writeouts
[AVIOContext @ 00000000064f3e60] Statistics: 0 seeks, 7 writeouts
[AVIOContext @ 00000000064f3e60] Statistics: 0 seeks, 7 writeouts
[AVIOContext @ 00000000064f3e60] Statistics: 0 seeks, 7 writeouts
[AVIOContext @ 00000000064f3e60] Statistics: 0 seeks, 7 writeouts
[AVIOContext @ 00000000064f3e60] Statistics: 0 seeks, 7 writeouts
[AVIOContext @ 00000000064f3e60] Statistics: 0 seeks, 7 writeouts
[AVIOContext @ 00000000064f3e60] Statistics: 0 seeks, 7 writeouts
[AVIOContext @ 00000000064f3e60] Statistics: 0 seeks, 7 writeouts
[AVIOContext @ 00000000064f3e60] Statistics: 0 seeks, 7 writeouts
[AVIOContext @ 00000000064f3e60] Statistics: 0 seeks, 7 writeouts
[AVIOContext @ 00000000064f3e60] Statistics: 0 seeks, 7 writeouts
[AVIOContext @ 00000000064f3e60] Statistics: 0 seeks, 7 writeouts
[AVIOContext @ 00000000064f3e60] Statistics: 0 seeks, 7 writeouts
[AVIOContext @ 00000000064f3e60] Statistics: 0 seeks, 7 writeouts
[AVIOContext @ 00000000064f3e60] Statistics: 0 seeks, 7 writeouts
[AVIOContext @ 00000000064f3e60] Statistics: 0 seeks, 7 writeouts
[AVIOContext @ 00000000064f3e60] Statistics: 0 seeks, 7 writeouts
[AVIOContext @ 00000000064f3e60] Statistics: 0 seeks, 7 writeouts
[AVIOContext @ 00000000064f3e60] Statistics: 0 seeks, 7 writeouts
[AVIOContext @ 00000000064f3e60] Statistics: 0 seeks, 7 writeouts
[AVIOContext @ 00000000064f3e60] Statistics: 0 seeks, 7 writeouts
[AVIOContext @ 00000000064f3e60] Statistics: 0 seeks, 7 writeouts
[AVIOContext @ 00000000064f3e60] Statistics: 0 seeks, 7 writeouts
[AVIOContext @ 00000000064f3e60] Statistics: 0 seeks, 7 writeouts
[AVIOContext @ 00000000064f3e60] Statistics: 0 seeks, 7 writeouts
[AVIOContext @ 00000000064f3e60] Statistics: 0 seeks, 7 writeouts
[AVIOContext @ 00000000064f3e60] Statistics: 0 seeks, 7 writeouts
[AVIOContext @ 00000000064f3e60] Statistics: 0 seeks, 7 writeouts
frame=   42 fps=0.0 q=0.0 size=N/A time=00:00:02.16 bitrate=N/A    
[AVIOContext @ 00000000064f3e60] Statistics: 0 seeks, 7 writeouts
[AVIOContext @ 00000000064f3e60] Statistics: 0 seeks, 7 writeouts
[AVIOContext @ 00000000064f3e60] Statistics: 0 seeks, 7 writeouts
[AVIOContext @ 00000000064f3e60] Statistics: 0 seeks, 7 writeouts
[AVIOContext @ 00000000064f3e60] Statistics: 0 seeks, 7 writeouts
[AVIOContext @ 00000000064f3e60] Statistics: 0 seeks, 7 writeouts
[AVIOContext @ 00000000064f3e60] Statistics: 0 seeks, 7 writeouts
[AVIOContext @ 00000000064f3e60] Statistics: 0 seeks, 7 writeouts
[AVIOContext @ 00000000064f3e60] Statistics: 0 seeks, 7 writeouts
[AVIOContext @ 00000000064f3e60] Statistics: 0 seeks, 7 writeouts
[AVIOContext @ 00000000064f3e60] Statistics: 0 seeks, 7 writeouts
[AVIOContext @ 00000000064f3e60] Statistics: 0 seeks, 7 writeouts
[AVIOContext @ 00000000064f3e60] Statistics: 0 seeks, 7 writeouts
[AVIOContext @ 00000000064f3e60] Statistics: 0 seeks, 7 writeouts
[AVIOContext @ 00000000064f3e60] Statistics: 0 seeks, 7 writeouts
[AVIOContext @ 00000000064f3e60] Statistics: 0 seeks, 7 writeouts
[AVIOContext @ 00000000064f3e60] Statistics: 0 seeks, 7 writeouts
[AVIOContext @ 00000000064f3e60] Statistics: 0 seeks, 7 writeouts
[AVIOContext @ 00000000064f3e60] Statistics: 0 seeks, 7 writeouts
[AVIOContext @ 00000000064f3e60] Statistics: 0 seeks, 7 writeouts
[AVIOContext @ 00000000064f3e60] Statistics: 0 seeks, 7 writeouts
[AVIOContext @ 00000000064f3e60] Statistics: 0 seeks, 7 writeouts
[AVIOContext @ 00000000064f3e60] Statistics: 0 seeks, 7 writeouts
[AVIOContext @ 00000000064f3e60] Statistics: 0 seeks, 7 writeouts
[AVIOContext @ 00000000064f3e60] Statistics: 0 seeks, 7 writeouts
[AVIOContext @ 00000000064f3e60] Statistics: 0 seeks, 7 writeouts
[AVIOContext @ 00000000064f3e60] Statistics: 0 seeks, 7 writeouts
[AVIOContext @ 00000000064f3e60] Statistics: 0 seeks, 7 writeouts
[AVIOContext @ 00000000064f3e60] Statistics: 0 seeks, 7 writeouts
[AVIOContext @ 00000000064f3e60] Statistics: 0 seeks, 7 writeouts
[AVIOContext @ 00000000064f3e60] Statistics: 0 seeks, 7 writeouts
[AVIOContext @ 00000000064f3e60] Statistics: 0 seeks, 7 writeouts
[AVIOContext @ 00000000064f3e60] Statistics: 0 seeks, 7 writeouts
[AVIOContext @ 00000000064f3e60] Statistics: 0 seeks, 7 writeouts
[AVIOContext @ 00000000064f3e60] Statistics: 0 seeks, 6 writeouts
[AVIOContext @ 00000000064f3e60] Statistics: 0 seeks, 6 writeouts
[AVIOContext @ 00000000064f3e60] Statistics: 0 seeks, 6 writeouts
[AVIOContext @ 00000000064f3e60] Statistics: 0 seeks, 6 writeouts
[AVIOContext @ 00000000064f3e60] Statistics: 0 seeks, 7 writeouts
[AVIOContext @ 00000000064f3e60] Statistics: 0 seeks, 7 writeouts
[AVIOContext @ 00000000064f3e60] Statistics: 0 seeks, 7 writeouts
[AVIOContext @ 00000000064f3e60] Statistics: 0 seeks, 7 writeouts
[AVIOContext @ 00000000064f3e60] Statistics: 0 seeks, 7 writeouts
frame=   85 fps= 84 q=0.0 size=N/A time=00:00:04.50 bitrate=N/A    
[AVIOContext @ 00000000064f3e60] Statistics: 0 seeks, 7 writeouts
[AVIOContext @ 00000000064f3e60] Statistics: 0 seeks, 7 writeouts
[AVIOContext @ 00000000064f3e60] Statistics: 0 seeks, 7 writeouts
[AVIOContext @ 00000000064f3e60] Statistics: 0 seeks, 7 writeouts
[AVIOContext @ 00000000064f3e60] Statistics: 0 seeks, 7 writeouts
[AVIOContext @ 00000000064f3e60] Statistics: 0 seeks, 7 writeouts
[AVIOContext @ 00000000064f3e60] Statistics: 0 seeks, 7 writeouts
[AVIOContext @ 00000000064f3e60] Statistics: 0 seeks, 7 writeouts
[AVIOContext @ 00000000064f3e60] Statistics: 0 seeks, 7 writeouts
[AVIOContext @ 00000000064f3e60] Statistics: 0 seeks, 7 writeouts
[AVIOContext @ 00000000064f3e60] Statistics: 0 seeks, 7 writeouts
[AVIOContext @ 00000000064f3e60] Statistics: 0 seeks, 7 writeouts
[AVIOContext @ 00000000064f3e60] Statistics: 0 seeks, 7 writeouts
[AVIOContext @ 00000000064f3e60] Statistics: 0 seeks, 7 writeouts
[AVIOContext @ 00000000064f3e60] Statistics: 0 seeks, 7 writeouts
[AVIOContext @ 00000000064f3e60] Statistics: 0 seeks, 7 writeouts
[AVIOContext @ 00000000064f3e60] Statistics: 0 seeks, 7 writeouts
[AVIOContext @ 00000000064f3e60] Statistics: 0 seeks, 7 writeouts
[AVIOContext @ 00000000064f3e60] Statistics: 0 seeks, 7 writeouts
[AVIOContext @ 00000000064f3e60] Statistics: 0 seeks, 7 writeouts
[AVIOContext @ 00000000064f3e60] Statistics: 0 seeks, 7 writeouts
[AVIOContext @ 00000000064f3e60] Statistics: 0 seeks, 7 writeouts
[AVIOContext @ 00000000064f3e60] Statistics: 0 seeks, 7 writeouts
[AVIOContext @ 00000000064f3e60] Statistics: 0 seeks, 7 writeouts
[AVIOContext @ 00000000064f3e60] Statistics: 0 seeks, 7 writeouts
[AVIOContext @ 00000000064f3e60] Statistics: 0 seeks, 7 writeouts
[AVIOContext @ 00000000064f3e60] Statistics: 0 seeks, 7 writeouts
[AVIOContext @ 00000000064f3e60] Statistics: 0 seeks, 7 writeouts
[AVIOContext @ 00000000064f3e60] Statistics: 0 seeks, 7 writeouts
[AVIOContext @ 00000000064f3e60] Statistics: 0 seeks, 7 writeouts
[AVIOContext @ 00000000064f3e60] Statistics: 0 seeks, 7 writeouts
[AVIOContext @ 00000000064f3e60] Statistics: 0 seeks, 7 writeouts
[AVIOContext @ 00000000064f3e60] Statistics: 0 seeks, 7 writeouts
[AVIOContext @ 00000000064f3e60] Statistics: 0 seeks, 7 writeouts
[AVIOContext @ 00000000064f3e60] Statistics: 0 seeks, 7 writeouts
[AVIOContext @ 00000000064f3e60] Statistics: 0 seeks, 7 writeouts
[AVIOContext @ 00000000064f3e60] Statistics: 0 seeks, 7 writeouts
frame=  122 fps= 81 q=0.0 size=N/A time=00:00:06.53 bitrate=N/A    
[AVIOContext @ 00000000064f3e60] Statistics: 0 seeks, 7 writeouts
[AVIOContext @ 00000000064f3e60] Statistics: 0 seeks, 7 writeouts
[AVIOContext @ 00000000064f3e60] Statistics: 0 seeks, 7 writeouts
[AVIOContext @ 00000000064f3e60] Statistics: 0 seeks, 7 writeouts
[AVIOContext @ 00000000064f3e60] Statistics: 0 seeks, 7 writeouts
[AVIOContext @ 00000000064f3e60] Statistics: 0 seeks, 7 writeouts
[AVIOContext @ 00000000064f3e60] Statistics: 0 seeks, 7 writeouts
[AVIOContext @ 00000000064f3e60] Statistics: 0 seeks, 7 writeouts
[AVIOContext @ 00000000064f3e60] Statistics: 0 seeks, 7 writeouts
[AVIOContext @ 00000000064f3e60] Statistics: 0 seeks, 7 writeouts
[AVIOContext @ 00000000064f3e60] Statistics: 0 seeks, 7 writeouts
[AVIOContext @ 00000000064f3e60] Statistics: 0 seeks, 7 writeouts
[AVIOContext @ 00000000064f3e60] Statistics: 0 seeks, 7 writeouts
[AVIOContext @ 00000000064f3e60] Statistics: 0 seeks, 7 writeouts
[AVIOContext @ 00000000064f3e60] Statistics: 0 seeks, 7 writeouts
[AVIOContext @ 00000000064f3e60] Statistics: 0 seeks, 7 writeouts
[AVIOContext @ 00000000064f3e60] Statistics: 0 seeks, 7 writeouts
[AVIOContext @ 00000000064f3e60] Statistics: 0 seeks, 7 writeouts
[AVIOContext @ 00000000064f3e60] Statistics: 0 seeks, 7 writeouts
[AVIOContext @ 00000000064f3e60] Statistics: 0 seeks, 7 writeouts
[AVIOContext @ 00000000064f3e60] Statistics: 0 seeks, 7 writeouts
[AVIOContext @ 00000000064f3e60] Statistics: 0 seeks, 7 writeouts
[AVIOContext @ 00000000064f3e60] Statistics: 0 seeks, 7 writeouts
[AVIOContext @ 00000000064f3e60] Statistics: 0 seeks, 7 writeouts
[AVIOContext @ 00000000064f3e60] Statistics: 0 seeks, 7 writeouts
[AVIOContext @ 00000000064f3e60] Statistics: 0 seeks, 7 writeouts
[AVIOContext @ 00000000064f3e60] Statistics: 0 seeks, 7 writeouts
[AVIOContext @ 00000000064f3e60] Statistics: 0 seeks, 7 writeouts
[AVIOContext @ 00000000064f3e60] Statistics: 0 seeks, 6 writeouts
[AVIOContext @ 00000000064f3e60] Statistics: 0 seeks, 6 writeouts
[h264 @ 00000000028c99e0] Cannot use next picture in error concealment
[AVIOContext @ 00000000064f3e60] Statistics: 0 seeks, 6 writeouts
[h264 @ 00000000028c99e0] concealing 3047 DC, 3047 AC, 3047 MV errors in P frame
frame=  153 fps= 76 q=0.0 size=N/A time=00:00:08.20 bitrate=N/A    
[AVIOContext @ 00000000064f3e60] Statistics: 0 seeks, 7 writeouts
[AVIOContext @ 00000000064f3e60] Statistics: 0 seeks, 7 writeouts
[AVIOContext @ 00000000064f3e60] Statistics: 0 seeks, 7 writeouts
[AVIOContext @ 00000000064f3e60] Statistics: 0 seeks, 7 writeouts
[AVIOContext @ 00000000064f3e60] Statistics: 0 seeks, 7 writeouts
[AVIOContext @ 00000000064f3e60] Statistics: 0 seeks, 6 writeouts
[AVIOContext @ 00000000064f3e60] Statistics: 0 seeks, 7 writeouts
[AVIOContext @ 00000000064f3e60] Statistics: 0 seeks, 7 writeouts
[AVIOContext @ 00000000064f3e60] Statistics: 0 seeks, 7 writeouts
[AVIOContext @ 00000000064f3e60] Statistics: 0 seeks, 7 writeouts
[AVIOContext @ 00000000064f3e60] Statistics: 0 seeks, 7 writeouts
[AVIOContext @ 00000000064f3e60] Statistics: 0 seeks, 7 writeouts
[AVIOContext @ 00000000064f3e60] Statistics: 0 seeks, 7 writeouts
[AVIOContext @ 00000000064f3e60] Statistics: 0 seeks, 7 writeouts
[AVIOContext @ 00000000064f3e60] Statistics: 0 seeks, 7 writeouts
[AVIOContext @ 00000000064f3e60] Statistics: 0 seeks, 7 writeouts
[AVIOContext @ 00000000064f3e60] Statistics: 0 seeks, 7 writeouts
[AVIOContext @ 00000000064f3e60] Statistics: 0 seeks, 7 writeouts
[AVIOContext @ 00000000064f3e60] Statistics: 0 seeks, 7 writeouts
[AVIOContext @ 00000000064f3e60] Statistics: 0 seeks, 7 writeouts
[AVIOContext @ 00000000064f3e60] Statistics: 0 seeks, 7 writeouts
[AVIOContext @ 00000000064f3e60] Statistics: 0 seeks, 7 writeouts
[AVIOContext @ 00000000064f3e60] Statistics: 0 seeks, 7 writeouts
[AVIOContext @ 00000000064f3e60] Statistics: 0 seeks, 7 writeouts
[AVIOContext @ 00000000064f3e60] Statistics: 0 seeks, 7 writeouts
[AVIOContext @ 00000000064f3e60] Statistics: 0 seeks, 7 writeouts
[AVIOContext @ 00000000064f3e60] Statistics: 0 seeks, 7 writeouts
[AVIOContext @ 00000000064f3e60] Statistics: 0 seeks, 7 writeouts
[AVIOContext @ 00000000064f3e60] Statistics: 0 seeks, 7 writeouts
[AVIOContext @ 00000000064f3e60] Statistics: 0 seeks, 7 writeouts
[output stream 0:0 @ 00000000026fee40] EOF on sink link output stream 0:0:default.
No more output streams to write to, finishing.
[AVIOContext @ 00000000064f3e60] Statistics: 0 seeks, 7 writeouts
[AVIOContext @ 00000000064f3e60] Statistics: 0 seeks, 7 writeouts
frame=  183 fps= 75 q=0.0 Lsize=N/A time=00:00:09.94 bitrate=N/A    
video:35933kB audio:0kB subtitle:0kB other streams:0kB global headers:0kB muxing overhead: unknown
Input file #0 (white-car.mkv):
  Input stream #0:0 (video): 183 packets read (5863588 bytes); 183 frames decoded; 
  Total: 183 packets (5863588 bytes) demuxed
Output file #0 (d-%05d.jpg):
  Output stream #0:0 (video): 183 frames encoded; 183 packets muxed (36795594 bytes); 
  Total: 183 packets (36795594 bytes) muxed
187 frames successfully decoded, 0 decoding errors
[AVIOContext @ 00000000004a0520] Statistics: 5865731 bytes read, 0 seeks

ffmpeg started on 2014-11-20 at 11:23:14
Report written to "ffmpeg-20141120-112314.log"
Command line:
"E:\\ambrus\\local\\ffmpeg-20141120-git-4388e78-win64-shared\\bin\\ffmpeg.exe" -v 99 -report -i white-car.mkv -filter "fps=25" -vsync passthrough -q 4 "f-%05d.jpg"
ffmpeg version N-67838-g4388e78 Copyright (c) 2000-2014 the FFmpeg developers
  built on Nov 19 2014 22:16:57 with gcc 4.9.2 (GCC)
  configuration: --disable-static --enable-shared --enable-gpl --enable-version3 --disable-w32threads --enable-avisynth --enable-bzlib --enable-fontconfig --enable-frei0r --enable-gnutls --enable-iconv --enable-libass --enable-libbluray --enable-libbs2b --enable-libcaca --enable-libfreetype --enable-libgme --enable-libgsm --enable-libilbc --enable-libmodplug --enable-libmp3lame --enable-libopencore-amrnb --enable-libopencore-amrwb --enable-libopenjpeg --enable-libopus --enable-librtmp --enable-libschroedinger --enable-libsoxr --enable-libspeex --enable-libtheora --enable-libtwolame --enable-libvidstab --enable-libvo-aacenc --enable-libvo-amrwbenc --enable-libvorbis --enable-libvpx --enable-libwavpack --enable-libwebp --enable-libx264 --enable-libx265 --enable-libxavs --enable-libxvid --enable-zlib
  libavutil      54. 14.100 / 54. 14.100
  libavcodec     56. 12.101 / 56. 12.101
  libavformat    56. 14.100 / 56. 14.100
  libavdevice    56.  3.100 / 56.  3.100
  libavfilter     5.  2.103 /  5.  2.103
  libswscale      3.  1.101 /  3.  1.101
  libswresample   1.  1.100 /  1.  1.100
  libpostproc    53.  3.100 / 53.  3.100
Splitting the commandline.
Reading option '-v' ... matched as option 'v' (set logging level) with argument '99'.
Reading option '-report' ... matched as option 'report' (generate a report) with argument '1'.
Reading option '-i' ... matched as input file with argument 'white-car.mkv'.
Reading option '-filter' ... matched as option 'filter' (set stream filtergraph) with argument 'fps=25'.
Reading option '-vsync' ... matched as option 'vsync' (video sync method) with argument 'passthrough'.
Reading option '-q' ... matched as option 'q' (use fixed quality scale (VBR)) with argument '4'.
Reading option 'f-%05d.jpg' ... matched as output file.
Finished splitting the commandline.
Parsing a group of options: global .
Applying option v (set logging level) with argument 99.
Applying option report (generate a report) with argument 1.
Applying option vsync (video sync method) with argument passthrough.
Successfully parsed a group of options.
Parsing a group of options: input file white-car.mkv.
Successfully parsed a group of options.
Opening an input file: white-car.mkv.
[matroska,webm @ 000000000068fc00] Format matroska,webm probed with size=2048 and score=100
st:0 removing common factor 1000000 from timebase
[matroska,webm @ 000000000068fc00] Before avformat_find_stream_info() pos: 569 bytes read:32768 seeks:0
[matroska,webm @ 000000000068fc00] All info found
rfps: 29.750000 0.015109
rfps: 29.750000 0.015109
rfps: 29.833333 0.005044
rfps: 29.833333 0.005044
rfps: 29.916667 0.000415
rfps: 30.000000 0.001221
rfps: 30.000000 0.001221
rfps: 30.083333 0.007463
rfps: 30.083333 0.007463
rfps: 30.166667 0.019140
rfps: 59.750000 0.008200
rfps: 59.750000 0.008200
rfps: 59.833333 0.001659
rfps: 59.916667 0.000554
rfps: 59.916667 0.000554
rfps: 60.000000 0.004884
rfps: 60.000000 0.004884
rfps: 29.970030 0.000305
rfps: 29.970030 0.000305
rfps: 59.940060 0.001221
rfps: 59.940060 0.001221
[matroska,webm @ 000000000068fc00] After avformat_find_stream_info() pos: 1579062 bytes read:1596736 seeks:0 frames:48
Input #0, matroska,webm, from 'white-car.mkv':
  Metadata:
    title           : RTSP server
    ENCODER         : Lavf56.14.100
  Duration: 00:00:09.92, start: 0.000000, bitrate: 4730 kb/s
    Stream #0:0, 48, 1/1000: Video: h264 (High), yuv420p(left), 1280x720, 1/2000, SAR 1:1 DAR 16:9, 1k fps, 29.97 tbr, 1k tbn, 2k tbc (default)
Successfully opened the file.
Parsing a group of options: output file f-%05d.jpg.
Applying option filter (set stream filtergraph) with argument fps=25.
Applying option q (use fixed quality scale (VBR)) with argument 4.
Successfully parsed a group of options.
Opening an output file: f-%05d.jpg.
Successfully opened the file.
detected 4 logical cores
[Parsed_fps_0 @ 000000000032ad00] Setting 'fps' to value '25'
[Parsed_fps_0 @ 000000000032ad00] fps=25/1
[graph 0 input from stream 0:0 @ 000000000032bac0] Setting 'video_size' to value '1280x720'
[graph 0 input from stream 0:0 @ 000000000032bac0] Setting 'pix_fmt' to value '0'
[graph 0 input from stream 0:0 @ 000000000032bac0] Setting 'time_base' to value '1/1000'
[graph 0 input from stream 0:0 @ 000000000032bac0] Setting 'pixel_aspect' to value '1/1'
[graph 0 input from stream 0:0 @ 000000000032bac0] Setting 'sws_param' to value 'flags=2'
[graph 0 input from stream 0:0 @ 000000000032bac0] Setting 'frame_rate' to value '30000/1001'
[graph 0 input from stream 0:0 @ 000000000032bac0] w:1280 h:720 pixfmt:yuv420p tb:1/1000 fr:30000/1001 sar:1/1 sws_param:flags=2
[format @ 000000000264ee40] compat: called with args=[yuvj420p|yuvj422p|yuvj444p]
[format @ 000000000264ee40] Setting 'pix_fmts' to value 'yuvj420p|yuvj422p|yuvj444p'
[auto-inserted scaler 0 @ 000000000264ef00] Setting 'flags' to value '0x4'
[auto-inserted scaler 0 @ 000000000264ef00] w:iw h:ih flags:'0x4' interl:0
[format @ 000000000264ee40] auto-inserting filter 'auto-inserted scaler 0' between the filter 'Parsed_fps_0' and the filter 'format'
[AVFilterGraph @ 000000000032d7c0] query_formats: 4 queried, 2 merged, 1 already done, 0 delayed
[auto-inserted scaler 0 @ 000000000264ef00] picking yuvj420p out of 3 ref:yuv420p alpha:0
[swscaler @ 00000000006a8fe0] deprecated pixel format used, make sure you did set range correctly
[auto-inserted scaler 0 @ 000000000264ef00] w:1280 h:720 fmt:yuv420p sar:1/1 -> w:1280 h:720 fmt:yuvj420p sar:1/1 flags:0x4
[mjpeg @ 000000000074f600] intra_quant_bias = 96 inter_quant_bias = 0
[mjpeg @ 00000000025ad420] intra_quant_bias = 96 inter_quant_bias = 0
[mjpeg @ 00000000025eff80] intra_quant_bias = 96 inter_quant_bias = 0
[mjpeg @ 000000000262f600] intra_quant_bias = 96 inter_quant_bias = 0
[mjpeg @ 0000000002316ac0] intra_quant_bias = 96 inter_quant_bias = 0
Output #0, image2, to 'f-%05d.jpg':
  Metadata:
    title           : RTSP server
    encoder         : Lavf56.14.100
    Stream #0:0, 0, 1/25: Video: mjpeg, yuvj420p(pc, left), 1280x720 [SAR 1:1 DAR 16:9], 1/25, q=2-31, 200 kb/s, 25 fps, 25 tbn, 25 tbc (default)
    Metadata:
      encoder         : Lavc56.12.101 mjpeg
Stream mapping:
  Stream #0:0 -> #0:0 (h264 (native) -> mjpeg (native))
Press [q] to stop, [?] for help
[Parsed_fps_0 @ 000000000032ad00] Duplicating frame.
[AVIOContext @ 000000000074c200] Statistics: 0 seeks, 6 writeouts
[Parsed_fps_0 @ 000000000032ad00] Duplicating frame.
[AVIOContext @ 000000000074c200] Statistics: 0 seeks, 6 writeouts
[AVIOContext @ 000000000074c200] Statistics: 0 seeks, 6 writeouts
[AVIOContext @ 000000000074c200] Statistics: 0 seeks, 6 writeouts
[AVIOContext @ 000000000074c200] Statistics: 0 seeks, 6 writeouts
[AVIOContext @ 000000000074c200] Statistics: 0 seeks, 6 writeouts
[Parsed_fps_0 @ 000000000032ad00] Duplicating frame.
[AVIOContext @ 000000000074c200] Statistics: 0 seeks, 7 writeouts
[AVIOContext @ 000000000074c200] Statistics: 0 seeks, 7 writeouts
[AVIOContext @ 000000000074c200] Statistics: 0 seeks, 7 writeouts
[Parsed_fps_0 @ 000000000032ad00] Duplicating frame.
[Parsed_fps_0 @ 000000000032ad00] Duplicating frame.
[AVIOContext @ 000000000074c200] Statistics: 0 seeks, 7 writeouts
[AVIOContext @ 000000000074c200] Statistics: 0 seeks, 7 writeouts
[AVIOContext @ 000000000074c200] Statistics: 0 seeks, 7 writeouts
[AVIOContext @ 000000000074c200] Statistics: 0 seeks, 7 writeouts
[Parsed_fps_0 @ 000000000032ad00] Duplicating frame.
[AVIOContext @ 000000000074c200] Statistics: 0 seeks, 7 writeouts
[AVIOContext @ 000000000074c200] Statistics: 0 seeks, 7 writeouts
[Parsed_fps_0 @ 000000000032ad00] Dropping 1 frame(s).
[AVIOContext @ 000000000074c200] Statistics: 0 seeks, 7 writeouts
[Parsed_fps_0 @ 000000000032ad00] Duplicating frame.
[AVIOContext @ 000000000074c200] Statistics: 0 seeks, 7 writeouts
[AVIOContext @ 000000000074c200] Statistics: 0 seeks, 7 writeouts
[AVIOContext @ 000000000074c200] Statistics: 0 seeks, 7 writeouts
[AVIOContext @ 000000000074c200] Statistics: 0 seeks, 7 writeouts
[AVIOContext @ 000000000074c200] Statistics: 0 seeks, 7 writeouts
[Parsed_fps_0 @ 000000000032ad00] Duplicating frame.
[AVIOContext @ 000000000074c200] Statistics: 0 seeks, 7 writeouts
[AVIOContext @ 000000000074c200] Statistics: 0 seeks, 7 writeouts
[Parsed_fps_0 @ 000000000032ad00] Duplicating frame.
[AVIOContext @ 000000000074c200] Statistics: 0 seeks, 7 writeouts
[AVIOContext @ 000000000074c200] Statistics: 0 seeks, 7 writeouts
[AVIOContext @ 000000000074c200] Statistics: 0 seeks, 7 writeouts
[Parsed_fps_0 @ 000000000032ad00] Duplicating frame.
[AVIOContext @ 000000000074c200] Statistics: 0 seeks, 7 writeouts
[AVIOContext @ 000000000074c200] Statistics: 0 seeks, 7 writeouts
[AVIOContext @ 000000000074c200] Statistics: 0 seeks, 7 writeouts
[AVIOContext @ 000000000074c200] Statistics: 0 seeks, 7 writeouts
[Parsed_fps_0 @ 000000000032ad00] Duplicating frame.
[AVIOContext @ 000000000074c200] Statistics: 0 seeks, 7 writeouts
[AVIOContext @ 000000000074c200] Statistics: 0 seeks, 7 writeouts
frame=   35 fps=0.0 q=0.0 size=N/A time=00:00:01.28 bitrate=N/A    
[AVIOContext @ 000000000074c200] Statistics: 0 seeks, 7 writeouts
[Parsed_fps_0 @ 000000000032ad00] Duplicating frame.
[AVIOContext @ 000000000074c200] Statistics: 0 seeks, 7 writeouts
[AVIOContext @ 000000000074c200] Statistics: 0 seeks, 7 writeouts
[Parsed_fps_0 @ 000000000032ad00] Dropping 1 frame(s).
[Parsed_fps_0 @ 000000000032ad00] Duplicating frame.
[AVIOContext @ 000000000074c200] Statistics: 0 seeks, 7 writeouts
[AVIOContext @ 000000000074c200] Statistics: 0 seeks, 7 writeouts
[AVIOContext @ 000000000074c200] Statistics: 0 seeks, 7 writeouts
[Parsed_fps_0 @ 000000000032ad00] Duplicating frame.
[AVIOContext @ 000000000074c200] Statistics: 0 seeks, 7 writeouts
[AVIOContext @ 000000000074c200] Statistics: 0 seeks, 7 writeouts
[Parsed_fps_0 @ 000000000032ad00] Dropping 1 frame(s).
[Parsed_fps_0 @ 000000000032ad00] Duplicating frame.
[AVIOContext @ 000000000074c200] Statistics: 0 seeks, 7 writeouts
[AVIOContext @ 000000000074c200] Statistics: 0 seeks, 7 writeouts
[AVIOContext @ 000000000074c200] Statistics: 0 seeks, 7 writeouts
[Parsed_fps_0 @ 000000000032ad00] Duplicating frame.
[AVIOContext @ 000000000074c200] Statistics: 0 seeks, 7 writeouts
[AVIOContext @ 000000000074c200] Statistics: 0 seeks, 7 writeouts
[Parsed_fps_0 @ 000000000032ad00] Duplicating frame.
[AVIOContext @ 000000000074c200] Statistics: 0 seeks, 7 writeouts
[AVIOContext @ 000000000074c200] Statistics: 0 seeks, 7 writeouts
[AVIOContext @ 000000000074c200] Statistics: 0 seeks, 7 writeouts
[Parsed_fps_0 @ 000000000032ad00] Duplicating frame.
[AVIOContext @ 000000000074c200] Statistics: 0 seeks, 7 writeouts
[AVIOContext @ 000000000074c200] Statistics: 0 seeks, 7 writeouts
[Parsed_fps_0 @ 000000000032ad00] Dropping 1 frame(s).
[Parsed_fps_0 @ 000000000032ad00] Duplicating frame.
[AVIOContext @ 000000000074c200] Statistics: 0 seeks, 7 writeouts
[AVIOContext @ 000000000074c200] Statistics: 0 seeks, 7 writeouts
[AVIOContext @ 000000000074c200] Statistics: 0 seeks, 7 writeouts
[Parsed_fps_0 @ 000000000032ad00] Duplicating frame.
[AVIOContext @ 000000000074c200] Statistics: 0 seeks, 7 writeouts
[AVIOContext @ 000000000074c200] Statistics: 0 seeks, 7 writeouts
[Parsed_fps_0 @ 000000000032ad00] Dropping 1 frame(s).
[Parsed_fps_0 @ 000000000032ad00] Duplicating frame.
[AVIOContext @ 000000000074c200] Statistics: 0 seeks, 7 writeouts
[AVIOContext @ 000000000074c200] Statistics: 0 seeks, 7 writeouts
[AVIOContext @ 000000000074c200] Statistics: 0 seeks, 7 writeouts
[Parsed_fps_0 @ 000000000032ad00] Duplicating frame.
[AVIOContext @ 000000000074c200] Statistics: 0 seeks, 7 writeouts
[AVIOContext @ 000000000074c200] Statistics: 0 seeks, 7 writeouts
[AVIOContext @ 000000000074c200] Statistics: 0 seeks, 7 writeouts
[AVIOContext @ 000000000074c200] Statistics: 0 seeks, 7 writeouts
[Parsed_fps_0 @ 000000000032ad00] Duplicating frame.
[Parsed_fps_0 @ 000000000032ad00] Duplicating frame.
[AVIOContext @ 000000000074c200] Statistics: 0 seeks, 7 writeouts
[AVIOContext @ 000000000074c200] Statistics: 0 seeks, 7 writeouts
[AVIOContext @ 000000000074c200] Statistics: 0 seeks, 7 writeouts
[Parsed_fps_0 @ 000000000032ad00] Dropping 1 frame(s).
[Parsed_fps_0 @ 000000000032ad00] Duplicating frame.
[AVIOContext @ 000000000074c200] Statistics: 0 seeks, 7 writeouts
[AVIOContext @ 000000000074c200] Statistics: 0 seeks, 7 writeouts
[AVIOContext @ 000000000074c200] Statistics: 0 seeks, 7 writeouts
[Parsed_fps_0 @ 000000000032ad00] Duplicating frame.
[AVIOContext @ 000000000074c200] Statistics: 0 seeks, 7 writeouts
[AVIOContext @ 000000000074c200] Statistics: 0 seeks, 7 writeouts
[AVIOContext @ 000000000074c200] Statistics: 0 seeks, 7 writeouts
[AVIOContext @ 000000000074c200] Statistics: 0 seeks, 7 writeouts
[Parsed_fps_0 @ 000000000032ad00] Duplicating frame.
[AVIOContext @ 000000000074c200] Statistics: 0 seeks, 7 writeouts
[AVIOContext @ 000000000074c200] Statistics: 0 seeks, 7 writeouts
frame=   77 fps=0.0 q=0.0 size=N/A time=00:00:02.96 bitrate=N/A    
[AVIOContext @ 000000000074c200] Statistics: 0 seeks, 7 writeouts
[AVIOContext @ 000000000074c200] Statistics: 0 seeks, 7 writeouts
[AVIOContext @ 000000000074c200] Statistics: 0 seeks, 7 writeouts
[Parsed_fps_0 @ 000000000032ad00] Duplicating frame.
[AVIOContext @ 000000000074c200] Statistics: 0 seeks, 7 writeouts
[AVIOContext @ 000000000074c200] Statistics: 0 seeks, 7 writeouts
[AVIOContext @ 000000000074c200] Statistics: 0 seeks, 7 writeouts
[Parsed_fps_0 @ 000000000032ad00] Duplicating frame.
[Parsed_fps_0 @ 000000000032ad00] Duplicating frame.
[AVIOContext @ 000000000074c200] Statistics: 0 seeks, 7 writeouts
[AVIOContext @ 000000000074c200] Statistics: 0 seeks, 7 writeouts
[AVIOContext @ 000000000074c200] Statistics: 0 seeks, 7 writeouts
[AVIOContext @ 000000000074c200] Statistics: 0 seeks, 7 writeouts
[Parsed_fps_0 @ 000000000032ad00] Duplicating frame.
[AVIOContext @ 000000000074c200] Statistics: 0 seeks, 7 writeouts
[AVIOContext @ 000000000074c200] Statistics: 0 seeks, 7 writeouts
[Parsed_fps_0 @ 000000000032ad00] Dropping 1 frame(s).
[AVIOContext @ 000000000074c200] Statistics: 0 seeks, 7 writeouts
[Parsed_fps_0 @ 000000000032ad00] Duplicating frame.
[AVIOContext @ 000000000074c200] Statistics: 0 seeks, 7 writeouts
[AVIOContext @ 000000000074c200] Statistics: 0 seeks, 7 writeouts
[AVIOContext @ 000000000074c200] Statistics: 0 seeks, 7 writeouts
[AVIOContext @ 000000000074c200] Statistics: 0 seeks, 7 writeouts
[AVIOContext @ 000000000074c200] Statistics: 0 seeks, 7 writeouts
[Parsed_fps_0 @ 000000000032ad00] Duplicating frame.
[AVIOContext @ 000000000074c200] Statistics: 0 seeks, 7 writeouts
[AVIOContext @ 000000000074c200] Statistics: 0 seeks, 7 writeouts
[Parsed_fps_0 @ 000000000032ad00] Duplicating frame.
[AVIOContext @ 000000000074c200] Statistics: 0 seeks, 7 writeouts
[AVIOContext @ 000000000074c200] Statistics: 0 seeks, 7 writeouts
[Parsed_fps_0 @ 000000000032ad00] Dropping 1 frame(s).
[Parsed_fps_0 @ 000000000032ad00] Duplicating frame.
[AVIOContext @ 000000000074c200] Statistics: 0 seeks, 7 writeouts
[AVIOContext @ 000000000074c200] Statistics: 0 seeks, 7 writeouts
[AVIOContext @ 000000000074c200] Statistics: 0 seeks, 7 writeouts
[Parsed_fps_0 @ 000000000032ad00] Duplicating frame.
[AVIOContext @ 000000000074c200] Statistics: 0 seeks, 7 writeouts
[AVIOContext @ 000000000074c200] Statistics: 0 seeks, 7 writeouts
[Parsed_fps_0 @ 000000000032ad00] Duplicating frame.
[AVIOContext @ 000000000074c200] Statistics: 0 seeks, 6 writeouts
[AVIOContext @ 000000000074c200] Statistics: 0 seeks, 6 writeouts
[AVIOContext @ 000000000074c200] Statistics: 0 seeks, 6 writeouts
[Parsed_fps_0 @ 000000000032ad00] Duplicating frame.
[AVIOContext @ 000000000074c200] Statistics: 0 seeks, 6 writeouts
[AVIOContext @ 000000000074c200] Statistics: 0 seeks, 6 writeouts
[Parsed_fps_0 @ 000000000032ad00] Dropping 1 frame(s).
[Parsed_fps_0 @ 000000000032ad00] Duplicating frame.
[AVIOContext @ 000000000074c200] Statistics: 0 seeks, 6 writeouts
[AVIOContext @ 000000000074c200] Statistics: 0 seeks, 7 writeouts
[AVIOContext @ 000000000074c200] Statistics: 0 seeks, 7 writeouts
[Parsed_fps_0 @ 000000000032ad00] Duplicating frame.
[AVIOContext @ 000000000074c200] Statistics: 0 seeks, 7 writeouts
[AVIOContext @ 000000000074c200] Statistics: 0 seeks, 7 writeouts
[Parsed_fps_0 @ 000000000032ad00] Dropping 1 frame(s).
frame=  114 fps= 75 q=0.0 size=N/A time=00:00:04.44 bitrate=N/A    
[Parsed_fps_0 @ 000000000032ad00] Duplicating frame.
[AVIOContext @ 000000000074c200] Statistics: 0 seeks, 7 writeouts
[AVIOContext @ 000000000074c200] Statistics: 0 seeks, 7 writeouts
[AVIOContext @ 000000000074c200] Statistics: 0 seeks, 7 writeouts
[Parsed_fps_0 @ 000000000032ad00] Duplicating frame.
[AVIOContext @ 000000000074c200] Statistics: 0 seeks, 7 writeouts
[AVIOContext @ 000000000074c200] Statistics: 0 seeks, 7 writeouts
[AVIOContext @ 000000000074c200] Statistics: 0 seeks, 7 writeouts
[Parsed_fps_0 @ 000000000032ad00] Duplicating frame.
[AVIOContext @ 000000000074c200] Statistics: 0 seeks, 7 writeouts
[AVIOContext @ 000000000074c200] Statistics: 0 seeks, 7 writeouts
[Parsed_fps_0 @ 000000000032ad00] Duplicating frame.
[AVIOContext @ 000000000074c200] Statistics: 0 seeks, 7 writeouts
[AVIOContext @ 000000000074c200] Statistics: 0 seeks, 7 writeouts
[AVIOContext @ 000000000074c200] Statistics: 0 seeks, 7 writeouts
[Parsed_fps_0 @ 000000000032ad00] Duplicating frame.
[AVIOContext @ 000000000074c200] Statistics: 0 seeks, 7 writeouts
[AVIOContext @ 000000000074c200] Statistics: 0 seeks, 7 writeouts
[AVIOContext @ 000000000074c200] Statistics: 0 seeks, 7 writeouts
[AVIOContext @ 000000000074c200] Statistics: 0 seeks, 7 writeouts
[AVIOContext @ 000000000074c200] Statistics: 0 seeks, 7 writeouts
[Parsed_fps_0 @ 000000000032ad00] Duplicating frame.
[AVIOContext @ 000000000074c200] Statistics: 0 seeks, 7 writeouts
[AVIOContext @ 000000000074c200] Statistics: 0 seeks, 7 writeouts
[AVIOContext @ 000000000074c200] Statistics: 0 seeks, 7 writeouts
[AVIOContext @ 000000000074c200] Statistics: 0 seeks, 7 writeouts
[AVIOContext @ 000000000074c200] Statistics: 0 seeks, 7 writeouts
[AVIOContext @ 000000000074c200] Statistics: 0 seeks, 7 writeouts
[Parsed_fps_0 @ 000000000032ad00] Duplicating frame.
[Parsed_fps_0 @ 000000000032ad00] Duplicating frame.
[AVIOContext @ 000000000074c200] Statistics: 0 seeks, 7 writeouts
[AVIOContext @ 000000000074c200] Statistics: 0 seeks, 7 writeouts
[AVIOContext @ 000000000074c200] Statistics: 0 seeks, 7 writeouts
[Parsed_fps_0 @ 000000000032ad00] Dropping 1 frame(s).
[Parsed_fps_0 @ 000000000032ad00] Duplicating frame.
[AVIOContext @ 000000000074c200] Statistics: 0 seeks, 7 writeouts
[AVIOContext @ 000000000074c200] Statistics: 0 seeks, 7 writeouts
[AVIOContext @ 000000000074c200] Statistics: 0 seeks, 7 writeouts
[Parsed_fps_0 @ 000000000032ad00] Duplicating frame.
[AVIOContext @ 000000000074c200] Statistics: 0 seeks, 7 writeouts
[AVIOContext @ 000000000074c200] Statistics: 0 seeks, 7 writeouts
[Parsed_fps_0 @ 000000000032ad00] Dropping 1 frame(s).
[Parsed_fps_0 @ 000000000032ad00] Duplicating frame.
[AVIOContext @ 000000000074c200] Statistics: 0 seeks, 7 writeouts
[AVIOContext @ 000000000074c200] Statistics: 0 seeks, 7 writeouts
[Parsed_fps_0 @ 000000000032ad00] Duplicating frame.
[AVIOContext @ 000000000074c200] Statistics: 0 seeks, 7 writeouts
[AVIOContext @ 000000000074c200] Statistics: 0 seeks, 7 writeouts
[AVIOContext @ 000000000074c200] Statistics: 0 seeks, 7 writeouts
[AVIOContext @ 000000000074c200] Statistics: 0 seeks, 7 writeouts
[AVIOContext @ 000000000074c200] Statistics: 0 seeks, 7 writeouts
[Parsed_fps_0 @ 000000000032ad00] Duplicating frame.
[Parsed_fps_0 @ 000000000032ad00] Duplicating frame.
[AVIOContext @ 000000000074c200] Statistics: 0 seeks, 7 writeouts
[AVIOContext @ 000000000074c200] Statistics: 0 seeks, 7 writeouts
[AVIOContext @ 000000000074c200] Statistics: 0 seeks, 7 writeouts
[Parsed_fps_0 @ 000000000032ad00] Dropping 1 frame(s).
frame=  154 fps= 76 q=0.0 size=N/A time=00:00:06.04 bitrate=N/A    
[Parsed_fps_0 @ 000000000032ad00] Duplicating frame.
[Parsed_fps_0 @ 000000000032ad00] Duplicating frame.
[AVIOContext @ 000000000074c200] Statistics: 0 seeks, 7 writeouts
[AVIOContext @ 000000000074c200] Statistics: 0 seeks, 7 writeouts
[AVIOContext @ 000000000074c200] Statistics: 0 seeks, 7 writeouts
[AVIOContext @ 000000000074c200] Statistics: 0 seeks, 7 writeouts
[AVIOContext @ 000000000074c200] Statistics: 0 seeks, 7 writeouts
[AVIOContext @ 000000000074c200] Statistics: 0 seeks, 7 writeouts
[AVIOContext @ 000000000074c200] Statistics: 0 seeks, 7 writeouts
[Parsed_fps_0 @ 000000000032ad00] Duplicating frame.
[AVIOContext @ 000000000074c200] Statistics: 0 seeks, 7 writeouts
[AVIOContext @ 000000000074c200] Statistics: 0 seeks, 7 writeouts
[AVIOContext @ 000000000074c200] Statistics: 0 seeks, 7 writeouts
[AVIOContext @ 000000000074c200] Statistics: 0 seeks, 7 writeouts
[AVIOContext @ 000000000074c200] Statistics: 0 seeks, 7 writeouts
[Parsed_fps_0 @ 000000000032ad00] Duplicating frame.
[AVIOContext @ 000000000074c200] Statistics: 0 seeks, 7 writeouts
[AVIOContext @ 000000000074c200] Statistics: 0 seeks, 7 writeouts
[AVIOContext @ 000000000074c200] Statistics: 0 seeks, 7 writeouts
[Parsed_fps_0 @ 000000000032ad00] Duplicating frame.
[AVIOContext @ 000000000074c200] Statistics: 0 seeks, 7 writeouts
[AVIOContext @ 000000000074c200] Statistics: 0 seeks, 7 writeouts
[AVIOContext @ 000000000074c200] Statistics: 0 seeks, 7 writeouts
[Parsed_fps_0 @ 000000000032ad00] Duplicating frame.
[AVIOContext @ 000000000074c200] Statistics: 0 seeks, 7 writeouts
[AVIOContext @ 000000000074c200] Statistics: 0 seeks, 7 writeouts
[AVIOContext @ 000000000074c200] Statistics: 0 seeks, 7 writeouts
[Parsed_fps_0 @ 000000000032ad00] Duplicating frame.
[AVIOContext @ 000000000074c200] Statistics: 0 seeks, 7 writeouts
[AVIOContext @ 000000000074c200] Statistics: 0 seeks, 7 writeouts
[AVIOContext @ 000000000074c200] Statistics: 0 seeks, 7 writeouts
[Parsed_fps_0 @ 000000000032ad00] Duplicating frame.
[AVIOContext @ 000000000074c200] Statistics: 0 seeks, 7 writeouts
[AVIOContext @ 000000000074c200] Statistics: 0 seeks, 7 writeouts
[Parsed_fps_0 @ 000000000032ad00] Dropping 1 frame(s).
[AVIOContext @ 000000000074c200] Statistics: 0 seeks, 7 writeouts
[Parsed_fps_0 @ 000000000032ad00] Duplicating frame.
[Parsed_fps_0 @ 000000000032ad00] Duplicating frame.
[AVIOContext @ 000000000074c200] Statistics: 0 seeks, 7 writeouts
[AVIOContext @ 000000000074c200] Statistics: 0 seeks, 7 writeouts
[AVIOContext @ 000000000074c200] Statistics: 0 seeks, 7 writeouts
frame=  184 fps= 73 q=0.0 size=N/A time=00:00:07.24 bitrate=N/A    
[AVIOContext @ 000000000074c200] Statistics: 0 seeks, 7 writeouts
[Parsed_fps_0 @ 000000000032ad00] Dropping 1 frame(s).
[AVIOContext @ 000000000074c200] Statistics: 0 seeks, 7 writeouts
[Parsed_fps_0 @ 000000000032ad00] Duplicating frame.
[Parsed_fps_0 @ 000000000032ad00] Duplicating frame.
[AVIOContext @ 000000000074c200] Statistics: 0 seeks, 7 writeouts
[AVIOContext @ 000000000074c200] Statistics: 0 seeks, 7 writeouts
[AVIOContext @ 000000000074c200] Statistics: 0 seeks, 7 writeouts
[AVIOContext @ 000000000074c200] Statistics: 0 seeks, 7 writeouts
[AVIOContext @ 000000000074c200] Statistics: 0 seeks, 7 writeouts
[Parsed_fps_0 @ 000000000032ad00] Duplicating frame.
[AVIOContext @ 000000000074c200] Statistics: 0 seeks, 7 writeouts
[AVIOContext @ 000000000074c200] Statistics: 0 seeks, 7 writeouts
[AVIOContext @ 000000000074c200] Statistics: 0 seeks, 7 writeouts
[AVIOContext @ 000000000074c200] Statistics: 0 seeks, 7 writeouts
[AVIOContext @ 000000000074c200] Statistics: 0 seeks, 7 writeouts
[Parsed_fps_0 @ 000000000032ad00] Duplicating frame.
[AVIOContext @ 000000000074c200] Statistics: 0 seeks, 7 writeouts
[AVIOContext @ 000000000074c200] Statistics: 0 seeks, 7 writeouts
[AVIOContext @ 000000000074c200] Statistics: 0 seeks, 7 writeouts
[AVIOContext @ 000000000074c200] Statistics: 0 seeks, 7 writeouts
[AVIOContext @ 000000000074c200] Statistics: 0 seeks, 7 writeouts
[Parsed_fps_0 @ 000000000032ad00] Duplicating frame.
[AVIOContext @ 000000000074c200] Statistics: 0 seeks, 7 writeouts
[AVIOContext @ 000000000074c200] Statistics: 0 seeks, 7 writeouts
[Parsed_fps_0 @ 000000000032ad00] Duplicating frame.
[AVIOContext @ 000000000074c200] Statistics: 0 seeks, 7 writeouts
[AVIOContext @ 000000000074c200] Statistics: 0 seeks, 6 writeouts
[AVIOContext @ 000000000074c200] Statistics: 0 seeks, 6 writeouts
[Parsed_fps_0 @ 000000000032ad00] Duplicating frame.
[h264 @ 0000000002298ec0] Cannot use next picture in error concealment
[h264 @ 0000000002298ec0] concealing 3047 DC, 3047 AC, 3047 MV errors in P frame
[AVIOContext @ 000000000074c200] Statistics: 0 seeks, 6 writeouts
[AVIOContext @ 000000000074c200] Statistics: 0 seeks, 6 writeouts
[AVIOContext @ 000000000074c200] Statistics: 0 seeks, 6 writeouts
[AVIOContext @ 000000000074c200] Statistics: 0 seeks, 7 writeouts
[Parsed_fps_0 @ 000000000032ad00] Duplicating frame.
[AVIOContext @ 000000000074c200] Statistics: 0 seeks, 7 writeouts
[AVIOContext @ 000000000074c200] Statistics: 0 seeks, 7 writeouts
[AVIOContext @ 000000000074c200] Statistics: 0 seeks, 7 writeouts
[Parsed_fps_0 @ 000000000032ad00] Duplicating frame.
[AVIOContext @ 000000000074c200] Statistics: 0 seeks, 7 writeouts
[AVIOContext @ 000000000074c200] Statistics: 0 seeks, 7 writeouts
[Parsed_fps_0 @ 000000000032ad00] Dropping 1 frame(s).
[Parsed_fps_0 @ 000000000032ad00] Duplicating frame.
[AVIOContext @ 000000000074c200] Statistics: 0 seeks, 7 writeouts
[AVIOContext @ 000000000074c200] Statistics: 0 seeks, 6 writeouts
[AVIOContext @ 000000000074c200] Statistics: 0 seeks, 6 writeouts
[Parsed_fps_0 @ 000000000032ad00] Duplicating frame.
[AVIOContext @ 000000000074c200] Statistics: 0 seeks, 6 writeouts
[AVIOContext @ 000000000074c200] Statistics: 0 seeks, 6 writeouts
[Parsed_fps_0 @ 000000000032ad00] Dropping 1 frame(s).
[Parsed_fps_0 @ 000000000032ad00] Duplicating frame.
[AVIOContext @ 000000000074c200] Statistics: 0 seeks, 7 writeouts
[AVIOContext @ 000000000074c200] Statistics: 0 seeks, 7 writeouts
[Parsed_fps_0 @ 000000000032ad00] Duplicating frame.
[Parsed_fps_0 @ 000000000032ad00] Duplicating frame.
[AVIOContext @ 000000000074c200] Statistics: 0 seeks, 7 writeouts
[AVIOContext @ 000000000074c200] Statistics: 0 seeks, 7 writeouts
[AVIOContext @ 000000000074c200] Statistics: 0 seeks, 7 writeouts
[Parsed_fps_0 @ 000000000032ad00] Dropping 1 frame(s).
frame=  225 fps= 74 q=0.0 size=N/A time=00:00:08.88 bitrate=N/A    
[Parsed_fps_0 @ 000000000032ad00] Duplicating frame.
[AVIOContext @ 000000000074c200] Statistics: 0 seeks, 7 writeouts
[AVIOContext @ 000000000074c200] Statistics: 0 seeks, 7 writeouts
[AVIOContext @ 000000000074c200] Statistics: 0 seeks, 7 writeouts
[Parsed_fps_0 @ 000000000032ad00] Duplicating frame.
[AVIOContext @ 000000000074c200] Statistics: 0 seeks, 7 writeouts
[AVIOContext @ 000000000074c200] Statistics: 0 seeks, 7 writeouts
[Parsed_fps_0 @ 000000000032ad00] Dropping 1 frame(s).
[Parsed_fps_0 @ 000000000032ad00] Duplicating frame.
[AVIOContext @ 000000000074c200] Statistics: 0 seeks, 7 writeouts
[AVIOContext @ 000000000074c200] Statistics: 0 seeks, 7 writeouts
[AVIOContext @ 000000000074c200] Statistics: 0 seeks, 7 writeouts
[Parsed_fps_0 @ 000000000032ad00] Duplicating frame.
[AVIOContext @ 000000000074c200] Statistics: 0 seeks, 7 writeouts
[AVIOContext @ 000000000074c200] Statistics: 0 seeks, 7 writeouts
[Parsed_fps_0 @ 000000000032ad00] Dropping 1 frame(s).
[Parsed_fps_0 @ 000000000032ad00] Duplicating frame.
[AVIOContext @ 000000000074c200] Statistics: 0 seeks, 7 writeouts
[AVIOContext @ 000000000074c200] Statistics: 0 seeks, 7 writeouts
[Parsed_fps_0 @ 000000000032ad00] Duplicating frame.
[AVIOContext @ 000000000074c200] Statistics: 0 seeks, 7 writeouts
[AVIOContext @ 000000000074c200] Statistics: 0 seeks, 7 writeouts
[AVIOContext @ 000000000074c200] Statistics: 0 seeks, 7 writeouts
[Parsed_fps_0 @ 000000000032ad00] Duplicating frame.
[AVIOContext @ 000000000074c200] Statistics: 0 seeks, 7 writeouts
[AVIOContext @ 000000000074c200] Statistics: 0 seeks, 7 writeouts
[AVIOContext @ 000000000074c200] Statistics: 0 seeks, 7 writeouts
[Parsed_fps_0 @ 000000000032ad00] Duplicating frame.
[AVIOContext @ 000000000074c200] Statistics: 0 seeks, 7 writeouts
[AVIOContext @ 000000000074c200] Statistics: 0 seeks, 7 writeouts
[Parsed_fps_0 @ 000000000032ad00] Dropping 1 frame(s).
[Parsed_fps_0 @ 000000000032ad00] Duplicating frame.
[AVIOContext @ 000000000074c200] Statistics: 0 seeks, 7 writeouts
[AVIOContext @ 000000000074c200] Statistics: 0 seeks, 7 writeouts
[AVIOContext @ 000000000074c200] Statistics: 0 seeks, 7 writeouts
[AVIOContext @ 000000000074c200] Statistics: 0 seeks, 7 writeouts
[output stream 0:0 @ 0000000002317120] EOF on sink link output stream 0:0:default.
No more output streams to write to, finishing.
[AVIOContext @ 000000000074c200] Statistics: 0 seeks, 7 writeouts
[AVIOContext @ 000000000074c200] Statistics: 0 seeks, 7 writeouts
[AVIOContext @ 000000000074c200] Statistics: 0 seeks, 7 writeouts
frame=  249 fps= 74 q=0.0 Lsize=N/A time=00:00:09.96 bitrate=N/A    
video:48755kB audio:0kB subtitle:0kB other streams:0kB global headers:0kB muxing overhead: unknown
Input file #0 (white-car.mkv):
  Input stream #0:0 (video): 183 packets read (5863588 bytes); 183 frames decoded; 
  Total: 183 packets (5863588 bytes) demuxed
Output file #0 (f-%05d.jpg):
  Output stream #0:0 (video): 249 frames encoded; 249 packets muxed (49924678 bytes); 
  Total: 249 packets (49924678 bytes) muxed
187 frames successfully decoded, 0 decoding errors
[Parsed_fps_0 @ 000000000032ad00] 183 frames in, 249 frames out; 21 frames dropped, 87 frames duplicated.
[AVIOContext @ 0000000000690440] Statistics: 5865731 bytes read, 0 seeks

Change History (1)

comment:1 Changed 5 years ago by cehoyos

  • Resolution set to duplicate
  • Status changed from new to closed

ticket #4122, the artefacts should be avoidable.

Note: See TracTickets for help on using tickets.