Changes between Version 1 and Version 2 of Ticket #4088, comment 3


Ignore:
Timestamp:
Nov 6, 2014, 2:03:11 PM (5 years ago)
Author:
mlinnosk
Comment:

Legend:

Unmodified
Added
Removed
Modified
  • Ticket #4088, comment 3

    v1 v2  
    33But here it is, with out variables:
    44{{{
    5  unzip -p input.zip 1920x1200/raw/f_*.png | ~/bin/ffmpeg-2.4.3-64bit-static/ffmpeg -f image2pipe -c:v png -r 25 -i - -s 1024x640 -aspect 16:10 -sws_flags lanczos -vcodec libtheora -pix_fmt yuv420p -an -qscale:v 7 -r 25 -y output.ogv
     5unzip -p input.zip 1920x1200/raw/f_*.png | ~/bin/ffmpeg-2.4.3-64bit-static/ffmpeg -f image2pipe -c:v png -r 25 -i - -s 1024x640 -aspect 16:10 -sws_flags lanczos -vcodec libtheora -pix_fmt yuv420p -an -qscale:v 7 -r 25 -y output.ogv
    66ffmpeg version 2.4.3-   http://johnvansickle.com/ffmpeg/    Copyright (c) 2000-2014 the FFmpeg developers
    77  built on Nov  4 2014 13:14:24 with gcc 4.8 (Debian 4.8.3-13)
     
    2121  Metadata:
    2222    encoder         : Lavf56.4.101
    23     Stream #0:0: Video: theora (libtheora), yuv420p, 1024x600 [SAR 15:16 DAR 8:5], q=2-31, 200 kb/s, 25 fps, 25 tbn, 25 tbc
     23    Stream #0:0: Video: theora (libtheora), yuv420p, 1024x640 [SAR 1:1 DAR 8:5], q=2-31, 200 kb/s, 25 fps, 25 tbn, 25 tbc
    2424    Metadata:
    2525      encoder         : Lavc56.1.100 libtheora
    2626Stream mapping:
    2727  Stream #0:0 -> #0:0 (png (native) -> theora (libtheora))
    28 frame=  392 fps= 19 q=0.0 Lsize=    3204kB time=00:00:15.68 bitrate=1674.0kbits/s   
    29 video:3186kB audio:0kB subtitle:0kB other streams:0kB global headers:3kB muxing overhead: 0.583111%
     28frame=  392 fps= 18 q=0.0 Lsize=    3299kB time=00:00:15.68 bitrate=1723.4kbits/s   
     29video:3280kB audio:0kB subtitle:0kB other streams:0kB global headers:3kB muxing overhead: 0.576610%
    3030}}}
    3131