Opened 5 years ago

Closed 5 years ago

#3891 closed defect (fixed)

mjpeg: green vertical line

Reported by: ami_stuff Owned by:
Priority: important Component: undetermined
Version: git-master Keywords: regression
Cc: Blocked By:
Blocking: Reproduced by developer: yes
Analyzed by developer: no

Description

green vertical line is visible at the right side of the picture

git-b9c5448 16-Feb-2013 - ok

git-b8bb661 17-Feb-2013 - bad

C:\>ffmpeg -i line.jpg out.bmp
ffmpeg version N-65860-g1aa153d Copyright (c) 2000-2014 the FFmpeg developers
  built on Aug 24 2014 00:08:13 with gcc 4.8.3 (GCC)
  configuration: --enable-gpl --enable-version3 --disable-w32threads --enable-av
isynth --enable-bzlib --enable-fontconfig --enable-frei0r --enable-gnutls --enab
le-iconv --enable-libass --enable-libbluray --enable-libbs2b --enable-libcaca --
enable-libfreetype --enable-libgme --enable-libgsm --enable-libilbc --enable-lib
modplug --enable-libmp3lame --enable-libopencore-amrnb --enable-libopencore-amrw
b --enable-libopenjpeg --enable-libopus --enable-librtmp --enable-libschroedinge
r --enable-libsoxr --enable-libspeex --enable-libtheora --enable-libtwolame --en
able-libvidstab --enable-libvo-aacenc --enable-libvo-amrwbenc --enable-libvorbis
 --enable-libvpx --enable-libwavpack --enable-libwebp --enable-libx264 --enable-
libx265 --enable-libxavs --enable-libxvid --enable-decklink --enable-zlib
  libavutil      54.  7.100 / 54.  7.100
  libavcodec     56.  0.101 / 56.  0.101
  libavformat    56.  2.100 / 56.  2.100
  libavdevice    56.  0.100 / 56.  0.100
  libavfilter     5.  0.103 /  5.  0.103
  libswscale      3.  0.100 /  3.  0.100
  libswresample   1.  1.100 /  1.  1.100
  libpostproc    53.  0.100 / 53.  0.100
Input #0, image2, from 'line.jpg':
  Duration: 00:00:00.04, start: 0.000000, bitrate: N/A
    Stream #0:0: Video: mjpeg, yuvj440p(pc, bt470bg), 1024x768 [SAR 96:96 DAR 4:
3], 25 tbr, 25 tbn, 25 tbc
[swscaler @ 02f09020] deprecated pixel format used, make sure you did set range
correctly
Output #0, image2, to 'out.bmp':
  Metadata:
    encoder         : Lavf56.2.100
    Stream #0:0: Video: bmp, bgr24, 1024x768 [SAR 1:1 DAR 4:3], q=2-31, 200 kb/s
, 25 fps, 25 tbn, 25 tbc
    Metadata:
      encoder         : Lavc56.0.101 bmp
Stream mapping:
  Stream #0:0 -> #0:0 (mjpeg (native) -> bmp (native))
Press [q] to stop, [?] for help
frame=    1 fps=0.0 q=0.0 Lsize=N/A time=00:00:00.04 bitrate=N/A
video:2304kB audio:0kB subtitle:0kB other streams:0kB global headers:0kB muxing
overhead: unknown

Attachments (1)

line.jpg (90.8 KB) - added by ami_stuff 5 years ago.

Download all attachments as: .zip

Change History (3)

Changed 5 years ago by ami_stuff

comment:1 Changed 5 years ago by cehoyos

  • Keywords regression added
  • Priority changed from normal to important
  • Reproduced by developer set
  • Status changed from new to open
  • Version changed from unspecified to git-master

Looks like a regression since bb29ee62

comment:2 Changed 5 years ago by michael

  • Resolution set to fixed
  • Status changed from open to closed
Note: See TracTickets for help on using tickets.