Changes between Initial Version and Version 1 of Ticket #3886, comment 2


Ignore:
Timestamp:
Apr 12, 2016, 2:07:21 AM (4 years ago)
Author:
ami_stuff
Comment:

Legend:

Unmodified
Added
Removed
Modified
  • Ticket #3886, comment 2

    initial v1  
    11attached some more samples
     2
     3{{{
     4C:\>ffmpeg -i imc_44khz.avi -f null -
     5ffmpeg version N-78758-g5156578 Copyright (c) 2000-2016 the FFmpeg developers
     6  built with gcc 5.3.0 (GCC)
     7  configuration: --enable-gpl --enable-version3 --disable-w32threads --enable-av
     8isynth --enable-bzlib --enable-fontconfig --enable-frei0r --enable-gnutls --enab
     9le-iconv --enable-libass --enable-libbluray --enable-libbs2b --enable-libcaca --
     10enable-libdcadec --enable-libfreetype --enable-libgme --enable-libgsm --enable-l
     11ibilbc --enable-libmodplug --enable-libmp3lame --enable-libopencore-amrnb --enab
     12le-libopencore-amrwb --enable-libopenjpeg --enable-libopus --enable-librtmp --en
     13able-libschroedinger --enable-libsoxr --enable-libspeex --enable-libtheora --ena
     14ble-libtwolame --enable-libvidstab --enable-libvo-amrwbenc --enable-libvorbis --
     15enable-libvpx --enable-libwavpack --enable-libwebp --enable-libx264 --enable-lib
     16x265 --enable-libxavs --enable-libxvid --enable-libzimg --enable-lzma --enable-d
     17ecklink --enable-zlib
     18  libavutil      55. 19.100 / 55. 19.100
     19  libavcodec     57. 27.100 / 57. 27.100
     20  libavformat    57. 26.100 / 57. 26.100
     21  libavdevice    57.  0.101 / 57.  0.101
     22  libavfilter     6. 37.100 /  6. 37.100
     23  libswscale      4.  0.100 /  4.  0.100
     24  libswresample   2.  0.101 /  2.  0.101
     25  libpostproc    54.  0.100 / 54.  0.100
     26Input #0, avi, from 'imc_44khz.avi':
     27  Metadata:
     28    encoder         : Lavf57.26.100
     29  Duration: 00:00:14.20, start: 0.000000, bitrate: 342 kb/s
     30    Stream #0:0: Video: cinepak (cvid / 0x64697663), rgb24, 160x120, 251 kb/s, 5
     31 fps, 5 tbr, 5 tbn, 5 tbc
     32    Stream #0:1: Audio: imc ([1][4][0][0] / 0x0401), 44100 Hz, mono, fltp, 88 kb
     33/s
     34Output #0, null, to 'pipe:':
     35  Metadata:
     36    encoder         : Lavf57.26.100
     37    Stream #0:0: Video: wrapped_avframe, rgb24, 160x120, q=2-31, 200 kb/s, 5 fps
     38, 5 tbn, 5 tbc
     39    Metadata:
     40      encoder         : Lavc57.27.100 wrapped_avframe
     41    Stream #0:1: Audio: pcm_s16le, 44100 Hz, mono, s16, 705 kb/s
     42    Metadata:
     43      encoder         : Lavc57.27.100 pcm_s16le
     44Stream mapping:
     45  Stream #0:0 -> #0:0 (cinepak (native) -> wrapped_avframe (native))
     46  Stream #0:1 -> #0:1 (imc (native) -> pcm_s16le (native))
     47Press [q] to stop, [?] for help
     48[imc @ 038f2920] Potential problem on band 26, coefficient 192: cw_len=1
     49[imc @ 038f2920] Potential problem on band 26, coefficient 194: cw_len=1
     50frame=   71 fps=0.0 q=-0.0 Lsize=N/A time=00:00:14.20 bitrate=N/A speed= 454x
     51
     52video:27kB audio:1202kB subtitle:0kB other streams:0kB global headers:0kB muxing
     53 overhead: unknown
     54}}}