Opened 5 years ago

Closed 5 years ago

#3804 closed defect (fixed)

FFmpeg process hangs when new subtitle streams are found during encoding

Reported by: mrskman Owned by:
Priority: important Component: avformat
Version: git-master Keywords: deadlock
Cc: Blocked By:
Blocking: Reproduced by developer: yes
Analyzed by developer: no

Description

FFmpeg process hangs when new subtitle streams are found with 100% CPU usage no mather which output codecs I choose. I also tried -c "copy" and -sn options. Tested on 2.3.0 and 2.2.4.

Sample:
http://www.datafilehost.com/d/e48ce035

Sample is first 20MB of the original file (~155MB).

ffmpeg started on 2014-07-25 at 12:34:43
Report written to "ffmpeg-20140725-123443.log"
Command line:
./ffmpeg-2.3.0/build/bin/ffmpeg -v 9 -loglevel 99 -report -i ./encoding_hangs_when_new_subtitle_streams_are_found.vob -c:a libfdk_aac -c:v libx264 -r:v 25 -crf 27 -preset ultrafast -profile:v baseline -movflags faststart -pix_fmt yuv420p -b:a 128k -t 30 -y -map_metadata -1 -f mp4 /dev/null
ffmpeg version 2.3 Copyright (c) 2000-2014 the FFmpeg developers
  built on Jul 18 2014 10:09:18 with gcc 4.6 (Ubuntu/Linaro 4.6.3-1ubuntu5)
  configuration: --prefix=/opt/ffmpeg-2.3.0/build --extra-ldflags='-Wl,-rpath,/opt/ffmpeg-2.3.0/build/lib -L/opt/ffmpeg-2.3.0/build/lib' --bindir=/opt/ffmpeg-2.3.0/build/bin --enable-shared --disable-static --enable-gpl --enable-libfdk-aac --enable-libgsm --enable-libbluray --enable-libmp3lame --enable-libopencore-amrnb --enable-libopencore-amrwb --enable-libopenjpeg --enable-libopus --enable-libspeex --enable-libtheora --enable-libvorbis --enable-libvpx --enable-libx264 --enable-nonfree --enable-version3
  libavutil      52. 92.100 / 52. 92.100
  libavcodec     55. 69.100 / 55. 69.100
  libavformat    55. 48.100 / 55. 48.100
  libavdevice    55. 13.102 / 55. 13.102
  libavfilter     4. 11.100 /  4. 11.100
  libswscale      2.  6.100 /  2.  6.100
  libswresample   0. 19.100 /  0. 19.100
  libpostproc    52.  3.100 / 52.  3.100
Splitting the commandline.
Reading option '-v' ... matched as option 'v' (set logging level) with argument '9'.
Reading option '-loglevel' ... matched as option 'loglevel' (set logging level) with argument '99'.
Reading option '-report' ... matched as option 'report' (generate a report) with argument '1'.
Reading option '-i' ... matched as input file with argument './encoding_hangs_when_new_subtitle_streams_are_found.vob'.
Reading option '-c:a' ... matched as option 'c' (codec name) with argument 'libfdk_aac'.
Reading option '-c:v' ... matched as option 'c' (codec name) with argument 'libx264'.
Reading option '-r:v' ... matched as option 'r' (set frame rate (Hz value, fraction or abbreviation)) with argument '25'.
Reading option '-crf' ... matched as AVOption 'crf' with argument '27'.
Reading option '-preset' ... matched as AVOption 'preset' with argument 'ultrafast'.
Reading option '-profile:v' ... matched as option 'profile' (set profile) with argument 'baseline'.
Reading option '-movflags' ... matched as AVOption 'movflags' with argument 'faststart'.
Reading option '-pix_fmt' ... matched as option 'pix_fmt' (set pixel format) with argument 'yuv420p'.
Reading option '-b:a' ... matched as option 'b' (video bitrate (please use -b:v)) with argument '128k'.
Reading option '-t' ... matched as option 't' (record or transcode "duration" seconds of audio/video) with argument '30'.
Reading option '-y' ... matched as option 'y' (overwrite output files) with argument '1'.
Reading option '-map_metadata' ... matched as option 'map_metadata' (set metadata information of outfile from infile) with argument '-1'.
Reading option '-f' ... matched as option 'f' (force format) with argument 'mp4'.
Reading option '/dev/null' ... matched as output file.
Finished splitting the commandline.
Parsing a group of options: global .
Applying option v (set logging level) with argument 9.
Applying option loglevel (set logging level) with argument 99.
Applying option report (generate a report) with argument 1.
Applying option y (overwrite output files) with argument 1.
Successfully parsed a group of options.
Parsing a group of options: input file ./encoding_hangs_when_new_subtitle_streams_are_found.vob.
Successfully parsed a group of options.
Opening an input file: ./encoding_hangs_when_new_subtitle_streams_are_found.vob.
[mpeg @ 0x9767a0] Format mpeg probed with size=8192 and score=52
[mpeg @ 0x9767a0] Before avformat_find_stream_info() pos: 0 bytes read:32768 seeks:0
[mpeg @ 0x9767a0] probing stream 1 pp:2500
[mpeg @ 0x9767a0] Probe with size=2012, packets=1 detected mpegvideo with score=25
[mpeg @ 0x9767a0] probed stream 1
[mpeg @ 0x9767a0] max_analyze_duration 5000000 reached at 5000000 microseconds
[mpeg @ 0x9767a0] After avformat_find_stream_info() pos: 0 bytes read:4280464 seeks:2 frames:295
Input #0, mpeg, from './encoding_hangs_when_new_subtitle_streams_are_found.vob':
  Duration: 00:00:01.98, start: 0.287267, bitrate: 660938 kb/s
    Stream #0:0[0x1bf], 11, 1/90000: Data: dvd_nav_packet, 1/90000
    Stream #0:1[0x1e0], 127, 1/90000: Video: mpeg2video (Main), yuv420p(tv, smpte170m), 720x576 [SAR 64:45 DAR 16:9], 1/50, max. 8000 kb/s, 25 fps, 25 tbr, 90k tbn, 50 tbc
    Stream #0:2[0x80], 157, 1/90000: Audio: ac3, 48000 Hz, stereo, fltp, 192 kb/s
Successfully opened the file.
Parsing a group of options: output file /dev/null.
Applying option c:a (codec name) with argument libfdk_aac.
Applying option c:v (codec name) with argument libx264.
Applying option r:v (set frame rate (Hz value, fraction or abbreviation)) with argument 25.
Applying option profile:v (set profile) with argument baseline.
Applying option pix_fmt (set pixel format) with argument yuv420p.
Applying option b:a (video bitrate (please use -b:v)) with argument 128k.
Applying option t (record or transcode "duration" seconds of audio/video) with argument 30.
Applying option map_metadata (set metadata information of outfile from infile) with argument -1.
Applying option f (force format) with argument mp4.
Successfully parsed a group of options.
Opening an output file: /dev/null.
Successfully opened the file.
detected 24 logical cores
[graph 0 input from stream 0:1 @ 0x97de80] Setting 'video_size' to value '720x576'
[graph 0 input from stream 0:1 @ 0x97de80] Setting 'pix_fmt' to value '0'
[graph 0 input from stream 0:1 @ 0x97de80] Setting 'time_base' to value '1/90000'
[graph 0 input from stream 0:1 @ 0x97de80] Setting 'pixel_aspect' to value '64/45'
[graph 0 input from stream 0:1 @ 0x97de80] Setting 'sws_param' to value 'flags=2'
[graph 0 input from stream 0:1 @ 0x97de80] Setting 'frame_rate' to value '25/1'
[graph 0 input from stream 0:1 @ 0x97de80] w:720 h:576 pixfmt:yuv420p tb:1/90000 fr:25/1 sar:64/45 sws_param:flags=2
[format @ 0x97e540] compat: called with args=[yuv420p]
[format @ 0x97e540] Setting 'pix_fmts' to value 'yuv420p'
[AVFilterGraph @ 0x96d960] query_formats: 5 queried, 4 merged, 0 already done, 0 delayed
[graph 1 input from stream 0:2 @ 0x95e640] Setting 'time_base' to value '1/48000'
[graph 1 input from stream 0:2 @ 0x95e640] Setting 'sample_rate' to value '48000'
[graph 1 input from stream 0:2 @ 0x95e640] Setting 'sample_fmt' to value 'fltp'
[graph 1 input from stream 0:2 @ 0x95e640] Setting 'channel_layout' to value '0x3'
[graph 1 input from stream 0:2 @ 0x95e640] tb:1/48000 samplefmt:fltp samplerate:48000 chlayout:0x3
[audio format for output stream 0:1 @ 0x95e9e0] Setting 'sample_fmts' to value 's16'
[audio format for output stream 0:1 @ 0x95e9e0] Setting 'sample_rates' to value '96000|88200|64000|48000|44100|32000|24000|22050|16000|12000|11025|8000'
[audio format for output stream 0:1 @ 0x95e9e0] Setting 'channel_layouts' to value '0x4|0x3|0x7|0x107|0x37|0x3f|0xff|0x63f'
[audio format for output stream 0:1 @ 0x95e9e0] auto-inserting filter 'auto-inserted resampler 0' between the filter 'Parsed_anull_0' and the filter 'audio format for output stream 0:1'
[AVFilterGraph @ 0x95fa80] query_formats: 5 queried, 9 merged, 3 already done, 0 delayed
[auto-inserted resampler 0 @ 0x963ea0] ch:2 chl:stereo fmt:fltp r:48000Hz -> ch:2 chl:stereo fmt:s16 r:48000Hz
[libx264 @ 0x9786c0] using mv_range_thread = 24
[libx264 @ 0x9786c0] using SAR=64/45
[libx264 @ 0x9786c0] using cpu capabilities: MMX2 SSE2Fast SSSE3 SSE4.2 AVX
[libx264 @ 0x9786c0] profile Constrained Baseline, level 3.0
[libx264 @ 0x9786c0] 264 - core 142 - H.264/MPEG-4 AVC codec - Copyleft 2003-2014 - http://www.videolan.org/x264.html - options: cabac=0 ref=1 deblock=0:0:0 analyse=0:0 me=dia subme=0 psy=1 psy_rd=1.00:0.00 mixed_ref=0 me_range=16 chroma_me=1 trellis=0 8x8dct=0 cqm=0 deadzone=21,11 fast_pskip=1 chroma_qp_offset=0 threads=36 lookahead_threads=4 sliced_threads=0 nr=0 decimate=1 interlaced=0 bluray_compat=0 constrained_intra=0 bframes=0 weightp=0 keyint=250 keyint_min=25 scenecut=0 intra_refresh=0 rc=crf mbtree=0 crf=27.0 qcomp=0.60 qpmin=0 qpmax=69 qpstep=4 ip_ratio=1.40 aq=0
Output #0, mp4, to '/dev/null':
  Metadata:
    encoder         : Lavf55.48.100
    Stream #0:0, 0, 1/12800: Video: h264 (libx264) ([33][0][0][0] / 0x0021), yuv420p, 720x576 [SAR 64:45 DAR 16:9], 1/25, q=-1--1, 25 fps, 12800 tbn, 25 tbc
    Metadata:
      encoder         : Lavc55.69.100 libx264
    Stream #0:1, 0, 1/48000: Audio: aac (libfdk_aac) ([64][0][0][0] / 0x0040), 48000 Hz, stereo, s16, 128 kb/s
    Metadata:
      encoder         : Lavc55.69.100 libfdk_aac
Stream mapping:
  Stream #0:1 -> #0:0 (mpeg2video (native) -> h264 (libx264))
  Stream #0:2 -> #0:1 (ac3 (native) -> aac (libfdk_aac))
Press [q] to stop, [?] for help
[libx264 @ 0x9786c0] frame=   0 QP=24.00 NAL=3 Slice:I Poc:0   I:1620 P:0    SKIP:0    size=1239 bytes
[libx264 @ 0x9786c0] frame=   1 QP=17.00 NAL=2 Slice:P Poc:2   I:0    P:0    SKIP:1620 size=11 bytes
[libx264 @ 0x9786c0] frame=   2 QP=17.00 NAL=2 Slice:P Poc:4   I:0    P:0    SKIP:1620 size=11 bytes
[libx264 @ 0x9786c0] frame=   3 QP=17.00 NAL=2 Slice:P Poc:6   I:0    P:0    SKIP:1620 size=11 bytes
[libx264 @ 0x9786c0] frame=   4 QP=16.00 NAL=2 Slice:P Poc:8   I:0    P:0    SKIP:1620 size=11 bytes
[libx264 @ 0x9786c0] frame=   5 QP=16.00 NAL=2 Slice:P Poc:10  I:0    P:0    SKIP:1620 size=11 bytes
[libx264 @ 0x9786c0] frame=   6 QP=16.00 NAL=2 Slice:P Poc:12  I:0    P:0    SKIP:1620 size=11 bytes
[libx264 @ 0x9786c0] frame=   7 QP=16.00 NAL=2 Slice:P Poc:14  I:0    P:0    SKIP:1620 size=11 bytes
[libx264 @ 0x9786c0] frame=   8 QP=16.00 NAL=2 Slice:P Poc:16  I:0    P:0    SKIP:1620 size=11 bytes
[libx264 @ 0x9786c0] frame=   9 QP=16.00 NAL=2 Slice:P Poc:18  I:0    P:0    SKIP:1620 size=11 bytes
[libx264 @ 0x9786c0] frame=  10 QP=16.00 NAL=2 Slice:P Poc:20  I:0    P:0    SKIP:1620 size=11 bytes
[libx264 @ 0x9786c0] frame=  11 QP=16.00 NAL=2 Slice:P Poc:22  I:0    P:0    SKIP:1620 size=11 bytes
[libx264 @ 0x9786c0] frame=  12 QP=16.00 NAL=2 Slice:P Poc:24  I:0    P:0    SKIP:1620 size=11 bytes
[libx264 @ 0x9786c0] frame=  13 QP=16.00 NAL=2 Slice:P Poc:26  I:0    P:0    SKIP:1620 size=11 bytes
[libx264 @ 0x9786c0] frame=  14 QP=16.00 NAL=2 Slice:P Poc:28  I:0    P:0    SKIP:1620 size=11 bytes
[libx264 @ 0x9786c0] frame=  15 QP=16.00 NAL=2 Slice:P Poc:30  I:0    P:0    SKIP:1620 size=11 bytes
[libx264 @ 0x9786c0] frame=  16 QP=16.00 NAL=2 Slice:P Poc:32  I:0    P:0    SKIP:1620 size=11 bytes
[libx264 @ 0x9786c0] frame=  17 QP=16.00 NAL=2 Slice:P Poc:34  I:0    P:0    SKIP:1620 size=11 bytes
[libx264 @ 0x9786c0] frame=  18 QP=16.00 NAL=2 Slice:P Poc:36  I:0    P:0    SKIP:1620 size=11 bytes
[libx264 @ 0x9786c0] frame=  19 QP=16.00 NAL=2 Slice:P Poc:38  I:0    P:0    SKIP:1620 size=11 bytes
[libx264 @ 0x9786c0] frame=  20 QP=16.00 NAL=2 Slice:P Poc:40  I:0    P:0    SKIP:1620 size=11 bytes
[libx264 @ 0x9786c0] frame=  21 QP=16.00 NAL=2 Slice:P Poc:42  I:0    P:0    SKIP:1620 size=11 bytes
[libx264 @ 0x9786c0] frame=  22 QP=16.00 NAL=2 Slice:P Poc:44  I:0    P:0    SKIP:1620 size=11 bytes
[libx264 @ 0x9786c0] frame=  23 QP=16.00 NAL=2 Slice:P Poc:46  I:0    P:0    SKIP:1620 size=11 bytes
[libx264 @ 0x9786c0] frame=  24 QP=16.00 NAL=2 Slice:P Poc:48  I:0    P:0    SKIP:1620 size=11 bytes
[libx264 @ 0x9786c0] frame=  25 QP=16.00 NAL=2 Slice:P Poc:50  I:0    P:0    SKIP:1620 size=11 bytes
[libx264 @ 0x9786c0] frame=  26 QP=20.00 NAL=2 Slice:P Poc:52  I:31   P:6    SKIP:1583 size=1298 bytes
[libx264 @ 0x9786c0] frame=  27 QP=24.00 NAL=2 Slice:P Poc:54  I:114  P:37   SKIP:1469 size=3671 bytes
[libx264 @ 0x9786c0] frame=  28 QP=25.00 NAL=2 Slice:P Poc:56  I:238  P:74   SKIP:1308 size=5645 bytes
[libx264 @ 0x9786c0] frame=  29 QP=27.00 NAL=2 Slice:P Poc:58  I:380  P:134  SKIP:1106 size=8669 bytes
[libx264 @ 0x9786c0] frame=  30 QP=29.00 NAL=2 Slice:P Poc:60  I:434  P:216  SKIP:970  size=10499 bytes
[libx264 @ 0x9786c0] frame=  31 QP=29.00 NAL=2 Slice:P Poc:62  I:474  P:363  SKIP:783  size=11909 bytes
[libx264 @ 0x9786c0] frame=  32 QP=30.00 NAL=2 Slice:P Poc:64  I:411  P:488  SKIP:721  size=13720 bytes
[libx264 @ 0x9786c0] frame=  33 QP=30.00 NAL=2 Slice:P Poc:66  I:425  P:541  SKIP:654  size=13037 bytes
[libx264 @ 0x9786c0] frame=  34 QP=30.00 NAL=2 Slice:P Poc:68  I:419  P:633  SKIP:568  size=13043 bytes
[libx264 @ 0x9786c0] frame=  35 QP=30.00 NAL=2 Slice:P Poc:70  I:391  P:676  SKIP:553  size=12210 bytes
[libx264 @ 0x9786c0] frame=  36 QP=30.00 NAL=2 Slice:P Poc:72  I:361  P:744  SKIP:515  size=12847 bytes
[libx264 @ 0x9786c0] frame=  37 QP=30.00 NAL=2 Slice:P Poc:74  I:231  P:822  SKIP:567  size=11282 bytes
[libx264 @ 0x9786c0] frame=  38 QP=30.00 NAL=2 Slice:P Poc:76  I:264  P:841  SKIP:515  size=11304 bytes
[libx264 @ 0x9786c0] frame=  39 QP=30.00 NAL=2 Slice:P Poc:78  I:324  P:902  SKIP:394  size=12971 bytes
[libx264 @ 0x9786c0] frame=  40 QP=30.00 NAL=2 Slice:P Poc:80  I:265  P:974  SKIP:381  size=11934 bytes
[libx264 @ 0x9786c0] frame=  41 QP=30.00 NAL=2 Slice:P Poc:82  I:165  P:1012 SKIP:443  size=13104 bytes
[libx264 @ 0x9786c0] frame=  42 QP=31.00 NAL=2 Slice:P Poc:84  I:143  P:1030 SKIP:447  size=11112 bytes
[libx264 @ 0x9786c0] frame=  43 QP=31.00 NAL=2 Slice:P Poc:86  I:118  P:1105 SKIP:397  size=11849 bytes
[libx264 @ 0x9786c0] frame=  44 QP=31.00 NAL=2 Slice:P Poc:88  I:87   P:1217 SKIP:316  size=13176 bytes
[libx264 @ 0x9786c0] frame=  45 QP=31.00 NAL=2 Slice:P Poc:90  I:114  P:1211 SKIP:295  size=14153 bytes
[libx264 @ 0x9786c0] frame=  46 QP=31.00 NAL=2 Slice:P Poc:92  I:92   P:1225 SKIP:303  size=14077 bytes
[libx264 @ 0x9786c0] frame=  47 QP=31.00 NAL=2 Slice:P Poc:94  I:96   P:1288 SKIP:236  size=13598 bytes
[libx264 @ 0x9786c0] frame=  48 QP=31.00 NAL=2 Slice:P Poc:96  I:105  P:1267 SKIP:248  size=13949 bytes
[libx264 @ 0x9786c0] frame=  49 QP=31.00 NAL=2 Slice:P Poc:98  I:120  P:1266 SKIP:234  size=13702 bytes
[libx264 @ 0x9786c0] frame=  50 QP=31.00 NAL=2 Slice:P Poc:100 I:62   P:1280 SKIP:278  size=13956 bytes
[libx264 @ 0x9786c0] frame=  51 QP=31.00 NAL=2 Slice:P Poc:102 I:74   P:1366 SKIP:180  size=15042 bytes
[libx264 @ 0x9786c0] frame=  52 QP=31.00 NAL=2 Slice:P Poc:104 I:62   P:1390 SKIP:168  size=15110 bytes
[libx264 @ 0x9786c0] frame=  53 QP=31.00 NAL=2 Slice:P Poc:106 I:84   P:1397 SKIP:139  size=15810 bytes
[libx264 @ 0x9786c0] frame=  54 QP=31.00 NAL=2 Slice:P Poc:108 I:50   P:1435 SKIP:135  size=17452 bytes
[libx264 @ 0x9786c0] frame=  55 QP=31.00 NAL=2 Slice:P Poc:110 I:60   P:1427 SKIP:133  size=17559 bytes
[libx264 @ 0x9786c0] frame=  56 QP=32.00 NAL=2 Slice:P Poc:112 I:100  P:1356 SKIP:164  size=13943 bytes
[libx264 @ 0x9786c0] frame=  57 QP=32.00 NAL=2 Slice:P Poc:114 I:50   P:1426 SKIP:144  size=14258 bytes
[libx264 @ 0x9786c0] frame=  58 QP=32.00 NAL=2 Slice:P Poc:116 I:55   P:1412 SKIP:153  size=15539 bytes
[libx264 @ 0x9786c0] frame=  59 QP=32.00 NAL=2 Slice:P Poc:118 I:56   P:1448 SKIP:116  size=15506 bytes
[libx264 @ 0x9786c0] frame=  60 QP=32.00 NAL=2 Slice:P Poc:120 I:38   P:1453 SKIP:129  size=15689 bytes
[libx264 @ 0x9786c0] frame=  61 QP=32.00 NAL=2 Slice:P Poc:122 I:66   P:1451 SKIP:103  size=15719 bytes
[libx264 @ 0x9786c0] frame=  62 QP=32.00 NAL=2 Slice:P Poc:124 I:62   P:1452 SKIP:106  size=16120 bytes
[libx264 @ 0x9786c0] frame=  63 QP=32.00 NAL=2 Slice:P Poc:126 I:84   P:1418 SKIP:118  size=16469 bytes
[libx264 @ 0x9786c0] frame=  64 QP=32.00 NAL=2 Slice:P Poc:128 I:65   P:1429 SKIP:126  size=16224 bytes
[libx264 @ 0x9786c0] frame=  65 QP=32.00 NAL=2 Slice:P Poc:130 I:81   P:1430 SKIP:109  size=16526 bytes
[libx264 @ 0x9786c0] frame=  66 QP=32.00 NAL=2 Slice:P Poc:132 I:63   P:1439 SKIP:118  size=16964 bytes
[libx264 @ 0x9786c0] frame=  67 QP=32.00 NAL=2 Slice:P Poc:134 I:63   P:1400 SKIP:157  size=16529 bytes
[libx264 @ 0x9786c0] frame=  68 QP=32.00 NAL=2 Slice:P Poc:136 I:68   P:1413 SKIP:139  size=17289 bytes
[libx264 @ 0x9786c0] frame=  69 QP=32.00 NAL=2 Slice:P Poc:138 I:93   P:1386 SKIP:141  size=17768 bytes
[libx264 @ 0x9786c0] frame=  70 QP=32.00 NAL=2 Slice:P Poc:140 I:59   P:1386 SKIP:175  size=17695 bytes
[libx264 @ 0x9786c0] frame=  71 QP=32.00 NAL=2 Slice:P Poc:142 I:73   P:1368 SKIP:179  size=17453 bytes
frame=  109 fps=0.0 q=28.0 size=     661kB time=00:00:04.20 bitrate=1287.8kbits/s    
[libx264 @ 0x9786c0] frame=  72 QP=32.00 NAL=2 Slice:P Poc:144 I:75   P:1406 SKIP:139  size=18275 bytes
[libx264 @ 0x9786c0] frame=  73 QP=32.00 NAL=2 Slice:P Poc:146 I:70   P:1366 SKIP:184  size=17313 bytes
[libx264 @ 0x9786c0] frame=  74 QP=32.00 NAL=2 Slice:P Poc:148 I:75   P:1383 SKIP:162  size=17569 bytes
[libx264 @ 0x9786c0] frame=  75 QP=32.00 NAL=2 Slice:P Poc:150 I:98   P:1339 SKIP:183  size=17670 bytes
[libx264 @ 0x9786c0] frame=  76 QP=32.00 NAL=2 Slice:P Poc:152 I:83   P:1344 SKIP:193  size=17550 bytes
[libx264 @ 0x9786c0] frame=  77 QP=32.00 NAL=2 Slice:P Poc:154 I:95   P:1325 SKIP:200  size=17848 bytes
[libx264 @ 0x9786c0] frame=  78 QP=32.00 NAL=2 Slice:P Poc:156 I:87   P:1336 SKIP:197  size=18118 bytes
[libx264 @ 0x9786c0] frame=  79 QP=32.00 NAL=2 Slice:P Poc:158 I:65   P:1303 SKIP:252  size=17579 bytes
[libx264 @ 0x9786c0] frame=  80 QP=32.00 NAL=2 Slice:P Poc:160 I:73   P:1299 SKIP:248  size=18013 bytes
[libx264 @ 0x9786c0] frame=  81 QP=32.00 NAL=2 Slice:P Poc:162 I:103  P:1281 SKIP:236  size=18053 bytes
[libx264 @ 0x9786c0] frame=  82 QP=32.00 NAL=2 Slice:P Poc:164 I:74   P:1289 SKIP:257  size=18073 bytes
[libx264 @ 0x9786c0] frame=  83 QP=32.00 NAL=2 Slice:P Poc:166 I:87   P:1265 SKIP:268  size=18424 bytes
[libx264 @ 0x9786c0] frame=  84 QP=32.00 NAL=2 Slice:P Poc:168 I:90   P:1278 SKIP:252  size=18327 bytes
[libx264 @ 0x9786c0] frame=  85 QP=32.00 NAL=2 Slice:P Poc:170 I:55   P:1266 SKIP:299  size=17210 bytes
[libx264 @ 0x9786c0] frame=  86 QP=32.00 NAL=2 Slice:P Poc:172 I:61   P:1250 SKIP:309  size=17354 bytes
[libx264 @ 0x9786c0] frame=  87 QP=32.00 NAL=2 Slice:P Poc:174 I:71   P:1268 SKIP:281  size=17709 bytes
[libx264 @ 0x9786c0] frame=  88 QP=31.00 NAL=2 Slice:P Poc:176 I:118  P:1246 SKIP:256  size=22960 bytes
[libx264 @ 0x9786c0] frame=  89 QP=31.00 NAL=2 Slice:P Poc:178 I:98   P:1249 SKIP:273  size=21844 bytes
[libx264 @ 0x9786c0] frame=  90 QP=31.00 NAL=2 Slice:P Poc:180 I:116  P:1228 SKIP:276  size=21288 bytes
[libx264 @ 0x9786c0] frame=  91 QP=31.00 NAL=2 Slice:P Poc:182 I:75   P:1251 SKIP:294  size=20927 bytes
[libx264 @ 0x9786c0] frame=  92 QP=31.00 NAL=2 Slice:P Poc:184 I:78   P:1222 SKIP:320  size=20823 bytes
[libx264 @ 0x9786c0] frame=  93 QP=31.00 NAL=2 Slice:P Poc:186 I:83   P:1235 SKIP:302  size=21431 bytes
[libx264 @ 0x9786c0] frame=  94 QP=31.00 NAL=2 Slice:P Poc:188 I:66   P:1199 SKIP:355  size=20848 bytes
[libx264 @ 0x9786c0] frame=  95 QP=30.00 NAL=2 Slice:P Poc:190 I:9    P:779  SKIP:832  size=4868 bytes
[libx264 @ 0x9786c0] frame=  96 QP=33.00 NAL=2 Slice:P Poc:192 I:576  P:915  SKIP:129  size=25799 bytes
[libx264 @ 0x9786c0] frame=  97 QP=35.00 NAL=2 Slice:P Poc:194 I:1307 P:243  SKIP:70   size=31091 bytes
[libx264 @ 0x9786c0] frame=  98 QP=34.00 NAL=2 Slice:P Poc:196 I:1155 P:200  SKIP:265  size=16528 bytes
[libx264 @ 0x9786c0] frame=  99 QP=32.00 NAL=2 Slice:P Poc:198 I:923  P:247  SKIP:450  size=10906 bytes
[libx264 @ 0x9786c0] frame= 100 QP=30.00 NAL=2 Slice:P Poc:200 I:1612 P:8    SKIP:0    size=1850 bytes
[libx264 @ 0x9786c0] frame= 101 QP=28.00 NAL=2 Slice:P Poc:202 I:13   P:3    SKIP:1604 size=454 bytes
[libx264 @ 0x9786c0] frame= 102 QP=26.00 NAL=2 Slice:P Poc:204 I:40   P:10   SKIP:1570 size=1131 bytes
[libx264 @ 0x9786c0] frame= 103 QP=26.00 NAL=2 Slice:P Poc:206 I:107  P:28   SKIP:1485 size=3306 bytes
[libx264 @ 0x9786c0] frame= 104 QP=26.00 NAL=2 Slice:P Poc:208 I:202  P:64   SKIP:1354 size=5275 bytes
[libx264 @ 0x9786c0] frame= 105 QP=27.00 NAL=2 Slice:P Poc:210 I:227  P:163  SKIP:1230 size=6200 bytes
[libx264 @ 0x9786c0] frame= 106 QP=28.00 NAL=2 Slice:P Poc:212 I:190  P:251  SKIP:1179 size=7098 bytes
[libx264 @ 0x9786c0] frame= 107 QP=28.00 NAL=2 Slice:P Poc:214 I:253  P:278  SKIP:1089 size=6837 bytes
[libx264 @ 0x9786c0] frame= 108 QP=29.00 NAL=2 Slice:P Poc:216 I:230  P:362  SKIP:1028 size=6939 bytes
[libx264 @ 0x9786c0] frame= 109 QP=29.00 NAL=2 Slice:P Poc:218 I:220  P:417  SKIP:983  size=7728 bytes
[libx264 @ 0x9786c0] frame= 110 QP=29.00 NAL=2 Slice:P Poc:220 I:224  P:480  SKIP:916  size=7159 bytes
[libx264 @ 0x9786c0] frame= 111 QP=29.00 NAL=2 Slice:P Poc:222 I:272  P:516  SKIP:832  size=8922 bytes
[libx264 @ 0x9786c0] frame= 112 QP=29.00 NAL=2 Slice:P Poc:224 I:136  P:624  SKIP:860  size=9181 bytes
[libx264 @ 0x9786c0] frame= 113 QP=29.00 NAL=2 Slice:P Poc:226 I:159  P:659  SKIP:802  size=10440 bytes
[libx264 @ 0x9786c0] frame= 114 QP=29.00 NAL=2 Slice:P Poc:228 I:136  P:676  SKIP:808  size=11188 bytes
[libx264 @ 0x9786c0] frame= 115 QP=30.00 NAL=2 Slice:P Poc:230 I:118  P:750  SKIP:752  size=10559 bytes
[libx264 @ 0x9786c0] frame= 116 QP=29.00 NAL=2 Slice:P Poc:232 I:106  P:817  SKIP:697  size=11951 bytes
[libx264 @ 0x9786c0] frame= 117 QP=29.00 NAL=2 Slice:P Poc:234 I:147  P:900  SKIP:573  size=13030 bytes
[libx264 @ 0x9786c0] frame= 118 QP=30.00 NAL=2 Slice:P Poc:236 I:141  P:913  SKIP:566  size=11967 bytes
[libx264 @ 0x9786c0] frame= 119 QP=30.00 NAL=2 Slice:P Poc:238 I:133  P:930  SKIP:557  size=12001 bytes
[libx264 @ 0x9786c0] frame= 120 QP=30.00 NAL=2 Slice:P Poc:240 I:207  P:1006 SKIP:407  size=13823 bytes
[libx264 @ 0x9786c0] frame= 121 QP=30.00 NAL=2 Slice:P Poc:242 I:106  P:966  SKIP:548  size=13551 bytes
[libx264 @ 0x9786c0] frame= 122 QP=30.00 NAL=2 Slice:P Poc:244 I:147  P:985  SKIP:488  size=13711 bytes
[libx264 @ 0x9786c0] frame= 123 QP=30.00 NAL=2 Slice:P Poc:246 I:143  P:1009 SKIP:468  size=15977 bytes
[libx264 @ 0x9786c0] frame= 124 QP=30.00 NAL=2 Slice:P Poc:248 I:76   P:1060 SKIP:484  size=15269 bytes
[libx264 @ 0x9786c0] frame= 125 QP=30.00 NAL=2 Slice:P Poc:250 I:136  P:1046 SKIP:438  size=14635 bytes
[libx264 @ 0x9786c0] frame= 126 QP=30.00 NAL=2 Slice:P Poc:252 I:155  P:1002 SKIP:463  size=15928 bytes
[libx264 @ 0x9786c0] frame= 127 QP=30.00 NAL=2 Slice:P Poc:254 I:98   P:1074 SKIP:448  size=16030 bytes
[libx264 @ 0x9786c0] frame= 128 QP=30.00 NAL=2 Slice:P Poc:256 I:73   P:1088 SKIP:459  size=16197 bytes
[libx264 @ 0x9786c0] frame= 129 QP=30.00 NAL=2 Slice:P Poc:258 I:127  P:1071 SKIP:422  size=16931 bytes
[libx264 @ 0x9786c0] frame= 130 QP=30.00 NAL=2 Slice:P Poc:260 I:127  P:1102 SKIP:391  size=15790 bytes
[libx264 @ 0x9786c0] frame= 131 QP=30.00 NAL=2 Slice:P Poc:262 I:100  P:1123 SKIP:397  size=17132 bytes
[libx264 @ 0x9786c0] frame= 132 QP=31.00 NAL=2 Slice:P Poc:264 I:111  P:1083 SKIP:426  size=17172 bytes
[libx264 @ 0x9786c0] frame= 133 QP=31.00 NAL=2 Slice:P Poc:266 I:122  P:1070 SKIP:428  size=14064 bytes
[libx264 @ 0x9786c0] frame= 134 QP=30.00 NAL=2 Slice:P Poc:268 I:91   P:1147 SKIP:382  size=18925 bytes
[libx264 @ 0x9786c0] frame= 135 QP=31.00 NAL=2 Slice:P Poc:270 I:85   P:1137 SKIP:398  size=17962 bytes
[libx264 @ 0x9786c0] frame= 136 QP=31.00 NAL=2 Slice:P Poc:272 I:120  P:1134 SKIP:366  size=17893 bytes
[libx264 @ 0x9786c0] frame= 137 QP=31.00 NAL=2 Slice:P Poc:274 I:91   P:1155 SKIP:374  size=17891 bytes
[libx264 @ 0x9786c0] frame= 138 QP=31.00 NAL=2 Slice:P Poc:276 I:38   P:1217 SKIP:365  size=19051 bytes
[libx264 @ 0x9786c0] frame= 139 QP=31.00 NAL=2 Slice:P Poc:278 I:80   P:1195 SKIP:345  size=18997 bytes
[libx264 @ 0x9786c0] frame= 140 QP=31.00 NAL=2 Slice:P Poc:280 I:145  P:1163 SKIP:312  size=19791 bytes
[libx264 @ 0x9786c0] frame= 141 QP=31.00 NAL=2 Slice:P Poc:282 I:86   P:1190 SKIP:344  size=20200 bytes
frame=  179 fps=179 q=28.0 size=    1724kB time=00:00:07.01 bitrate=2012.3kbits/s    
[libx264 @ 0x9786c0] frame= 142 QP=31.00 NAL=2 Slice:P Poc:284 I:80   P:1184 SKIP:356  size=19359 bytes
[libx264 @ 0x9786c0] frame= 143 QP=31.00 NAL=2 Slice:P Poc:286 I:81   P:1192 SKIP:347  size=21724 bytes
[libx264 @ 0x9786c0] frame= 144 QP=31.00 NAL=2 Slice:P Poc:288 I:200  P:1179 SKIP:241  size=21539 bytes
[libx264 @ 0x9786c0] frame= 145 QP=31.00 NAL=2 Slice:P Poc:290 I:80   P:1212 SKIP:328  size=20506 bytes
[libx264 @ 0x9786c0] frame= 146 QP=31.00 NAL=2 Slice:P Poc:292 I:146  P:1215 SKIP:259  size=21189 bytes
[libx264 @ 0x9786c0] frame= 147 QP=31.00 NAL=2 Slice:P Poc:294 I:93   P:1209 SKIP:318  size=22467 bytes
[libx264 @ 0x9786c0] frame= 148 QP=31.00 NAL=2 Slice:P Poc:296 I:92   P:1183 SKIP:345  size=22111 bytes
[libx264 @ 0x9786c0] frame= 149 QP=31.00 NAL=2 Slice:P Poc:298 I:140  P:1229 SKIP:251  size=22602 bytes
[libx264 @ 0x9786c0] frame= 150 QP=31.00 NAL=2 Slice:P Poc:300 I:100  P:1248 SKIP:272  size=23984 bytes
[libx264 @ 0x9786c0] frame= 151 QP=32.00 NAL=2 Slice:P Poc:302 I:77   P:1189 SKIP:354  size=19007 bytes
[libx264 @ 0x9786c0] frame= 152 QP=32.00 NAL=2 Slice:P Poc:304 I:78   P:1216 SKIP:326  size=20290 bytes
[libx264 @ 0x9786c0] frame= 153 QP=32.00 NAL=2 Slice:P Poc:306 I:67   P:1238 SKIP:315  size=21238 bytes
[libx264 @ 0x9786c0] frame= 154 QP=32.00 NAL=2 Slice:P Poc:308 I:66   P:1205 SKIP:349  size=21078 bytes
[libx264 @ 0x9786c0] frame= 155 QP=32.00 NAL=2 Slice:P Poc:310 I:107  P:1190 SKIP:323  size=21847 bytes
[libx264 @ 0x9786c0] frame= 156 QP=32.00 NAL=2 Slice:P Poc:312 I:86   P:1240 SKIP:294  size=22837 bytes
[libx264 @ 0x9786c0] frame= 157 QP=32.00 NAL=2 Slice:P Poc:314 I:52   P:1200 SKIP:368  size=20963 bytes
[libx264 @ 0x9786c0] frame= 158 QP=32.00 NAL=2 Slice:P Poc:316 I:95   P:1174 SKIP:351  size=21463 bytes
[libx264 @ 0x9786c0] frame= 159 QP=32.00 NAL=2 Slice:P Poc:318 I:100  P:1218 SKIP:302  size=22414 bytes
[libx264 @ 0x9786c0] frame= 160 QP=32.00 NAL=2 Slice:P Poc:320 I:78   P:1203 SKIP:339  size=21997 bytes
[libx264 @ 0x9786c0] frame= 161 QP=32.00 NAL=2 Slice:P Poc:322 I:67   P:1205 SKIP:348  size=22735 bytes
[libx264 @ 0x9786c0] frame= 162 QP=32.00 NAL=2 Slice:P Poc:324 I:89   P:1213 SKIP:318  size=23685 bytes
[libx264 @ 0x9786c0] frame= 163 QP=32.00 NAL=2 Slice:P Poc:326 I:68   P:1221 SKIP:331  size=23514 bytes
[libx264 @ 0x9786c0] frame= 164 QP=32.00 NAL=2 Slice:P Poc:328 I:73   P:1212 SKIP:335  size=22660 bytes
[libx264 @ 0x9786c0] frame= 165 QP=32.00 NAL=2 Slice:P Poc:330 I:63   P:1202 SKIP:355  size=24294 bytes
[libx264 @ 0x9786c0] frame= 166 QP=32.00 NAL=2 Slice:P Poc:332 I:79   P:1243 SKIP:298  size=23014 bytes
[libx264 @ 0x9786c0] frame= 167 QP=32.00 NAL=2 Slice:P Poc:334 I:67   P:1235 SKIP:318  size=23943 bytes
[libx264 @ 0x9786c0] frame= 168 QP=32.00 NAL=2 Slice:P Poc:336 I:105  P:1250 SKIP:265  size=26043 bytes
[libx264 @ 0x9786c0] frame= 169 QP=32.00 NAL=2 Slice:P Poc:338 I:89   P:1220 SKIP:311  size=23674 bytes
[libx264 @ 0x9786c0] frame= 170 QP=31.00 NAL=2 Slice:P Poc:340 I:9    P:1152 SKIP:459  size=12394 bytes
[libx264 @ 0x9786c0] frame= 171 QP=32.00 NAL=2 Slice:P Poc:342 I:349  P:1097 SKIP:174  size=23663 bytes
[libx264 @ 0x9786c0] frame= 172 QP=34.00 NAL=2 Slice:P Poc:344 I:1087 P:416  SKIP:117  size=35129 bytes
[libx264 @ 0x9786c0] frame= 173 QP=34.00 NAL=2 Slice:P Poc:346 I:1059 P:279  SKIP:282  size=21995 bytes
[libx264 @ 0x9786c0] frame= 174 QP=33.00 NAL=2 Slice:P Poc:348 I:929  P:265  SKIP:426  size=13677 bytes
[libx264 @ 0x9786c0] frame= 175 QP=30.00 NAL=2 Slice:P Poc:350 I:1617 P:3    SKIP:0    size=1851 bytes
[libx264 @ 0x9786c0] frame= 176 QP=28.00 NAL=2 Slice:P Poc:352 I:12   P:4    SKIP:1604 size=317 bytes
[libx264 @ 0x9786c0] frame= 177 QP=26.00 NAL=2 Slice:P Poc:354 I:63   P:20   SKIP:1537 size=917 bytes
[libx264 @ 0x9786c0] frame= 178 QP=25.00 NAL=2 Slice:P Poc:356 I:126  P:52   SKIP:1442 size=2508 bytes
[libx264 @ 0x9786c0] frame= 179 QP=25.00 NAL=2 Slice:P Poc:358 I:226  P:69   SKIP:1325 size=2917 bytes
[libx264 @ 0x9786c0] frame= 180 QP=26.00 NAL=2 Slice:P Poc:360 I:337  P:134  SKIP:1149 size=3834 bytes
[libx264 @ 0x9786c0] frame= 181 QP=26.00 NAL=2 Slice:P Poc:362 I:249  P:147  SKIP:1224 size=4004 bytes
[libx264 @ 0x9786c0] frame= 182 QP=26.00 NAL=2 Slice:P Poc:364 I:439  P:225  SKIP:956  size=4693 bytes
[libx264 @ 0x9786c0] frame= 183 QP=27.00 NAL=2 Slice:P Poc:366 I:239  P:244  SKIP:1137 size=5259 bytes
[libx264 @ 0x9786c0] frame= 184 QP=28.00 NAL=2 Slice:P Poc:368 I:309  P:290  SKIP:1021 size=7133 bytes
[libx264 @ 0x9786c0] frame= 185 QP=28.00 NAL=2 Slice:P Poc:370 I:273  P:410  SKIP:937  size=7581 bytes
[libx264 @ 0x9786c0] frame= 186 QP=29.00 NAL=2 Slice:P Poc:372 I:239  P:485  SKIP:896  size=7533 bytes
[libx264 @ 0x9786c0] frame= 187 QP=29.00 NAL=2 Slice:P Poc:374 I:234  P:592  SKIP:794  size=8636 bytes
[libx264 @ 0x9786c0] frame= 188 QP=30.00 NAL=2 Slice:P Poc:376 I:193  P:644  SKIP:783  size=8777 bytes
[libx264 @ 0x9786c0] frame= 189 QP=30.00 NAL=2 Slice:P Poc:378 I:204  P:688  SKIP:728  size=9556 bytes
[libx264 @ 0x9786c0] frame= 190 QP=30.00 NAL=2 Slice:P Poc:380 I:237  P:713  SKIP:670  size=8780 bytes
[libx264 @ 0x9786c0] frame= 191 QP=30.00 NAL=2 Slice:P Poc:382 I:216  P:757  SKIP:647  size=10177 bytes
[libx264 @ 0x9786c0] frame= 192 QP=30.00 NAL=2 Slice:P Poc:384 I:180  P:855  SKIP:585  size=10345 bytes
[libx264 @ 0x9786c0] frame= 193 QP=30.00 NAL=2 Slice:P Poc:386 I:152  P:908  SKIP:560  size=11127 bytes
[libx264 @ 0x9786c0] frame= 194 QP=30.00 NAL=2 Slice:P Poc:388 I:165  P:933  SKIP:522  size=10998 bytes
[libx264 @ 0x9786c0] frame= 195 QP=30.00 NAL=2 Slice:P Poc:390 I:175  P:933  SKIP:512  size=11174 bytes
[libx264 @ 0x9786c0] frame= 196 QP=30.00 NAL=2 Slice:P Poc:392 I:144  P:953  SKIP:523  size=10968 bytes
[libx264 @ 0x9786c0] frame= 197 QP=30.00 NAL=2 Slice:P Poc:394 I:164  P:970  SKIP:486  size=11725 bytes
[libx264 @ 0x9786c0] frame= 198 QP=30.00 NAL=2 Slice:P Poc:396 I:179  P:934  SKIP:507  size=11802 bytes
[libx264 @ 0x9786c0] frame= 199 QP=30.00 NAL=2 Slice:P Poc:398 I:189  P:971  SKIP:460  size=11647 bytes
[libx264 @ 0x9786c0] frame= 200 QP=30.00 NAL=2 Slice:P Poc:400 I:177  P:971  SKIP:472  size=11376 bytes
[libx264 @ 0x9786c0] frame= 201 QP=30.00 NAL=2 Slice:P Poc:402 I:183  P:1004 SKIP:433  size=12366 bytes
[libx264 @ 0x9786c0] frame= 202 QP=30.00 NAL=2 Slice:P Poc:404 I:178  P:1018 SKIP:424  size=11993 bytes
[libx264 @ 0x9786c0] frame= 203 QP=30.00 NAL=2 Slice:P Poc:406 I:164  P:1022 SKIP:434  size=12024 bytes
[libx264 @ 0x9786c0] frame= 204 QP=30.00 NAL=2 Slice:P Poc:408 I:186  P:1016 SKIP:418  size=13382 bytes
[libx264 @ 0x9786c0] frame= 205 QP=30.00 NAL=2 Slice:P Poc:410 I:185  P:1012 SKIP:423  size=12059 bytes
[libx264 @ 0x9786c0] frame= 206 QP=30.00 NAL=2 Slice:P Poc:412 I:159  P:1004 SKIP:457  size=12898 bytes
[libx264 @ 0x9786c0] frame= 207 QP=30.00 NAL=2 Slice:P Poc:414 I:150  P:1007 SKIP:463  size=13177 bytes
[libx264 @ 0x9786c0] frame= 208 QP=30.00 NAL=2 Slice:P Poc:416 I:163  P:1055 SKIP:402  size=13535 bytes
[libx264 @ 0x9786c0] frame= 209 QP=30.00 NAL=2 Slice:P Poc:418 I:147  P:1078 SKIP:395  size=13621 bytes
[libx264 @ 0x9786c0] frame= 210 QP=30.00 NAL=2 Slice:P Poc:420 I:143  P:1053 SKIP:424  size=14140 bytes
[libx264 @ 0x9786c0] frame= 211 QP=30.00 NAL=2 Slice:P Poc:422 I:188  P:1019 SKIP:413  size=13370 bytes
[libx264 @ 0x9786c0] frame= 212 QP=30.00 NAL=2 Slice:P Poc:424 I:148  P:1078 SKIP:394  size=13832 bytes
[libx264 @ 0x9786c0] frame= 213 QP=30.00 NAL=2 Slice:P Poc:426 I:129  P:1065 SKIP:426  size=14277 bytes
[libx264 @ 0x9786c0] frame= 214 QP=30.00 NAL=2 Slice:P Poc:428 I:113  P:1083 SKIP:424  size=14148 bytes
[libx264 @ 0x9786c0] frame= 215 QP=30.00 NAL=2 Slice:P Poc:430 I:105  P:1111 SKIP:404  size=14548 bytes
[libx264 @ 0x9786c0] frame= 216 QP=31.00 NAL=2 Slice:P Poc:432 I:133  P:1053 SKIP:434  size=13551 bytes
[libx264 @ 0x9786c0] frame= 217 QP=31.00 NAL=2 Slice:P Poc:434 I:96   P:1080 SKIP:444  size=12953 bytes
[libx264 @ 0x9786c0] frame= 218 QP=31.00 NAL=2 Slice:P Poc:436 I:104  P:1065 SKIP:451  size=12492 bytes
[libx264 @ 0x9786c0] frame= 219 QP=31.00 NAL=2 Slice:P Poc:438 I:119  P:1081 SKIP:420  size=13853 bytes
[libx264 @ 0x9786c0] frame= 220 QP=31.00 NAL=2 Slice:P Poc:440 I:104  P:1092 SKIP:424  size=13316 bytes
[libx264 @ 0x9786c0] frame= 221 QP=31.00 NAL=2 Slice:P Poc:442 I:140  P:1093 SKIP:387  size=13864 bytes
[libx264 @ 0x9786c0] frame= 222 QP=31.00 NAL=2 Slice:P Poc:444 I:85   P:1090 SKIP:445  size=13886 bytes
[libx264 @ 0x9786c0] frame= 223 QP=31.00 NAL=2 Slice:P Poc:446 I:110  P:1088 SKIP:422  size=13992 bytes
[libx264 @ 0x9786c0] frame= 224 QP=31.00 NAL=2 Slice:P Poc:448 I:75   P:1104 SKIP:441  size=13522 bytes
[libx264 @ 0x9786c0] frame= 225 QP=31.00 NAL=2 Slice:P Poc:450 I:78   P:1118 SKIP:424  size=13651 bytes
[libx264 @ 0x9786c0] frame= 226 QP=31.00 NAL=2 Slice:P Poc:452 I:82   P:1085 SKIP:453  size=13234 bytes
[libx264 @ 0x9786c0] frame= 227 QP=31.00 NAL=2 Slice:P Poc:454 I:72   P:1102 SKIP:446  size=13788 bytes
[libx264 @ 0x9786c0] frame= 228 QP=31.00 NAL=2 Slice:P Poc:456 I:90   P:1086 SKIP:444  size=15084 bytes
[libx264 @ 0x9786c0] frame= 229 QP=31.00 NAL=2 Slice:P Poc:458 I:83   P:1054 SKIP:483  size=13824 bytes
[libx264 @ 0x9786c0] frame= 230 QP=31.00 NAL=2 Slice:P Poc:460 I:74   P:1058 SKIP:488  size=13786 bytes
[libx264 @ 0x9786c0] frame= 231 QP=31.00 NAL=2 Slice:P Poc:462 I:93   P:1049 SKIP:478  size=13875 bytes
[libx264 @ 0x9786c0] frame= 232 QP=31.00 NAL=2 Slice:P Poc:464 I:81   P:1046 SKIP:493  size=13322 bytes
[libx264 @ 0x9786c0] frame= 233 QP=30.00 NAL=2 Slice:P Poc:466 I:102  P:1054 SKIP:464  size=15497 bytes
[libx264 @ 0x9786c0] frame= 234 QP=30.00 NAL=2 Slice:P Poc:468 I:85   P:1050 SKIP:485  size=15230 bytes
[libx264 @ 0x9786c0] frame= 235 QP=30.00 NAL=2 Slice:P Poc:470 I:93   P:1036 SKIP:491  size=14494 bytes
[libx264 @ 0x9786c0] frame= 236 QP=30.00 NAL=2 Slice:P Poc:472 I:109  P:1010 SKIP:501  size=14514 bytes
[libx264 @ 0x9786c0] frame= 237 QP=30.00 NAL=2 Slice:P Poc:474 I:82   P:1003 SKIP:535  size=14694 bytes
[libx264 @ 0x9786c0] frame= 238 QP=30.00 NAL=2 Slice:P Poc:476 I:70   P:994  SKIP:556  size=13993 bytes
[libx264 @ 0x9786c0] frame= 239 QP=30.00 NAL=2 Slice:P Poc:478 I:102  P:981  SKIP:537  size=14625 bytes
[libx264 @ 0x9786c0] frame= 240 QP=30.00 NAL=2 Slice:P Poc:480 I:90   P:974  SKIP:556  size=15625 bytes
[libx264 @ 0x9786c0] frame= 241 QP=30.00 NAL=2 Slice:P Poc:482 I:58   P:932  SKIP:630  size=13453 bytes
[libx264 @ 0x9786c0] frame= 242 QP=30.00 NAL=2 Slice:P Poc:484 I:87   P:930  SKIP:603  size=13302 bytes
frame=  280 fps=187 q=30.0 size=    3253kB time=00:00:11.11 bitrate=2397.9kbits/s    
[libx264 @ 0x9786c0] frame= 243 QP=30.00 NAL=2 Slice:P Poc:486 I:100  P:899  SKIP:621  size=13354 bytes
[libx264 @ 0x9786c0] frame= 244 QP=30.00 NAL=2 Slice:P Poc:488 I:92   P:884  SKIP:644  size=12696 bytes
[libx264 @ 0x9786c0] frame= 245 QP=28.00 NAL=2 Slice:P Poc:490 I:79   P:852  SKIP:689  size=9337 bytes
[libx264 @ 0x9786c0] frame= 246 QP=31.00 NAL=2 Slice:P Poc:492 I:512  P:683  SKIP:425  size=16608 bytes
[libx264 @ 0x9786c0] frame= 247 QP=33.00 NAL=2 Slice:P Poc:494 I:890  P:408  SKIP:322  size=23706 bytes
[libx264 @ 0x9786c0] frame= 248 QP=33.00 NAL=2 Slice:P Poc:496 I:1090 P:297  SKIP:233  size=20599 bytes
[libx264 @ 0x9786c0] frame= 249 QP=33.00 NAL=2 Slice:P Poc:498 I:664  P:378  SKIP:578  size=14883 bytes
[libx264 @ 0x9786c0] frame= 250 QP=28.00 NAL=3 Slice:I Poc:0   I:1620 P:0    SKIP:0    size=1239 bytes
[libx264 @ 0x9786c0] frame= 251 QP=28.00 NAL=2 Slice:P Poc:2   I:73   P:7    SKIP:1540 size=1469 bytes
[libx264 @ 0x9786c0] frame= 252 QP=28.00 NAL=2 Slice:P Poc:4   I:318  P:46   SKIP:1256 size=4900 bytes
[libx264 @ 0x9786c0] frame= 253 QP=28.00 NAL=2 Slice:P Poc:6   I:419  P:140  SKIP:1061 size=8669 bytes
[libx264 @ 0x9786c0] frame= 254 QP=29.00 NAL=2 Slice:P Poc:8   I:544  P:281  SKIP:795  size=10994 bytes
[libx264 @ 0x9786c0] frame= 255 QP=30.00 NAL=2 Slice:P Poc:10  I:526  P:349  SKIP:745  size=11239 bytes
[libx264 @ 0x9786c0] frame= 256 QP=30.00 NAL=2 Slice:P Poc:12  I:433  P:455  SKIP:732  size=11744 bytes
[libx264 @ 0x9786c0] frame= 257 QP=30.00 NAL=2 Slice:P Poc:14  I:441  P:550  SKIP:629  size=12974 bytes
[libx264 @ 0x9786c0] frame= 258 QP=30.00 NAL=2 Slice:P Poc:16  I:360  P:640  SKIP:620  size=12755 bytes
[libx264 @ 0x9786c0] frame= 259 QP=30.00 NAL=2 Slice:P Poc:18  I:309  P:712  SKIP:599  size=11735 bytes
[libx264 @ 0x9786c0] frame= 260 QP=30.00 NAL=2 Slice:P Poc:20  I:244  P:777  SKIP:599  size=12274 bytes
[libx264 @ 0x9786c0] frame= 261 QP=30.00 NAL=2 Slice:P Poc:22  I:251  P:842  SKIP:527  size=12067 bytes
[libx264 @ 0x9786c0] frame= 262 QP=30.00 NAL=2 Slice:P Poc:24  I:196  P:876  SKIP:548  size=10655 bytes
[libx264 @ 0x9786c0] frame= 263 QP=30.00 NAL=2 Slice:P Poc:26  I:186  P:935  SKIP:499  size=12267 bytes
[libx264 @ 0x9786c0] frame= 264 QP=30.00 NAL=2 Slice:P Poc:28  I:188  P:1002 SKIP:430  size=13066 bytes
[libx264 @ 0x9786c0] frame= 265 QP=30.00 NAL=2 Slice:P Poc:30  I:165  P:1051 SKIP:404  size=12910 bytes
[libx264 @ 0x9786c0] frame= 266 QP=30.00 NAL=2 Slice:P Poc:32  I:143  P:1074 SKIP:403  size=13413 bytes
[libx264 @ 0x9786c0] frame= 267 QP=30.00 NAL=2 Slice:P Poc:34  I:162  P:1068 SKIP:390  size=13399 bytes
[libx264 @ 0x9786c0] frame= 268 QP=30.00 NAL=2 Slice:P Poc:36  I:135  P:1130 SKIP:355  size=13490 bytes
[libx264 @ 0x9786c0] frame= 269 QP=30.00 NAL=2 Slice:P Poc:38  I:159  P:1153 SKIP:308  size=13928 bytes
[libx264 @ 0x9786c0] frame= 270 QP=30.00 NAL=2 Slice:P Poc:40  I:153  P:1134 SKIP:333  size=14036 bytes
[libx264 @ 0x9786c0] frame= 271 QP=30.00 NAL=2 Slice:P Poc:42  I:161  P:1133 SKIP:326  size=13426 bytes
[libx264 @ 0x9786c0] frame= 272 QP=30.00 NAL=2 Slice:P Poc:44  I:176  P:1126 SKIP:318  size=14716 bytes
[libx264 @ 0x9786c0] frame= 273 QP=30.00 NAL=2 Slice:P Poc:46  I:180  P:1143 SKIP:297  size=14636 bytes
[libx264 @ 0x9786c0] frame= 274 QP=30.00 NAL=2 Slice:P Poc:48  I:143  P:1160 SKIP:317  size=14026 bytes
[libx264 @ 0x9786c0] frame= 275 QP=30.00 NAL=2 Slice:P Poc:50  I:203  P:1155 SKIP:262  size=15683 bytes
[libx264 @ 0x9786c0] frame= 276 QP=30.00 NAL=2 Slice:P Poc:52  I:145  P:1173 SKIP:302  size=16376 bytes
[libx264 @ 0x9786c0] frame= 277 QP=30.00 NAL=2 Slice:P Poc:54  I:138  P:1165 SKIP:317  size=14763 bytes
[libx264 @ 0x9786c0] frame= 278 QP=30.00 NAL=2 Slice:P Poc:56  I:165  P:1176 SKIP:279  size=15827 bytes
[libx264 @ 0x9786c0] frame= 279 QP=30.00 NAL=2 Slice:P Poc:58  I:131  P:1160 SKIP:329  size=16836 bytes
[libx264 @ 0x9786c0] frame= 280 QP=30.00 NAL=2 Slice:P Poc:60  I:163  P:1174 SKIP:283  size=16715 bytes
[libx264 @ 0x9786c0] frame= 281 QP=31.00 NAL=2 Slice:P Poc:62  I:111  P:1179 SKIP:330  size=14005 bytes
[libx264 @ 0x9786c0] frame= 282 QP=30.00 NAL=2 Slice:P Poc:64  I:118  P:1162 SKIP:340  size=17370 bytes
[libx264 @ 0x9786c0] frame= 283 QP=30.00 NAL=2 Slice:P Poc:66  I:143  P:1184 SKIP:293  size=17194 bytes
[libx264 @ 0x9786c0] frame= 284 QP=31.00 NAL=2 Slice:P Poc:68  I:111  P:1203 SKIP:306  size=15186 bytes
[libx264 @ 0x9786c0] frame= 285 QP=30.00 NAL=2 Slice:P Poc:70  I:146  P:1202 SKIP:272  size=17691 bytes
[libx264 @ 0x9786c0] frame= 286 QP=30.00 NAL=2 Slice:P Poc:72  I:132  P:1197 SKIP:291  size=17007 bytes
[libx264 @ 0x9786c0] frame= 287 QP=30.00 NAL=2 Slice:P Poc:74  I:133  P:1198 SKIP:289  size=17602 bytes
[libx264 @ 0x9786c0] frame= 288 QP=31.00 NAL=2 Slice:P Poc:76  I:105  P:1202 SKIP:313  size=16548 bytes
[libx264 @ 0x9786c0] frame= 289 QP=30.00 NAL=2 Slice:P Poc:78  I:110  P:1208 SKIP:302  size=16866 bytes
[libx264 @ 0x9786c0] frame= 290 QP=30.00 NAL=2 Slice:P Poc:80  I:171  P:1190 SKIP:259  size=18648 bytes
[libx264 @ 0x9786c0] frame= 291 QP=30.00 NAL=2 Slice:P Poc:82  I:133  P:1255 SKIP:232  size=18513 bytes
[libx264 @ 0x9786c0] frame= 292 QP=31.00 NAL=2 Slice:P Poc:84  I:110  P:1207 SKIP:303  size=15361 bytes
[libx264 @ 0x9786c0] frame= 293 QP=31.00 NAL=2 Slice:P Poc:86  I:91   P:1236 SKIP:293  size=16931 bytes
[libx264 @ 0x9786c0] frame= 294 QP=31.00 NAL=2 Slice:P Poc:88  I:102  P:1214 SKIP:304  size=16503 bytes
[libx264 @ 0x9786c0] frame= 295 QP=31.00 NAL=2 Slice:P Poc:90  I:96   P:1211 SKIP:313  size=16979 bytes
[libx264 @ 0x9786c0] frame= 296 QP=31.00 NAL=2 Slice:P Poc:92  I:72   P:1261 SKIP:287  size=17024 bytes
[libx264 @ 0x9786c0] frame= 297 QP=31.00 NAL=2 Slice:P Poc:94  I:91   P:1226 SKIP:303  size=17753 bytes
[libx264 @ 0x9786c0] frame= 298 QP=31.00 NAL=2 Slice:P Poc:96  I:96   P:1249 SKIP:275  size=17852 bytes
[libx264 @ 0x9786c0] frame= 299 QP=31.00 NAL=2 Slice:P Poc:98  I:57   P:1254 SKIP:309  size=17347 bytes
[libx264 @ 0x9786c0] frame= 300 QP=31.00 NAL=2 Slice:P Poc:100 I:140  P:1212 SKIP:268  size=20249 bytes
[libx264 @ 0x9786c0] frame= 301 QP=31.00 NAL=2 Slice:P Poc:102 I:71   P:1246 SKIP:303  size=17802 bytes
[libx264 @ 0x9786c0] frame= 302 QP=31.00 NAL=2 Slice:P Poc:104 I:115  P:1242 SKIP:263  size=17567 bytes
[libx264 @ 0x9786c0] frame= 303 QP=31.00 NAL=2 Slice:P Poc:106 I:73   P:1289 SKIP:258  size=19066 bytes
[libx264 @ 0x9786c0] frame= 304 QP=31.00 NAL=2 Slice:P Poc:108 I:107  P:1235 SKIP:278  size=18855 bytes
[libx264 @ 0x9786c0] frame= 305 QP=31.00 NAL=2 Slice:P Poc:110 I:99   P:1250 SKIP:271  size=19069 bytes
[libx264 @ 0x9786c0] frame= 306 QP=31.00 NAL=2 Slice:P Poc:112 I:82   P:1280 SKIP:258  size=19505 bytes
[libx264 @ 0x9786c0] frame= 307 QP=31.00 NAL=2 Slice:P Poc:114 I:105  P:1259 SKIP:256  size=18612 bytes
[libx264 @ 0x9786c0] frame= 308 QP=31.00 NAL=2 Slice:P Poc:116 I:105  P:1262 SKIP:253  size=19443 bytes
[libx264 @ 0x9786c0] frame= 309 QP=31.00 NAL=2 Slice:P Poc:118 I:135  P:1256 SKIP:229  size=20003 bytes
[libx264 @ 0x9786c0] frame= 310 QP=31.00 NAL=2 Slice:P Poc:120 I:114  P:1249 SKIP:257  size=18707 bytes
[libx264 @ 0x9786c0] frame= 311 QP=31.00 NAL=2 Slice:P Poc:122 I:131  P:1234 SKIP:255  size=20450 bytes
[libx264 @ 0x9786c0] frame= 312 QP=31.00 NAL=2 Slice:P Poc:124 I:123  P:1273 SKIP:224  size=21776 bytes
[libx264 @ 0x9786c0] frame= 313 QP=31.00 NAL=2 Slice:P Poc:126 I:99   P:1298 SKIP:223  size=19376 bytes
[libx264 @ 0x9786c0] frame= 314 QP=31.00 NAL=2 Slice:P Poc:128 I:93   P:1295 SKIP:232  size=19589 bytes
[libx264 @ 0x9786c0] frame= 315 QP=31.00 NAL=2 Slice:P Poc:130 I:83   P:1280 SKIP:257  size=20184 bytes
[libx264 @ 0x9786c0] frame= 316 QP=31.00 NAL=2 Slice:P Poc:132 I:74   P:1283 SKIP:263  size=19639 bytes
[libx264 @ 0x9786c0] frame= 317 QP=31.00 NAL=2 Slice:P Poc:134 I:83   P:1288 SKIP:249  size=20033 bytes
[libx264 @ 0x9786c0] frame= 318 QP=31.00 NAL=2 Slice:P Poc:136 I:61   P:1329 SKIP:230  size=20762 bytes
[libx264 @ 0x9786c0] frame= 319 QP=31.00 NAL=2 Slice:P Poc:138 I:63   P:1315 SKIP:242  size=19993 bytes
[libx264 @ 0x9786c0] frame= 320 QP=30.00 NAL=2 Slice:P Poc:140 I:16   P:1143 SKIP:461  size=9381 bytes
[libx264 @ 0x9786c0] frame= 321 QP=32.00 NAL=2 Slice:P Poc:142 I:443  P:948  SKIP:229  size=19828 bytes
[libx264 @ 0x9786c0] frame= 322 QP=34.00 NAL=2 Slice:P Poc:144 I:938  P:577  SKIP:105  size=29783 bytes
[libx264 @ 0x9786c0] frame= 323 QP=34.00 NAL=2 Slice:P Poc:146 I:1276 P:308  SKIP:36   size=25567 bytes
[libx264 @ 0x9786c0] frame= 324 QP=33.00 NAL=2 Slice:P Poc:148 I:926  P:404  SKIP:290  size=18579 bytes
[libx264 @ 0x9786c0] frame= 325 QP=31.00 NAL=2 Slice:P Poc:150 I:1613 P:3    SKIP:4    size=1853 bytes
[libx264 @ 0x9786c0] frame= 326 QP=29.00 NAL=2 Slice:P Poc:152 I:22   P:1    SKIP:1597 size=222 bytes
[libx264 @ 0x9786c0] frame= 327 QP=27.00 NAL=2 Slice:P Poc:154 I:28   P:12   SKIP:1580 size=764 bytes
[libx264 @ 0x9786c0] frame= 328 QP=26.00 NAL=2 Slice:P Poc:156 I:43   P:23   SKIP:1554 size=1056 bytes
[libx264 @ 0x9786c0] frame= 329 QP=25.00 NAL=2 Slice:P Poc:158 I:46   P:42   SKIP:1532 size=1747 bytes
[libx264 @ 0x9786c0] frame= 330 QP=25.00 NAL=2 Slice:P Poc:160 I:61   P:51   SKIP:1508 size=1814 bytes
[libx264 @ 0x9786c0] frame= 331 QP=25.00 NAL=2 Slice:P Poc:162 I:88   P:68   SKIP:1464 size=2691 bytes
[libx264 @ 0x9786c0] frame= 332 QP=25.00 NAL=2 Slice:P Poc:164 I:153  P:116  SKIP:1351 size=4100 bytes
[libx264 @ 0x9786c0] frame= 333 QP=26.00 NAL=2 Slice:P Poc:166 I:134  P:154  SKIP:1332 size=4610 bytes
[libx264 @ 0x9786c0] frame= 334 QP=27.00 NAL=2 Slice:P Poc:168 I:175  P:196  SKIP:1249 size=4537 bytes
[libx264 @ 0x9786c0] frame= 335 QP=27.00 NAL=2 Slice:P Poc:170 I:208  P:230  SKIP:1182 size=4546 bytes
[libx264 @ 0x9786c0] frame= 336 QP=27.00 NAL=2 Slice:P Poc:172 I:187  P:223  SKIP:1210 size=4556 bytes
[libx264 @ 0x9786c0] frame= 337 QP=27.00 NAL=2 Slice:P Poc:174 I:227  P:266  SKIP:1127 size=5383 bytes
[libx264 @ 0x9786c0] frame= 338 QP=27.00 NAL=2 Slice:P Poc:176 I:258  P:274  SKIP:1088 size=6057 bytes
[libx264 @ 0x9786c0] frame= 339 QP=27.00 NAL=2 Slice:P Poc:178 I:244  P:304  SKIP:1072 size=5631 bytes
[libx264 @ 0x9786c0] frame= 340 QP=27.00 NAL=2 Slice:P Poc:180 I:245  P:325  SKIP:1050 size=5895 bytes
[libx264 @ 0x9786c0] frame= 341 QP=27.00 NAL=2 Slice:P Poc:182 I:301  P:334  SKIP:985  size=6990 bytes
[libx264 @ 0x9786c0] frame= 342 QP=27.00 NAL=2 Slice:P Poc:184 I:260  P:354  SKIP:1006 size=7091 bytes
[libx264 @ 0x9786c0] frame= 343 QP=28.00 NAL=2 Slice:P Poc:186 I:255  P:358  SKIP:1007 size=6863 bytes
[libx264 @ 0x9786c0] frame= 344 QP=27.00 NAL=2 Slice:P Poc:188 I:204  P:383  SKIP:1033 size=7548 bytes
[libx264 @ 0x9786c0] frame= 345 QP=28.00 NAL=2 Slice:P Poc:190 I:189  P:414  SKIP:1017 size=7315 bytes
[libx264 @ 0x9786c0] frame= 346 QP=28.00 NAL=2 Slice:P Poc:192 I:166  P:446  SKIP:1008 size=7795 bytes
[libx264 @ 0x9786c0] frame= 347 QP=28.00 NAL=2 Slice:P Poc:194 I:250  P:478  SKIP:892  size=8298 bytes
[libx264 @ 0x9786c0] frame= 348 QP=29.00 NAL=2 Slice:P Poc:196 I:164  P:481  SKIP:975  size=7738 bytes
[libx264 @ 0x9786c0] frame= 349 QP=29.00 NAL=2 Slice:P Poc:198 I:177  P:519  SKIP:924  size=7683 bytes
[libx264 @ 0x9786c0] frame= 350 QP=29.00 NAL=2 Slice:P Poc:200 I:180  P:553  SKIP:887  size=8949 bytes
[libx264 @ 0x9786c0] frame= 351 QP=29.00 NAL=2 Slice:P Poc:202 I:138  P:615  SKIP:867  size=9598 bytes
frame=  389 fps=194 q=31.0 size=    4739kB time=00:00:15.38 bitrate=2523.8kbits/s    
[libx264 @ 0x9786c0] frame= 352 QP=29.00 NAL=2 Slice:P Poc:204 I:112  P:623  SKIP:885  size=9536 bytes
[libx264 @ 0x9786c0] frame= 353 QP=29.00 NAL=2 Slice:P Poc:206 I:130  P:623  SKIP:867  size=9517 bytes
[libx264 @ 0x9786c0] frame= 354 QP=29.00 NAL=2 Slice:P Poc:208 I:141  P:649  SKIP:830  size=9654 bytes
[libx264 @ 0x9786c0] frame= 355 QP=29.00 NAL=2 Slice:P Poc:210 I:145  P:672  SKIP:803  size=10017 bytes
[libx264 @ 0x9786c0] frame= 356 QP=29.00 NAL=2 Slice:P Poc:212 I:164  P:668  SKIP:788  size=10472 bytes
[libx264 @ 0x9786c0] frame= 357 QP=30.00 NAL=2 Slice:P Poc:214 I:91   P:692  SKIP:837  size=8294 bytes
[libx264 @ 0x9786c0] frame= 358 QP=29.00 NAL=2 Slice:P Poc:216 I:176  P:696  SKIP:748  size=10629 bytes
[libx264 @ 0x9786c0] frame= 359 QP=29.00 NAL=2 Slice:P Poc:218 I:151  P:689  SKIP:780  size=10241 bytes
[libx264 @ 0x9786c0] frame= 360 QP=29.00 NAL=2 Slice:P Poc:220 I:138  P:712  SKIP:770  size=10444 bytes
[libx264 @ 0x9786c0] frame= 361 QP=29.00 NAL=2 Slice:P Poc:222 I:95   P:730  SKIP:795  size=10700 bytes
[libx264 @ 0x9786c0] frame= 362 QP=29.00 NAL=2 Slice:P Poc:224 I:126  P:720  SKIP:774  size=10641 bytes
[libx264 @ 0x9786c0] frame= 363 QP=29.00 NAL=2 Slice:P Poc:226 I:97   P:748  SKIP:775  size=10789 bytes
[libx264 @ 0x9786c0] frame= 364 QP=29.00 NAL=2 Slice:P Poc:228 I:102  P:759  SKIP:759  size=11172 bytes
[libx264 @ 0x9786c0] frame= 365 QP=29.00 NAL=2 Slice:P Poc:230 I:100  P:754  SKIP:766  size=11650 bytes
[libx264 @ 0x9786c0] frame= 366 QP=29.00 NAL=2 Slice:P Poc:232 I:118  P:767  SKIP:735  size=11285 bytes
[libx264 @ 0x9786c0] frame= 367 QP=29.00 NAL=2 Slice:P Poc:234 I:197  P:746  SKIP:677  size=11673 bytes
[libx264 @ 0x9786c0] frame= 368 QP=29.00 NAL=2 Slice:P Poc:236 I:212  P:779  SKIP:629  size=11586 bytes
[libx264 @ 0x9786c0] frame= 369 QP=29.00 NAL=2 Slice:P Poc:238 I:240  P:765  SKIP:615  size=11599 bytes
[libx264 @ 0x9786c0] frame= 370 QP=29.00 NAL=2 Slice:P Poc:240 I:159  P:735  SKIP:726  size=11745 bytes
[libx264 @ 0x9786c0] frame= 371 QP=29.00 NAL=2 Slice:P Poc:242 I:95   P:767  SKIP:758  size=12041 bytes
[libx264 @ 0x9786c0] frame= 372 QP=29.00 NAL=2 Slice:P Poc:244 I:150  P:782  SKIP:688  size=13344 bytes
[libx264 @ 0x9786c0] frame= 373 QP=29.00 NAL=2 Slice:P Poc:246 I:130  P:796  SKIP:694  size=12379 bytes
[libx264 @ 0x9786c0] frame= 374 QP=29.00 NAL=2 Slice:P Poc:248 I:160  P:838  SKIP:622  size=13516 bytes
[libx264 @ 0x9786c0] frame= 375 QP=30.00 NAL=2 Slice:P Poc:250 I:98   P:841  SKIP:681  size=11595 bytes
[libx264 @ 0x9786c0] frame= 376 QP=30.00 NAL=2 Slice:P Poc:252 I:79   P:837  SKIP:704  size=11640 bytes
[libx264 @ 0x9786c0] frame= 377 QP=30.00 NAL=2 Slice:P Poc:254 I:75   P:850  SKIP:695  size=12469 bytes
[libx264 @ 0x9786c0] frame= 378 QP=30.00 NAL=2 Slice:P Poc:256 I:168  P:860  SKIP:592  size=12817 bytes
[libx264 @ 0x9786c0] frame= 379 QP=30.00 NAL=2 Slice:P Poc:258 I:108  P:899  SKIP:613  size=13609 bytes
[libx264 @ 0x9786c0] frame= 380 QP=30.00 NAL=2 Slice:P Poc:260 I:121  P:919  SKIP:580  size=14177 bytes
[libx264 @ 0x9786c0] frame= 381 QP=30.00 NAL=2 Slice:P Poc:262 I:104  P:902  SKIP:614  size=13878 bytes
[libx264 @ 0x9786c0] frame= 382 QP=30.00 NAL=2 Slice:P Poc:264 I:90   P:938  SKIP:592  size=14086 bytes
[libx264 @ 0x9786c0] frame= 383 QP=31.00 NAL=2 Slice:P Poc:266 I:63   P:916  SKIP:641  size=12223 bytes
[libx264 @ 0x9786c0] frame= 384 QP=31.00 NAL=2 Slice:P Poc:268 I:101  P:924  SKIP:595  size=13189 bytes
[libx264 @ 0x9786c0] frame= 385 QP=31.00 NAL=2 Slice:P Poc:270 I:106  P:904  SKIP:610  size=12249 bytes
[libx264 @ 0x9786c0] frame= 386 QP=31.00 NAL=2 Slice:P Poc:272 I:99   P:908  SKIP:613  size=13006 bytes
[libx264 @ 0x9786c0] frame= 387 QP=31.00 NAL=2 Slice:P Poc:274 I:82   P:926  SKIP:612  size=12994 bytes
[libx264 @ 0x9786c0] frame= 388 QP=30.00 NAL=2 Slice:P Poc:276 I:102  P:927  SKIP:591  size=14469 bytes
[libx264 @ 0x9786c0] frame= 389 QP=30.00 NAL=2 Slice:P Poc:278 I:73   P:954  SKIP:593  size=14653 bytes
[libx264 @ 0x9786c0] frame= 390 QP=30.00 NAL=2 Slice:P Poc:280 I:140  P:957  SKIP:523  size=15047 bytes
[libx264 @ 0x9786c0] frame= 391 QP=30.00 NAL=2 Slice:P Poc:282 I:94   P:957  SKIP:569  size=14527 bytes
[libx264 @ 0x9786c0] frame= 392 QP=31.00 NAL=2 Slice:P Poc:284 I:74   P:959  SKIP:587  size=12607 bytes
[libx264 @ 0x9786c0] frame= 393 QP=30.00 NAL=2 Slice:P Poc:286 I:70   P:998  SKIP:552  size=14933 bytes
[libx264 @ 0x9786c0] frame= 394 QP=30.00 NAL=2 Slice:P Poc:288 I:82   P:975  SKIP:563  size=14646 bytes
[libx264 @ 0x9786c0] frame= 395 QP=28.00 NAL=2 Slice:P Poc:290 I:31   P:920  SKIP:669  size=9946 bytes
[libx264 @ 0x9786c0] frame= 396 QP=28.00 NAL=2 Slice:P Poc:292 I:23   P:918  SKIP:679  size=10830 bytes
[libx264 @ 0x9786c0] frame= 397 QP=26.00 NAL=2 Slice:P Poc:294 I:44   P:973  SKIP:603  size=11756 bytes
[libx264 @ 0x9786c0] frame= 398 QP=24.00 NAL=2 Slice:P Poc:296 I:77   P:1039 SKIP:504  size=16449 bytes
[libx264 @ 0x9786c0] frame= 399 QP=23.00 NAL=2 Slice:P Poc:298 I:305  P:1025 SKIP:290  size=11114 bytes
[libx264 @ 0x9786c0] frame= 400 QP=22.00 NAL=2 Slice:P Poc:300 I:56   P:1059 SKIP:505  size=15540 bytes
[libx264 @ 0x9786c0] frame= 401 QP=21.00 NAL=2 Slice:P Poc:302 I:26   P:931  SKIP:663  size=8196 bytes
[libx264 @ 0x9786c0] frame= 402 QP=21.00 NAL=2 Slice:P Poc:304 I:14   P:332  SKIP:1274 size=1488 bytes
[libx264 @ 0x9786c0] frame= 403 QP=21.00 NAL=2 Slice:P Poc:306 I:18   P:187  SKIP:1415 size=806 bytes
[libx264 @ 0x9786c0] frame= 404 QP=19.00 NAL=2 Slice:P Poc:308 I:29   P:1141 SKIP:450  size=24723 bytes
[libx264 @ 0x9786c0] frame= 405 QP=20.00 NAL=2 Slice:P Poc:310 I:8    P:170  SKIP:1442 size=492 bytes
[libx264 @ 0x9786c0] frame= 406 QP=21.00 NAL=2 Slice:P Poc:312 I:12   P:351  SKIP:1257 size=1219 bytes
[libx264 @ 0x9786c0] frame= 407 QP=21.00 NAL=2 Slice:P Poc:314 I:6    P:148  SKIP:1466 size=385 bytes
[libx264 @ 0x9786c0] frame= 408 QP=24.00 NAL=2 Slice:P Poc:316 I:4    P:719  SKIP:897  size=6222 bytes
[libx264 @ 0x9786c0] frame= 409 QP=23.00 NAL=2 Slice:P Poc:318 I:8    P:695  SKIP:917  size=3960 bytes
[libx264 @ 0x9786c0] frame= 410 QP=21.00 NAL=2 Slice:P Poc:320 I:13   P:915  SKIP:692  size=9367 bytes
[libx264 @ 0x9786c0] frame= 411 QP=20.00 NAL=2 Slice:P Poc:322 I:11   P:758  SKIP:851  size=4936 bytes
[libx264 @ 0x9786c0] frame= 412 QP=19.00 NAL=2 Slice:P Poc:324 I:3    P:1004 SKIP:613  size=10737 bytes
[libx264 @ 0x9786c0] frame= 413 QP=18.00 NAL=2 Slice:P Poc:326 I:3    P:792  SKIP:825  size=6084 bytes
[libx264 @ 0x9786c0] frame= 414 QP=18.00 NAL=2 Slice:P Poc:328 I:2    P:72   SKIP:1546 size=268 bytes
[libx264 @ 0x9786c0] frame= 415 QP=17.00 NAL=2 Slice:P Poc:330 I:18   P:1115 SKIP:487  size=12309 bytes
[libx264 @ 0x9786c0] frame= 416 QP=17.00 NAL=2 Slice:P Poc:332 I:1    P:205  SKIP:1414 size=497 bytes
[libx264 @ 0x9786c0] frame= 417 QP=17.00 NAL=2 Slice:P Poc:334 I:1    P:240  SKIP:1379 size=570 bytes
[libx264 @ 0x9786c0] frame= 418 QP=19.00 NAL=2 Slice:P Poc:336 I:1    P:185  SKIP:1434 size=1734 bytes
[libx264 @ 0x9786c0] frame= 419 QP=18.00 NAL=2 Slice:P Poc:338 I:2    P:115  SKIP:1503 size=492 bytes
[libx264 @ 0x9786c0] frame= 420 QP=21.00 NAL=2 Slice:P Poc:340 I:5    P:513  SKIP:1102 size=3827 bytes
[libx264 @ 0x9786c0] frame= 421 QP=21.00 NAL=2 Slice:P Poc:342 I:9    P:342  SKIP:1269 size=1000 bytes
[libx264 @ 0x9786c0] frame= 422 QP=20.00 NAL=2 Slice:P Poc:344 I:15   P:278  SKIP:1327 size=1476 bytes
[libx264 @ 0x9786c0] frame= 423 QP=23.00 NAL=2 Slice:P Poc:346 I:180  P:478  SKIP:962  size=2933 bytes
[libx264 @ 0x9786c0] frame= 424 QP=26.00 NAL=2 Slice:P Poc:348 I:329  P:671  SKIP:620  size=9518 bytes
[libx264 @ 0x9786c0] frame= 425 QP=28.00 NAL=2 Slice:P Poc:350 I:402  P:702  SKIP:516  size=12809 bytes
[libx264 @ 0x9786c0] frame= 426 QP=29.00 NAL=2 Slice:P Poc:352 I:460  P:722  SKIP:438  size=15405 bytes
[libx264 @ 0x9786c0] frame= 427 QP=30.00 NAL=2 Slice:P Poc:354 I:544  P:733  SKIP:343  size=17385 bytes
[libx264 @ 0x9786c0] frame= 428 QP=30.00 NAL=2 Slice:P Poc:356 I:638  P:629  SKIP:353  size=15418 bytes
[libx264 @ 0x9786c0] frame= 429 QP=30.00 NAL=2 Slice:P Poc:358 I:763  P:433  SKIP:424  size=14544 bytes
[libx264 @ 0x9786c0] frame= 430 QP=30.00 NAL=2 Slice:P Poc:360 I:1058 P:197  SKIP:365  size=10110 bytes
[libx264 @ 0x9786c0] frame= 431 QP=29.00 NAL=2 Slice:P Poc:362 I:1165 P:108  SKIP:347  size=5784 bytes
[libx264 @ 0x9786c0] frame= 432 QP=28.00 NAL=2 Slice:P Poc:364 I:993  P:89   SKIP:538  size=2790 bytes
[libx264 @ 0x9786c0] frame= 433 QP=26.00 NAL=2 Slice:P Poc:366 I:1018 P:19   SKIP:583  size=1340 bytes
[libx264 @ 0x9786c0] frame= 434 QP=24.00 NAL=2 Slice:P Poc:368 I:13   P:7    SKIP:1600 size=67 bytes
[libx264 @ 0x9786c0] frame= 435 QP=22.00 NAL=2 Slice:P Poc:370 I:600  P:53   SKIP:967  size=859 bytes
[libx264 @ 0x9786c0] frame= 436 QP=20.00 NAL=2 Slice:P Poc:372 I:16   P:1    SKIP:1603 size=58 bytes
[mpeg @ 0x9767a0] New subtitle stream 0:3 at pos:11966478 and DTS:0.280633s
[mpeg @ 0x9767a0] New subtitle stream 0:4 at pos:11970574 and DTS:0.280633s

Change History (4)

comment:1 Changed 5 years ago by cehoyos

  • Component changed from undetermined to avformat
  • Keywords deadlock added
  • Priority changed from normal to important
  • Reproduced by developer set
  • Status changed from new to open
  • Version changed from 2.3 to git-master

I suspect that parse_packet() loops forever.

(gdb) r -i encoding_hangs_when_new_subtitle_streams_are_found_0-20MB.vob -f null -
Starting program: ffmpeg_g -i encoding_hangs_when_new_subtitle_streams_are_found_0-20MB.vob -f null -
[Thread debugging using libthread_db enabled]
Using host libthread_db library "/lib64/libthread_db.so.1".
ffmpeg version N-64967-g2904d05 Copyright (c) 2000-2014 the FFmpeg developers
  built on Jul 25 2014 13:18:59 with gcc 4.7 (SUSE Linux)
  configuration: --enable-gpl
  libavutil      52. 92.101 / 52. 92.101
  libavcodec     55. 69.100 / 55. 69.100
  libavformat    55. 49.100 / 55. 49.100
  libavdevice    55. 13.102 / 55. 13.102
  libavfilter     4. 11.102 /  4. 11.102
  libswscale      2.  6.100 /  2.  6.100
  libswresample   0. 19.100 /  0. 19.100
  libpostproc    52.  3.100 / 52.  3.100
Input #0, mpeg, from 'encoding_hangs_when_new_subtitle_streams_are_found_0-20MB.vob':
  Duration: 00:00:12.51, start: 0.287267, bitrate: 13407 kb/s
    Stream #0:0[0x1bf]: Data: dvd_nav_packet
    Stream #0:1[0x1e0]: Video: mpeg2video (Main), yuv420p(tv, smpte170m), 720x576 [SAR 64:45 DAR 16:9], max. 8000 kb/s, 25 fps, 25 tbr, 90k tbn, 50 tbc
    Stream #0:2[0x80]: Audio: ac3, 48000 Hz, stereo, fltp, 192 kb/s
[New Thread 0x7ffff1d26700 (LWP 13924)]
[New Thread 0x7ffff1525700 (LWP 13925)]
[New Thread 0x7ffff0d24700 (LWP 13926)]
[New Thread 0x7ffff0523700 (LWP 13927)]
[New Thread 0x7fffefd22700 (LWP 13928)]
[New Thread 0x7fffef521700 (LWP 13929)]
[New Thread 0x7fffeed20700 (LWP 13930)]
[New Thread 0x7fffee51f700 (LWP 13931)]
[New Thread 0x7fffedd1e700 (LWP 13932)]
[New Thread 0x7fffed51d700 (LWP 13933)]
[New Thread 0x7fffecd1c700 (LWP 13934)]
[New Thread 0x7fffec51b700 (LWP 13935)]
[New Thread 0x7fffebd1a700 (LWP 13936)]
[New Thread 0x7fffeb519700 (LWP 13937)]
[New Thread 0x7fffead18700 (LWP 13938)]
[New Thread 0x7fffea517700 (LWP 13939)]
[New Thread 0x7fffe9d16700 (LWP 13940)]
[New Thread 0x7fffe9515700 (LWP 13941)]
[New Thread 0x7fffe8d14700 (LWP 13942)]
[New Thread 0x7fffe8513700 (LWP 13943)]
[New Thread 0x7fffe7d12700 (LWP 13944)]
[New Thread 0x7fffe7511700 (LWP 13945)]
[New Thread 0x7fffe6d10700 (LWP 13946)]
[New Thread 0x7fffe650f700 (LWP 13947)]
[New Thread 0x7fffe5d0e700 (LWP 13948)]
[New Thread 0x7fffe550d700 (LWP 13949)]
[New Thread 0x7fffe4d0c700 (LWP 13950)]
Output #0, null, to 'pipe:':
  Metadata:
    encoder         : Lavf55.49.100
    Stream #0:0: Video: rawvideo (I420 / 0x30323449), yuv420p, 720x576 [SAR 64:45 DAR 16:9], q=2-31, 200 kb/s, 25 fps, 25 tbn, 25 tbc
    Metadata:
      encoder         : Lavc55.69.100 rawvideo
    Stream #0:1: Audio: pcm_s16le, 48000 Hz, stereo, s16, 1536 kb/s
    Metadata:
      encoder         : Lavc55.69.100 pcm_s16le
Stream mapping:
  Stream #0:1 -> #0:0 (mpeg2video (native) -> rawvideo (native))
  Stream #0:2 -> #0:1 (ac3 (native) -> pcm_s16le (native))
Press [q] to stop, [?] for help
[null @ 0x1a8eb40] Encoder did not produce proper pts, making some up.
[mpeg @ 0x1a10d40] New subtitle stream 0:3 at pos:11966478 and DTS:0.280633s
[mpeg @ 0x1a10d40] New subtitle stream 0:4 at pos:11970574 and DTS:0.280633s

Program received signal SIGINT, Interrupt.
parse_packet (s=s@entry=0x1a10d40, pkt=pkt@entry=0x7fffffffd610,
    stream_index=<optimized out>) at libavformat/utils.c:1355
1355            pkt->pos = -1;
(gdb) bt
#0  parse_packet (s=s@entry=0x1a10d40, pkt=pkt@entry=0x7fffffffd610,
    stream_index=<optimized out>) at libavformat/utils.c:1355
#1  0x000000000060f80a in read_frame_internal (s=0x1a10d40, pkt=0x7fffffffd9f0)
    at libavformat/utils.c:1522
#2  0x0000000000610446 in av_read_frame (s=0x1a10d40, pkt=pkt@entry=0x7fffffffd9f0)
    at libavformat/utils.c:1599
#3  0x0000000000485b36 in get_input_packet (pkt=0x7fffffffd9f0, f=0x1a08240)
    at ffmpeg.c:3281
#4  process_input (file_index=0) at ffmpeg.c:3318
#5  0x000000000046bb1f in transcode_step () at ffmpeg.c:3609
#6  transcode () at ffmpeg.c:3661
#7  main (argc=<optimized out>, argv=<optimized out>) at ffmpeg.c:3837

comment:2 Changed 5 years ago by cehoyos

Did you ever post your showwaves patch from ticket #3482 to the ffmpeg-devel mailing list?

comment:3 Changed 5 years ago by mrskman

I did and got some comments but since then I didn't have time to correct the patch.

comment:4 Changed 5 years ago by michael

  • Resolution set to fixed
  • Status changed from open to closed
Note: See TracTickets for help on using tickets.