Opened 5 years ago

Closed 5 years ago

Last modified 5 years ago

#366 closed defect (fixed)

Green bar with ffplay when playing H264

Reported by: cehoyos Owned by:
Priority: normal Component: undetermined
Version: git-master Keywords: ffplay regression h264
Cc: Blocked By:
Blocking: Reproduced by developer: no
Analyzed by developer: no

Description

Playing some H264 samples shows a green bar since b47904d158709bdec1a9d40e83d1abadf50081dc

$ ffplay test.mov
ffplay version N-31642-g7cbb856, Copyright (c) 2003-2011 the FFmpeg developers
  built on Jul 27 2011 00:39:44 with gcc 4.5.3
  configuration: --cc=/usr/local/gcc-4.5.3/bin/gcc
  libavutil    51. 11. 0 / 51. 11. 0
  libavcodec   53.  9. 0 / 53.  9. 0
  libavformat  53.  6. 0 / 53.  6. 0
  libavdevice  53.  2. 0 / 53.  2. 0
  libavfilter   2. 27. 3 /  2. 27. 3
  libswscale    2.  0. 0 /  2.  0. 0
Input #0, mov,mp4,m4a,3gp,3g2,mj2, from 'test.mov':
  Metadata:
    major_brand     : qt
    minor_version   : 0
    compatible_brands: qt
    creation_time   : 2009-06-26 21:46:14
  Duration: 00:00:33.11, start: 0.000000, bitrate: 24 kb/s
    Stream #0.0(und): Audio: aac, 44100 Hz, mono, s16, 79 kb/s
    Metadata:
      creation_time   : 2009-06-26 21:46:14
    Stream #0.1(und): Video: h264 (Baseline), yuv420p, 480x360, 742 kb/s, 30 fps, 30 tbr, 600 tbn, 1200 tbc
    Metadata:
      creation_time   : 2009-06-26 21:46:14
   0.26 A-V:  0.022 s:0.0 aq=   19KB vq=   23KB sq=    0B f=0/0   f=0/0

Attachments (1)

test.mov (100.0 KB) - added by cehoyos 5 years ago.

Download all attachments as: .zip

Change History (4)

Changed 5 years ago by cehoyos

comment:1 Changed 5 years ago by llogan

  • Status changed from new to open

comment:2 Changed 5 years ago by cehoyos

  • Resolution set to fixed
  • Status changed from open to closed

Not reproducible any more (but already fixed before b47904d158709bdec1a9d40e83d1abadf50081dc was reverted).

comment:3 Changed 5 years ago by cehoyos

  • Keywords h264 added
Note: See TracTickets for help on using tickets.