Changes between Initial Version and Version 1 of Ticket #3562, comment 4


Ignore:
Timestamp:
Apr 16, 2014, 6:12:47 PM (5 years ago)
Author:
blacktrash
Comment:

Legend:

Unmodified
Added
Removed
Modified
  • Ticket #3562, comment 4

    initial v1  
    55
    66{{{
    7 $ ffmpeg -i test.avi -vf format=yuv420p -af aresample=osr=22050 test.webm
    8 ffmpeg version N-62462-g2b58c9c Copyright (c) 2000-2014 the FFmpeg developers
    9   built on Apr 15 2014 11:25:24 with Apple LLVM version 5.1 (clang-503.0.40) (based on LLVM 3.4svn)
    10   configuration: --enable-gpl --enable-version3 --enable-nonfree --disable-ffserver --enable-shared --enable-libfdk-aac --enable-libx265 --enable-libx264 --enable-libxvid --enable-libfaac --enable-libmp3lame --enable-libtheora --enable-libvorbis --enable-libvpx --extra-cflags=-I/sw/include --extra-libs=-L/sw/lib
    11   libavutil      52. 76.100 / 52. 76.100
    12   libavcodec     55. 58.103 / 55. 58.103
    13   libavformat    55. 37.100 / 55. 37.100
    14   libavdevice    55. 13.100 / 55. 13.100
    15   libavfilter     4.  4.100 /  4.  4.100
    16   libswscale      2.  6.100 /  2.  6.100
    17   libswresample   0. 18.100 /  0. 18.100
    18   libpostproc    52.  3.100 / 52.  3.100
    19 [avi @ 0x7fd22c000000] non-interleaved AVI
    20 Guessed Channel Layout for  Input Stream #0.1 : mono
    21 Input #0, avi, from 'test.avi':
    22   Duration: 00:00:31.86, start: 0.000000, bitrate: 11205 kb/s
    23     Stream #0:0: Video: mjpeg (MJPG / 0x47504A4D), yuvj422p(pc), 1280x720, 10851 kb/s, 29.95 tbr, 29.95 tbn, 29.95 tbc
    24     Stream #0:1: Audio: pcm_s16le ([1][0][0][0] / 0x0001), 22050 Hz, mono, s16, 352 kb/s
    25 [swscaler @ 0x7fd22b836200] deprecated pixel format used, make sure you did set range correctly
    26 [libvpx @ 0x7fd22b811000] v1.3.0-2346-g14331a8
    27 Output #0, webm, to 'test.webm':
    28   Metadata:
    29     encoder         : Lavf55.37.100
    30     Stream #0:0: Video: vp8 (libvpx), yuv420p, 1280x720, q=-1--1, 200 kb/s, 1k tbn, 29.95 tbc
    31     Stream #0:1: Audio: vorbis (libvorbis), 22050 Hz, mono, fltp
    32 Stream mapping:
    33   Stream #0:0 -> #0:0 (mjpeg -> libvpx)
    34   Stream #0:1 -> #0:1 (pcm_s16le -> libvorbis)
    35 Press [q] to stop, [?] for help
    36 Input stream #0:0 frame changed from size:1280x720 fmt:yuvj422p to size:1280x720 fmt:yuvj420p
    37 [swscaler @ 0x7fd22b816800] deprecated pixel format used, make sure you did set range correctly
    38 frame=  623 fps= 17 q=0.0 Lsize=    1239kB time=00:00:31.69 bitrate= 320.2kbits/s
    39 video:1066kB audio:156kB subtitle:0kB other streams:0kB global headers:3kB muxing overhead: 1.397110%
    40 ~/Movies$ rm test.webm
    41 ~/Movies$ ffmpeg -i test.avi -filter_complex '[0:0]format=yuv420p;[0:1]aresample=osr=22050' test.mp4
     7$ ffmpeg -i test.avi -filter_complex '[0:0]format=yuv420p;[0:1]aresample=osr=22050' test.mp4
    428ffmpeg version N-62462-g2b58c9c Copyright (c) 2000-2014 the FFmpeg developers
    439  built on Apr 15 2014 11:25:24 with Apple LLVM version 5.1 (clang-503.0.40) (based on LLVM 3.4svn)