Opened 5 years ago

Closed 5 years ago

Last modified 5 years ago

#3559 closed defect (invalid)

flac format playback fails with gcc-4.9 compiler

Reported by: amooze Owned by:
Priority: normal Component: undetermined
Version: unspecified Keywords: flac gcc
Cc: Blocked By:
Blocking: Reproduced by developer: no
Analyzed by developer: no

Description

Summary of the bug:
How to reproduce:

% /usr/src/mplayer/ffmpeg/ffplay -v 9 -loglevel 99 -i 10.innocent_starter.flac
ffplay version git-2014-04-14-9468e9e Copyright (c) 2003-2014 the FFmpeg developers
  built on Apr 14 2014 23:27:19 with gcc 4.9 (Debian 4.9-20140411-2)
  configuration: --cc=gcc-4.9 --host-cc=gcc-4.9 --dep-cc=gcc-4.9
  libavutil      52. 76.100 / 52. 76.100
  libavcodec     55. 58.103 / 55. 58.103
  libavformat    55. 37.100 / 55. 37.100
  libavdevice    55. 13.100 / 55. 13.100
  libavfilter     4.  4.100 /  4.  4.100
  libswscale      2.  6.100 /  2.  6.100
  libswresample   0. 18.100 /  0. 18.100
[flac @ 0x7f3b540008c0] Format flac probed with size=2048 and score=50
[flac @ 0x7f3b540008c0] Before avformat_find_stream_info() pos: 8808 bytes read:32768 seeks:0
[flac @ 0x7f3b54000ea0] sample/frame number mismatch in adjacent frames
    Last message repeated 126 times
[flac @ 0x7f3b540008c0] max_analyze_duration 5000000 reached at 5015510 microseconds
[flac @ 0x7f3b540008c0] After avformat_find_stream_info() pos: 539648 bytes read:557056 seeks:0 frames:56
Input #0, flac, from '10.innocent_starter.flac':
  Metadata:
    ARTIST          : 水樹奈々
    ALBUM           : THE MUSEUM
    TITLE           : innocent starter
    DATE            : 2007
    GENRE           : JPop
    track           : 10
    CDDB            : e111e110
  Duration: 00:04:40.64, bitrate: 1043 kb/s
    Stream #0:0, 56, 1/44100: Audio: flac, 44100 Hz, stereo, s16
detected 4 logical cores
[ffplay_abuffer @ 0x7f3b5400c780] Setting 'sample_rate' to value '44100'
[ffplay_abuffer @ 0x7f3b5400c780] Setting 'sample_fmt' to value 's16'
[ffplay_abuffer @ 0x7f3b5400c780] Setting 'channels' to value '2'
[ffplay_abuffer @ 0x7f3b5400c780] Setting 'time_base' to value '1/44100'
[ffplay_abuffer @ 0x7f3b5400c780] Setting 'channel_layout' to value '0x3'
[ffplay_abuffer @ 0x7f3b5400c780] tb:1/44100 samplefmt:s16 samplerate:44100 chlayout:0x3
[AVFilterGraph @ 0x7f3b5400bde0] query_formats: 2 queried, 3 merged, 0 already done, 0 delayed
Audio frame changed from rate:44100 ch:2 fmt:s16 layout:stereo serial:-1 to rate:44100 ch:2 fmt:s16 layout:stereo serial:1
[ffplay_abuffer @ 0x7f3b48001240] Setting 'sample_rate' to value '44100'
[ffplay_abuffer @ 0x7f3b48001240] Setting 'sample_fmt' to value 's16'
[ffplay_abuffer @ 0x7f3b48001240] Setting 'channels' to value '2'
[ffplay_abuffer @ 0x7f3b48001240] Setting 'time_base' to value '1/44100'
[ffplay_abuffer @ 0x7f3b48001240] Setting 'channel_layout' to value '0x3'
[ffplay_abuffer @ 0x7f3b48001240] tb:1/44100 samplefmt:s16 samplerate:44100 chlayout:0x3
[AVFilterGraph @ 0x7f3b48000dc0] query_formats: 2 queried, 3 merged, 0 already done, 0 delayed
[flac @ 0x7f3b540092e0] invalid subframe paddingB sq=    0B f=0/0
[flac @ 0x7f3b540092e0] decode_frame() failed
[flac @ 0x7f3b540092e0] invalid subframe paddingB sq=    0B f=0/0
[flac @ 0x7f3b540092e0] decode_frame() failed
[flac @ 0x7f3b5400a860] invalid subframe paddingB sq=    0B f=0/0
[flac @ 0x7f3b5400a860] decode_frame() failed
[flac @ 0x7f3b5400a860] invalid subframe paddingB sq=    0B f=0/0
[flac @ 0x7f3b5400a860] decode_frame() failed
[flac @ 0x7f3b54008b80] underread: 6275 orig size: 9378  0B f=0/0
[flac @ 0x7f3b54000ea0] sample/frame number mismatch in adjacent frames
    Last message repeated 1 times
[flac @ 0x7f3b54000ea0] sample/frame number mismatch in adjacent frames
    Last message repeated 1 times
[flac @ 0x7f3b54000ea0] sample/frame number mismatch in adjacent frames
    Last message repeated 1 times
[flac @ 0x7f3b54000ea0] sample/frame number mismatch in adjacent frames
    Last message repeated 1 times
[flac @ 0x7f3b54000ea0] sample/frame number mismatch in adjacent frames
    Last message repeated 1 times
[flac @ 0x7f3b54000ea0] sample/frame number mismatch in adjacent frames
    Last message repeated 1 times
[flac @ 0x7f3b54009da0] underread: 4894 orig size: 9551  0B f=0/0
[flac @ 0x7f3b54000ea0] sample/frame number mismatch in adjacent frames
    Last message repeated 1 times
[flac @ 0x7f3b54000ea0] sample/frame number mismatch in adjacent frames
    Last message repeated 1 times
[flac @ 0x7f3b54000ea0] sample/frame number mismatch in adjacent frames
    Last message repeated 1 times
[flac @ 0x7f3b54000ea0] sample/frame number mismatch in adjacent frames
    Last message repeated 1 times
[flac @ 0x7f3b54000ea0] sample/frame number mismatch in adjacent frames
    Last message repeated 1 times
[flac @ 0x7f3b54000ea0] sample/frame number mismatch in adjacent frames
    Last message repeated 1 times
[flac @ 0x7f3b54000ea0] sample/frame number mismatch in adjacent frames
    Last message repeated 1 times
[flac @ 0x7f3b54000ea0] sample/frame number mismatch in adjacent frames
    Last message repeated 1 times
[flac @ 0x7f3b54000ea0] sample/frame number mismatch in adjacent frames
    Last message repeated 1 times
[flac @ 0x7f3b54008b80] qlevel -16 not supported, maybe buggy stream
[flac @ 0x7f3b54008b80] decode_frame() failed
[flac @ 0x7f3b54000ea0] sample/frame number mismatch in adjacent frames
    Last message repeated 1 times
[flac @ 0x7f3b54000ea0] sample/frame number mismatch in adjacent frames
    Last message repeated 1 times
[flac @ 0x7f3b54000ea0] sample/frame number mismatch in adjacent frames
    Last message repeated 1 times
[flac @ 0x7f3b54000ea0] sample/frame number mismatch in adjacent frames
    Last message repeated 3 times
[flac @ 0x7f3b54000ea0] sample/frame number mismatch in adjacent frames
    Last message repeated 1 times
[flac @ 0x7f3b54000ea0] sample/frame number mismatch in adjacent frames
    Last message repeated 1 times
[flac @ 0x7f3b54000ea0] sample/frame number mismatch in adjacent frames
    Last message repeated 1 times
[flac @ 0x7f3b54000ea0] sample/frame number mismatch in adjacent frames
    Last message repeated 1 times
[flac @ 0x7f3b54000ea0] sample/frame number mismatch in adjacent frames
    Last message repeated 1 times
[flac @ 0x7f3b54000ea0] sample/frame number mismatch in adjacent frames
    Last message repeated 1 times
[flac @ 0x7f3b54000ea0] sample/frame number mismatch in adjacent frames
    Last message repeated 1 times
[flac @ 0x7f3b54000ea0] sample/frame number mismatch in adjacent frames
    Last message repeated 1 times
[flac @ 0x7f3b54000ea0] sample/frame number mismatch in adjacent frames
    Last message repeated 1 times
[flac @ 0x7f3b54000ea0] sample/frame number mismatch in adjacent frames
    Last message repeated 1 times
[flac @ 0x7f3b54000ea0] sample/frame number mismatch in adjacent frames
    Last message repeated 1 times
[flac @ 0x7f3b54000ea0] sample/frame number mismatch in adjacent frames
    Last message repeated 1 times
[flac @ 0x7f3b54000ea0] sample/frame number mismatch in adjacent frames
    Last message repeated 1 times
[flac @ 0x7f3b54000ea0] sample/frame number mismatch in adjacent frames
    Last message repeated 1 times
[flac @ 0x7f3b5400b320] underread: 5361 orig size: 9126  0B f=0/0
[flac @ 0x7f3b54000ea0] sample/frame number mismatch in adjacent frames
    Last message repeated 1 times
[flac @ 0x7f3b54000ea0] sample/frame number mismatch in adjacent frames
    Last message repeated 1 times
[flac @ 0x7f3b54000ea0] sample/frame number mismatch in adjacent frames
    Last message repeated 1 times
[flac @ 0x7f3b54000ea0] sample/frame number mismatch in adjacent frames
    Last message repeated 1 times
[flac @ 0x7f3b54000ea0] sample/frame number mismatch in adjacent frames
    Last message repeated 1 times
[flac @ 0x7f3b54000ea0] sample/frame number mismatch in adjacent frames
    Last message repeated 1 times
[flac @ 0x7f3b54000ea0] sample/frame number mismatch in adjacent frames
    Last message repeated 1 times
[flac @ 0x7f3b54000ea0] sample/frame number mismatch in adjacent frames
    Last message repeated 1 times
[flac @ 0x7f3b54000ea0] sample/frame number mismatch in adjacent frames
    Last message repeated 1 times
[flac @ 0x7f3b54000ea0] sample/frame number mismatch in adjacent frames
    Last message repeated 1 times
[flac @ 0x7f3b54000ea0] sample/frame number mismatch in adjacent frames
    Last message repeated 1 times
[flac @ 0x7f3b54000ea0] sample/frame number mismatch in adjacent frames
    Last message repeated 1 times
[AVIOContext @ 0x7f3b540015c0] Statistics: 1048576 bytes read, 0 seeks

Patches should be submitted to the ffmpeg-devel mailing list and not this bug tracker.

Attachments (1)

10.innocent_starter.tiny.flac (2.0 MB) - added by amooze 5 years ago.
flac file ripped from a cd with abcde / cdparanoia / flac 1.30

Download all attachments as: .zip

Change History (18)

comment:1 follow-up: Changed 5 years ago by cehoyos

  • Keywords gcc-4.9 removed

I was unable to find a release of gcc 4.9 on http://gcc.gnu.org
Is there any indication that this is a problem that can be fixed in FFmpeg?

Changed 5 years ago by amooze

flac file ripped from a cd with abcde / cdparanoia / flac 1.30

comment:2 in reply to: ↑ 1 ; follow-up: Changed 5 years ago by amooze

  • Keywords gcc-4.9.0 added

Replying to cehoyos:

I was unable to find a release of gcc 4.9 on http://gcc.gnu.org
Is there any indication that this is a problem that can be fixed in FFmpeg?

gcc version used was 4.9.0 - it could be a change in the way the FFmpeg code is optimised that triggered the bug?

comment:3 in reply to: ↑ 2 Changed 5 years ago by cehoyos

  • Keywords gcc-4.9.0 removed

Replying to amooze:

gcc version used was 4.9.0

As I tried to explain: This version does not exist yet (so I cannot test).
This is with near certainty a bug in the development branch of gcc, if you want it fixed, report it there please.

Remember that FFmpeg developers always suggested not to use gcc binaries with version numbers that contained "0" (or "1").

comment:4 Changed 5 years ago by amooze

OK, I'll wait on the gcc 4.9.0 release announcement and test against that.

comment:5 Changed 5 years ago by cehoyos

Still reproducible with gcc 4.9.0 RC, at least shorten and loco are also affected.

comment:6 Changed 5 years ago by amooze

even after a substational patch to the flac decoder, I'm still seeing the problem:

/usr/src/mplayer/ffmpeg/ffplay -v 9 -loglevel 99 -i 10.innocent_starter.flac

ffplay version git-2014-04-16-bdc812a Copyright (c) 2003-2014 the FFmpeg developers

built on Apr 16 2014 08:47:59 with gcc 4.9 (Debian 4.9-20140411-2)
configuration: --cc=gcc-4.9 --host-cc=gcc-4.9 --dep-cc=gcc-4.9
libavutil 52. 76.100 / 52. 76.100
libavcodec 55. 58.103 / 55. 58.103
libavformat 55. 37.100 / 55. 37.100
libavdevice 55. 13.100 / 55. 13.100
libavfilter 4. 4.100 / 4. 4.100
libswscale 2. 6.100 / 2. 6.100
libswresample 0. 18.100 / 0. 18.100

[flac @ 0x7fc62c0008c0] Format flac probed with size=2048 and score=50
[flac @ 0x7fc62c0008c0] Before avformat_find_stream_info() pos: 8808 bytes read:32768 seeks:0
[flac @ 0x7fc62c000ea0] sample/frame number mismatch in adjacent frames

Last message repeated 18 times

[flac @ 0x7fc62c0008c0] All info found
[flac @ 0x7fc62c0008c0] After avformat_find_stream_info() pos: 10856 bytes read:32768 seeks:0 frames:1
Input #0, flac, from '10.innocent_starter.flac':

Metadata:

ARTIST : 水樹奈々
ALBUM : THE MUSEUM
TITLE : innocent starter
DATE : 2007
GENRE : JPop
track : 10
CDDB : e111e110

Duration: 00:04:40.64, start: 0.000000, bitrate: 1043 kb/s

Stream #0:0, 1, 1/44100: Audio: flac, 44100 Hz, stereo, s16

detected 4 logical cores
[ffplay_abuffer @ 0x7fc62c00c700] Setting 'sample_rate' to value '44100'
[ffplay_abuffer @ 0x7fc62c00c700] Setting 'sample_fmt' to value 's16'
[ffplay_abuffer @ 0x7fc62c00c700] Setting 'channels' to value '2'
[ffplay_abuffer @ 0x7fc62c00c700] Setting 'time_base' to value '1/44100'
[ffplay_abuffer @ 0x7fc62c00c700] Setting 'channel_layout' to value '0x3'
[ffplay_abuffer @ 0x7fc62c00c700] tb:1/44100 samplefmt:s16 samplerate:44100 chlayout:0x3
[AVFilterGraph @ 0x7fc62c00bd60] query_formats: 2 queried, 3 merged, 0 already done, 0 delayed
[flac @ 0x7fc62c000ea0] sample/frame number mismatch in adjacent frames

Last message repeated 3 times

Audio frame changed from rate:44100 ch:2 fmt:s16 layout:stereo serial:-1 to rate:44100 ch:2 fmt:s16 layout:stereo serial:1
[ffplay_abuffer @ 0x7fc620001240] Setting 'sample_rate' to value '44100'
[ffplay_abuffer @ 0x7fc620001240] Setting 'sample_fmt' to value 's16'
[ffplay_abuffer @ 0x7fc620001240] Setting 'channels' to value '2'
[ffplay_abuffer @ 0x7fc620001240] Setting 'time_base' to value '1/44100'
[ffplay_abuffer @ 0x7fc620001240] Setting 'channel_layout' to value '0x3'
[ffplay_abuffer @ 0x7fc620001240] tb:1/44100 samplefmt:s16 samplerate:44100 chlayout:0x3
[AVFilterGraph @ 0x7fc620000dc0] query_formats: 2 queried, 3 merged, 0 already done, 0 delayed
[flac @ 0x7fc62c000ea0] sample/frame number mismatch in adjacent frames

Last message repeated 21 times

[flac @ 0x7fc62c000ea0] sample/frame number mismatch in adjacent frames

Last message repeated 1 times

[flac @ 0x7fc62c000ea0] sample/frame number mismatch in adjacent frames

Last message repeated 1 times

[flac @ 0x7fc62c000ea0] sample/frame number mismatch in adjacent frames

Last message repeated 1 times

[flac @ 0x7fc62c000ea0] sample/frame number mismatch in adjacent frames

Last message repeated 1 times

[flac @ 0x7fc62c000ea0] sample/frame number mismatch in adjacent frames

Last message repeated 1 times

[flac @ 0x7fc62c000ea0] sample/frame number mismatch in adjacent frames

Last message repeated 1 times

[flac @ 0x7fc62c000ea0] sample/frame number mismatch in adjacent frames

Last message repeated 1 times

[flac @ 0x7fc62c000ea0] sample/frame number mismatch in adjacent frames

Last message repeated 1 times

[flac @ 0x7fc62c000ea0] sample/frame number mismatch in adjacent frames

Last message repeated 1 times

[flac @ 0x7fc62c000ea0] sample/frame number mismatch in adjacent frames

Last message repeated 1 times

[flac @ 0x7fc62c000ea0] sample/frame number mismatch in adjacent frames

Last message repeated 1 times

[flac @ 0x7fc62c000ea0] sample/frame number mismatch in adjacent frames

Last message repeated 1 times

[flac @ 0x7fc62c000ea0] sample/frame number mismatch in adjacent frames

Last message repeated 1 times

[flac @ 0x7fc62c000ea0] sample/frame number mismatch in adjacent frames

Last message repeated 1 times

[flac @ 0x7fc62c000ea0] sample/frame number mismatch in adjacent frames

Last message repeated 1 times

[flac @ 0x7fc62c000ea0] sample/frame number mismatch in adjacent frames

Last message repeated 1 times

[flac @ 0x7fc62c0093e0] invalid subframe paddingB sq= 0B f=0/0
[flac @ 0x7fc62c0093e0] decode_frame() failed
[flac @ 0x7fc62c000ea0] sample/frame number mismatch in adjacent frames

Last message repeated 1 times

[flac @ 0x7fc62c000ea0] sample/frame number mismatch in adjacent frames

Last message repeated 1 times

[flac @ 0x7fc62c000ea0] sample/frame number mismatch in adjacent frames

Last message repeated 1 times

[flac @ 0x7fc62c000ea0] sample/frame number mismatch in adjacent frames

Last message repeated 1 times

[flac @ 0x7fc62c0093e0] invalid subframe paddingB sq= 0B f=0/0
[flac @ 0x7fc62c0093e0] decode_frame() failed
[flac @ 0x7fc62c000ea0] sample/frame number mismatch in adjacent frames

Last message repeated 3 times

[flac @ 0x7fc62c000ea0] sample/frame number mismatch in adjacent frames

Last message repeated 1 times

[flac @ 0x7fc62c000ea0] sample/frame number mismatch in adjacent frames

Last message repeated 1 times

[flac @ 0x7fc62c000ea0] sample/frame number mismatch in adjacent frames

Last message repeated 1 times

[flac @ 0x7fc62c000ea0] sample/frame number mismatch in adjacent frames

Last message repeated 3 times

[flac @ 0x7fc62c000ea0] sample/frame number mismatch in adjacent frames

Last message repeated 1 times

[flac @ 0x7fc62c00a7e0] invalid subframe paddingB sq= 0B f=0/0
[flac @ 0x7fc62c00a7e0] decode_frame() failed
[flac @ 0x7fc62c000ea0] sample/frame number mismatch in adjacent frames

Last message repeated 1 times

[flac @ 0x7fc62c000ea0] sample/frame number mismatch in adjacent frames

Last message repeated 1 times

[flac @ 0x7fc62c000ea0] sample/frame number mismatch in adjacent frames

Last message repeated 1 times

[flac @ 0x7fc62c000ea0] sample/frame number mismatch in adjacent frames

Last message repeated 1 times

[flac @ 0x7fc62c00a7e0] invalid subframe paddingB sq= 0B f=0/0
[flac @ 0x7fc62c00a7e0] decode_frame() failed
[flac @ 0x7fc62c000ea0] sample/frame number mismatch in adjacent frames

Last message repeated 3 times

[flac @ 0x7fc62c000ea0] sample/frame number mismatch in adjacent frames

Last message repeated 1 times

[flac @ 0x7fc62c000ea0] sample/frame number mismatch in adjacent frames

Last message repeated 1 times

[flac @ 0x7fc62c008c20] underread: 6275 orig size: 9378 0B f=0/0
[flac @ 0x7fc62c000ea0] sample/frame number mismatch in adjacent frames

Last message repeated 1 times

[flac @ 0x7fc62c000ea0] sample/frame number mismatch in adjacent frames

Last message repeated 3 times

[flac @ 0x7fc62c000ea0] sample/frame number mismatch in adjacent frames

Last message repeated 1 times

[flac @ 0x7fc62c000ea0] sample/frame number mismatch in adjacent frames

Last message repeated 1 times

[flac @ 0x7fc62c000ea0] sample/frame number mismatch in adjacent frames

Last message repeated 1 times

[flac @ 0x7fc62c000ea0] sample/frame number mismatch in adjacent frames

Last message repeated 1 times

[flac @ 0x7fc62c000ea0] sample/frame number mismatch in adjacent frames

Last message repeated 1 times

[flac @ 0x7fc62c000ea0] sample/frame number mismatch in adjacent frames

Last message repeated 1 times

[flac @ 0x7fc62c000ea0] sample/frame number mismatch in adjacent frames

Last message repeated 1 times

[flac @ 0x7fc62c000ea0] sample/frame number mismatch in adjacent frames

Last message repeated 1 times

[flac @ 0x7fc62c000ea0] sample/frame number mismatch in adjacent frames

Last message repeated 1 times

[flac @ 0x7fc62c009d20] underread: 4894 orig size: 9551
[flac @ 0x7fc62c000ea0] sample/frame number mismatch in adjacent frames

Last message repeated 1 times

[flac @ 0x7fc62c000ea0] sample/frame number mismatch in adjacent frames

Last message repeated 1 times

[flac @ 0x7fc62c000ea0] sample/frame number mismatch in adjacent frames

Last message repeated 1 times

[AVIOContext @ 0x7fc62c0015c0] Statistics: 655360 bytes read, 0 seeks

comment:7 Changed 5 years ago by amooze

The patch was to ./libavformat/flacdec.c (does this affect ffplay or not?)

Last edited 5 years ago by amooze (previous) (diff)

comment:8 Changed 5 years ago by amooze

  • Resolution set to fixed
  • Status changed from new to closed

ffplay now plays the file correctly when compiled with gcc-4.8 but not with gcc-4.9.

Last edited 5 years ago by amooze (previous) (diff)

comment:9 Changed 5 years ago by amooze

  • Resolution fixed deleted
  • Status changed from closed to reopened

comment:10 follow-up: Changed 5 years ago by amooze

They symptoms I encounter are similar to what I eperienced with this bug:

https://trac.videolan.org/vlc/ticket/9863

comment:11 in reply to: ↑ 10 Changed 5 years ago by cehoyos

Replying to amooze:

https://trac.videolan.org/vlc/ticket/9863

This does not look related.

If you want this problem fixed, please report it to the gcc developers. Consider adding a link to your gcc bug report here.

If you are searching for a work-around, simply install gcc-4.8.2 (or an older version like gcc-4.7.3).

comment:14 Changed 5 years ago by amooze

All reported problem cases use an inlined function listed here:

http://gcc.gnu.org/bugzilla/show_bug.cgi?id=60902#c20

libavcodec/golomb.h

Last edited 5 years ago by amooze (previous) (diff)

comment:15 Changed 5 years ago by cehoyos

  • Keywords gcc added
  • Resolution set to invalid
  • Status changed from reopened to closed

This is fixed in gcc trunk, thank you for reporting the bug there!
http://gcc.gnu.org/viewcvs/gcc?view=revision&revision=209716

comment:16 Changed 5 years ago by Ajaja

GCC v4.9.1 rev209866 (prerelease), problem is still here:

>ffplay -v 9 -loglevel 99 -i "01 Ballade pour Adeline.flac"
ffplay version N-62765-g8120668 Copyright (c) 2003-2014 the FFmpeg developers
  built on Apr 28 2014 23:47:47 with gcc 4.9.1 (x86_64-posix-seh, Built by MinGW-W64 project) 20140428 (prerelease)
  configuration: --target-os=mingw32 --disable-shared --enable-static --prefix=/mingw64/x86_64-w64-mingw32 --enable-nonfree --enable-libfdk-aac --enable-libwavpack --enable-libx264 --enable-libx265 --enable-libmp3lame --enable-libxvid --enable-libvorbis --enable-libtheora --enable-libvpx --enable-libopus --enable-libspeex --enable-bzlib --enable-zlib --enable-frei0r --enable-libgsm --enable-gpl --extra-cflags='-DPTW32_STATIC_LIB -DLIBTWOLAME_STATIC' --enable-version3 --enable-libopencore-amrnb --enable-libopencore-amrwb --enable-libvo-amrwbenc --enable-libvo-aacenc --enable-libschroedinger --enable-libbluray --enable-libxavs --enable-libsoxr --enable-libfreetype --enable-fontconfig --enable-libass --enable-libopenjpeg --enable-avisynth --enable-libtwolame --enable-libilbc --enable-libcaca --enable-libmodplug --enable-avresample --enable-libcdio --disable-w32threads --enable-gnutls --enable-libvidstab --enable-libnut --enable-dxva2 --enable-opencl --enable-libwebp --enable-opengl --enable-libfaac --enable-librtmp --extra-libs=-lstdc++ --disable-runtime-cpudetect
  libavutil      52. 79.100 / 52. 79.100
  libavcodec     55. 59.100 / 55. 59.100
  libavformat    55. 37.101 / 55. 37.101
  libavdevice    55. 13.100 / 55. 13.100
  libavfilter     4.  4.100 /  4.  4.100
  libavresample   1.  2.  0 /  1.  2.  0
  libswscale      2.  6.100 /  2.  6.100
  libswresample   0. 18.100 /  0. 18.100
  libpostproc    52.  3.100 / 52.  3.100
    nan    :  0.000 fd=   0 aq=    0KB vq=    0KB sq=    0B f=0/0   
[flac @ 00000000005a7920] Format flac probed with size=2048 and score=50
[flac @ 00000000005a7920] Before avformat_find_stream_info() pos: 8282 bytes read:32768 seeks:0
[flac @ 00000000005b9ba0] sample/frame number mismatch in adjacent frames
    Last message repeated 14 times
[flac @ 00000000005a7920] All info found
[flac @ 00000000005a7920] After avformat_find_stream_info() pos: 29786 bytes read:32768 seeks:0 frames:1
Input #0, flac, from '01 Ballade pour Adeline.flac':
  Metadata:
    ALBUM           : Ballade pour Adeline (HQCD)
    ARTIST          : Richard Clayderman
    COMMENT         : ExactAudioCopy v1.0b1
    DATE            : 2012
    DISCID          : 2E0EE815
    GENRE           : New Age
    TITLE           : Ballade pour Adeline
    TRACKTOTAL      : 21
    track           : 1
    REPLAYGAIN_ALBUM_GAIN: -2.73 dB
    REPLAYGAIN_ALBUM_PEAK: 0.965851
    REPLAYGAIN_TRACK_GAIN: -3.69 dB
    REPLAYGAIN_TRACK_PEAK: 0.965576
  Duration: 00:02:41.08, start: 0.000000, bitrate: 807 kb/s
    Stream #0:0, 1, 1/44100: Audio: flac, 44100 Hz, stereo, s16
detected 4 logical cores
[ffplay_abuffer @ 00000000005b0360] Setting 'sample_rate' to value '44100'
[ffplay_abuffer @ 00000000005b0360] Setting 'sample_fmt' to value 's16'
[ffplay_abuffer @ 00000000005b0360] Setting 'channels' to value '2'
[ffplay_abuffer @ 00000000005b0360] Setting 'time_base' to value '1/44100'
[ffplay_abuffer @ 00000000005b0360] Setting 'channel_layout' to value '0x3'
[ffplay_abuffer @ 00000000005b0360] tb:1/44100 samplefmt:s16 samplerate:44100 chlayout:0x3
[AVFilterGraph @ 00000000005b0480] query_formats: 2 queried, 3 merged, 0 already done, 0 delayed
[flac @ 00000000005b9ba0] sample/frame number mismatch in adjacent frames
    Last message repeated 19 times
[flac @ 00000000005dcf60] underread: 1093 orig size: 2237
Audio frame changed from rate:44100 ch:2 fmt:s16 layout:stereo serial:-1 to rate:44100 ch:2 fmt:s16 layout:stereo serial:1
[ffplay_abuffer @ 00000000005b0360] Setting 'sample_rate' to value '44100'
[ffplay_abuffer @ 00000000005b0360] Setting 'sample_fmt' to value 's16'
[ffplay_abuffer @ 00000000005b0360] Setting 'channels' to value '2'
[ffplay_abuffer @ 00000000005b0360] Setting 'time_base' to value '1/44100'
[ffplay_abuffer @ 00000000005b0360] Setting 'channel_layout' to value '0x3'
[ffplay_abuffer @ 00000000005b0360] tb:1/44100 samplefmt:s16 samplerate:44100 chlayout:0x3
[AVFilterGraph @ 00000000005f9860] query_formats: 2 queried, 3 merged, 0 already done, 0 delayed
[flac @ 00000000005b9ba0] sample/frame number mismatch in adjacent frames
    Last message repeated 7 times
   0.40 M-A:  0.000 fd=   0 aq=   20KB vq=    0KB sq=    0B f=0/0   
   0.43 M-A:  0.000 fd=   0 aq=   20KB vq=    0KB sq=    0B f=0/0   
[flac @ 00000000005b9ba0] sample/frame number mismatch in adjacent frames
    Last message repeated 1 times
   0.47 M-A:  0.000 fd=   0 aq=   25KB vq=    0KB sq=    0B f=0/0   
   0.49 M-A:  0.000 fd=   0 aq=   25KB vq=    0KB sq=    0B f=0/0   
   0.52 M-A:  0.000 fd=   0 aq=   25KB vq=    0KB sq=    0B f=0/0   
[flac @ 00000000005b9ba0] sample/frame number mismatch in adjacent frames
    Last message repeated 1 times
   0.56 M-A:  0.000 fd=   0 aq=   30KB vq=    0KB sq=    0B f=0/0   
   0.58 M-A:  0.000 fd=   0 aq=   30KB vq=    0KB sq=    0B f=0/0   
   0.62 M-A:  0.000 fd=   0 aq=   30KB vq=    0KB sq=    0B f=0/0   
[flac @ 00000000005b9ba0] sample/frame number mismatch in adjacent frames
    Last message repeated 1 times
   0.65 M-A:  0.000 fd=   0 aq=   34KB vq=    0KB sq=    0B f=0/0   
   0.68 M-A:  0.000 fd=   0 aq=   34KB vq=    0KB sq=    0B f=0/0   
   0.71 M-A:  0.000 fd=   0 aq=   34KB vq=    0KB sq=    0B f=0/0   
...

comment:17 Changed 5 years ago by heleppkes

Your pre-release build is probably from the 4.9 branch, and not from trunk - the patch in question has not been merged to the branch yet.

Note: See TracTickets for help on using tickets.