Opened 4 years ago

Last modified 4 years ago

#3252 reopened defect

Using -ss before the input file causes WTV stream copy to error with PTS<DTS and av_interleaved_frame_write error

Reported by: ramitbhalla Owned by:
Priority: normal Component: undetermined
Version: git-master Keywords: wtv h264 av_interleaved_write_frame
Cc: Blocked By:
Blocking: Reproduced by developer: no
Analyzed by developer: no

Description

Summary of the bug: When using the -ss parameter before the input file ffmpeg stream copy for WTV breaks with a PTS<DTS error and av_frame_interleaved_write error.
However if I use the -ss after the input file it works fine.

How to reproduce:

ffmpeg -y -ss 10 -i "..\H264 Remuxsupp working.wtv" -vcodec copy -an test.wtv
ffmpeg version N-59362-ge079661 Copyright (c) 2000-2013 the FFmpeg developers
  built on Dec 25 2013 17:42:26 with gcc 4.8.0 (GCC)
  configuration: --arch=x86 --target-os=mingw32 --cross-prefix=/home/mcebuddy/Software/ffmpeg/sandbox/mingw-w64-i686/bin
/i686-w64-mingw32- --pkg-config=pkg-config --enable-gpl --enable-libx264 --enable-avisynth --enable-libxvid --enable-lib
mp3lame --enable-version3 --enable-zlib --enable-librtmp --enable-libvorbis --enable-libtheora --enable-libspeex --enabl
e-libopenjpeg --enable-gnutls --enable-libgsm --enable-libfreetype --enable-libopus --disable-w32threads --enable-frei0r
 --enable-filter=frei0r --enable-libvo-aacenc --enable-bzlib --enable-libxavs --extra-cflags=-DPTW32_STATIC_LIB --enable
-libopencore-amrnb --enable-libopencore-amrwb --enable-libvo-amrwbenc --enable-libschroedinger --enable-libvpx --enable-
libilbc --enable-iconv --enable-libtwolame --extra-cflags=-DLIBTWOLAME_STATIC --enable-libmodplug --extra-libs=-lstdc++
--enable-libzvbi --enable-libcaca --prefix=/home/mcebuddy/Software/ffmpeg/sandbox/mingw-w64-i686/i686-w64-mingw32 --enab
le-static --disable-shared --enable-libsoxr --enable-fontconfig --enable-libass --enable-libutvideo --enable-libbluray -
-extra-cflags= --enable-nonfree --enable-libfdk-aac --enable-runtime-cpudetect
  libavutil      52. 59.100 / 52. 59.100
  libavcodec     55. 46.100 / 55. 46.100
  libavformat    55. 22.100 / 55. 22.100
  libavdevice    55.  5.102 / 55.  5.102
  libavfilter     4.  0.102 /  4.  0.102
  libswscale      2.  5.101 /  2.  5.101
  libswresample   0. 17.104 /  0. 17.104
  libpostproc    52.  3.100 / 52.  3.100
[h264 @ 03d65000] non-existing PPS referenced
[h264 @ 03d65000] non-existing PPS 0 referenced
[h264 @ 03d65000] decode_slice_header error
[h264 @ 03d65000] no frame!
[h264 @ 03d65000] non-existing SPS 0 referenced in buffering period
[h264 @ 03d65000] non-existing PPS referenced
[h264 @ 03d65000] non-existing SPS 0 referenced in buffering period
[h264 @ 03d65000] non-existing PPS 0 referenced
[h264 @ 03d65000] decode_slice_header error
[h264 @ 03d65000] non-existing PPS 0 referenced
[h264 @ 03d65000] decode_slice_header error
[h264 @ 03d65000] non-existing PPS 0 referenced
[h264 @ 03d65000] decode_slice_header error
[h264 @ 03d65000] non-existing PPS 0 referenced
[h264 @ 03d65000] decode_slice_header error
[h264 @ 03d65000] non-existing PPS 0 referenced
[h264 @ 03d65000] decode_slice_header error
[h264 @ 03d65000] non-existing PPS 0 referenced
[h264 @ 03d65000] decode_slice_header error
[h264 @ 03d65000] no frame!
[h264 @ 03d65000] non-existing SPS 0 referenced in buffering period
[h264 @ 03d65000] non-existing PPS referenced
[h264 @ 03d65000] non-existing SPS 0 referenced in buffering period
[h264 @ 03d65000] non-existing PPS 0 referenced
[h264 @ 03d65000] decode_slice_header error
[h264 @ 03d65000] non-existing PPS 0 referenced
[h264 @ 03d65000] decode_slice_header error
[h264 @ 03d65000] non-existing PPS 0 referenced
[h264 @ 03d65000] decode_slice_header error
[h264 @ 03d65000] non-existing PPS 0 referenced
[h264 @ 03d65000] decode_slice_header error
[h264 @ 03d65000] non-existing PPS 0 referenced
[h264 @ 03d65000] decode_slice_header error
[h264 @ 03d65000] non-existing PPS 0 referenced
[h264 @ 03d65000] decode_slice_header error
[h264 @ 03d65000] no frame!
[h264 @ 03d65000] non-existing SPS 0 referenced in buffering period
[h264 @ 03d65000] non-existing PPS referenced
[h264 @ 03d65000] non-existing SPS 0 referenced in buffering period
[h264 @ 03d65000] non-existing PPS 0 referenced
[h264 @ 03d65000] decode_slice_header error
[h264 @ 03d65000] non-existing PPS 0 referenced
[h264 @ 03d65000] decode_slice_header error
[h264 @ 03d65000] non-existing PPS 0 referenced
[h264 @ 03d65000] decode_slice_header error
[h264 @ 03d65000] non-existing PPS 0 referenced
[h264 @ 03d65000] decode_slice_header error
[h264 @ 03d65000] non-existing PPS 0 referenced
[h264 @ 03d65000] decode_slice_header error
[h264 @ 03d65000] non-existing PPS 0 referenced
[h264 @ 03d65000] decode_slice_header error
[h264 @ 03d65000] no frame!
[h264 @ 03d65000] non-existing SPS 0 referenced in buffering period
[h264 @ 03d65000] non-existing PPS referenced
[h264 @ 03d65000] non-existing SPS 0 referenced in buffering period
[h264 @ 03d65000] non-existing PPS 0 referenced
[h264 @ 03d65000] decode_slice_header error
[h264 @ 03d65000] non-existing PPS 0 referenced
[h264 @ 03d65000] decode_slice_header error
[h264 @ 03d65000] non-existing PPS 0 referenced
[h264 @ 03d65000] decode_slice_header error
[h264 @ 03d65000] non-existing PPS 0 referenced
[h264 @ 03d65000] decode_slice_header error
[h264 @ 03d65000] non-existing PPS 0 referenced
[h264 @ 03d65000] decode_slice_header error
[h264 @ 03d65000] non-existing PPS 0 referenced
[h264 @ 03d65000] decode_slice_header error
[h264 @ 03d65000] no frame!
[h264 @ 03d65000] non-existing SPS 0 referenced in buffering period
[h264 @ 03d65000] non-existing PPS referenced
[h264 @ 03d65000] non-existing SPS 0 referenced in buffering period
[h264 @ 03d65000] non-existing PPS 0 referenced
[h264 @ 03d65000] decode_slice_header error
[h264 @ 03d65000] non-existing PPS 0 referenced
[h264 @ 03d65000] decode_slice_header error
[h264 @ 03d65000] non-existing PPS 0 referenced
[h264 @ 03d65000] decode_slice_header error
[h264 @ 03d65000] non-existing PPS 0 referenced
[h264 @ 03d65000] decode_slice_header error
[h264 @ 03d65000] non-existing PPS 0 referenced
[h264 @ 03d65000] decode_slice_header error
[h264 @ 03d65000] non-existing PPS 0 referenced
[h264 @ 03d65000] decode_slice_header error
[h264 @ 03d65000] no frame!
[h264 @ 03d65000] non-existing SPS 0 referenced in buffering period
[h264 @ 03d65000] non-existing PPS referenced
[h264 @ 03d65000] non-existing SPS 0 referenced in buffering period
[h264 @ 03d65000] non-existing PPS 0 referenced
[h264 @ 03d65000] decode_slice_header error
[h264 @ 03d65000] non-existing PPS 0 referenced
[h264 @ 03d65000] decode_slice_header error
[h264 @ 03d65000] non-existing PPS 0 referenced
[h264 @ 03d65000] decode_slice_header error
[h264 @ 03d65000] non-existing PPS 0 referenced
[h264 @ 03d65000] decode_slice_header error
[h264 @ 03d65000] non-existing PPS 0 referenced
[h264 @ 03d65000] decode_slice_header error
[h264 @ 03d65000] non-existing PPS 0 referenced
[h264 @ 03d65000] decode_slice_header error
[h264 @ 03d65000] no frame!
[h264 @ 03d65000] non-existing SPS 0 referenced in buffering period
[h264 @ 03d65000] non-existing PPS referenced
[h264 @ 03d65000] non-existing SPS 0 referenced in buffering period
[h264 @ 03d65000] non-existing PPS 0 referenced
[h264 @ 03d65000] decode_slice_header error
[h264 @ 03d65000] non-existing PPS 0 referenced
[h264 @ 03d65000] decode_slice_header error
[h264 @ 03d65000] non-existing PPS 0 referenced
[h264 @ 03d65000] decode_slice_header error
[h264 @ 03d65000] non-existing PPS 0 referenced
[h264 @ 03d65000] decode_slice_header error
[h264 @ 03d65000] non-existing PPS 0 referenced
[h264 @ 03d65000] decode_slice_header error
[h264 @ 03d65000] non-existing PPS 0 referenced
[h264 @ 03d65000] decode_slice_header error
[h264 @ 03d65000] no frame!
[h264 @ 03d65000] non-existing SPS 0 referenced in buffering period
[h264 @ 03d65000] non-existing PPS referenced
[h264 @ 03d65000] non-existing SPS 0 referenced in buffering period
[h264 @ 03d65000] non-existing PPS 0 referenced
[h264 @ 03d65000] decode_slice_header error
[h264 @ 03d65000] non-existing PPS 0 referenced
[h264 @ 03d65000] decode_slice_header error
[h264 @ 03d65000] non-existing PPS 0 referenced
[h264 @ 03d65000] decode_slice_header error
[h264 @ 03d65000] non-existing PPS 0 referenced
[h264 @ 03d65000] decode_slice_header error
[h264 @ 03d65000] non-existing PPS 0 referenced
[h264 @ 03d65000] decode_slice_header error
[h264 @ 03d65000] non-existing PPS 0 referenced
[h264 @ 03d65000] decode_slice_header error
[h264 @ 03d65000] no frame!
[h264 @ 03d65000] non-existing SPS 0 referenced in buffering period
[h264 @ 03d65000] non-existing PPS referenced
[h264 @ 03d65000] non-existing SPS 0 referenced in buffering period
[h264 @ 03d65000] non-existing PPS 0 referenced
[h264 @ 03d65000] decode_slice_header error
[h264 @ 03d65000] non-existing PPS 0 referenced
[h264 @ 03d65000] decode_slice_header error
[h264 @ 03d65000] non-existing PPS 0 referenced
[h264 @ 03d65000] decode_slice_header error
[h264 @ 03d65000] non-existing PPS 0 referenced
[h264 @ 03d65000] decode_slice_header error
[h264 @ 03d65000] non-existing PPS 0 referenced
[h264 @ 03d65000] decode_slice_header error
[h264 @ 03d65000] non-existing PPS 0 referenced
[h264 @ 03d65000] decode_slice_header error
[h264 @ 03d65000] no frame!
[h264 @ 03d65000] non-existing SPS 0 referenced in buffering period
[h264 @ 03d65000] non-existing PPS referenced
[h264 @ 03d65000] non-existing SPS 0 referenced in buffering period
[h264 @ 03d65000] non-existing PPS 0 referenced
[h264 @ 03d65000] decode_slice_header error
[h264 @ 03d65000] non-existing PPS 0 referenced
[h264 @ 03d65000] decode_slice_header error
[h264 @ 03d65000] non-existing PPS 0 referenced
[h264 @ 03d65000] decode_slice_header error
[h264 @ 03d65000] non-existing PPS 0 referenced
[h264 @ 03d65000] decode_slice_header error
[h264 @ 03d65000] non-existing PPS 0 referenced
[h264 @ 03d65000] decode_slice_header error
[h264 @ 03d65000] non-existing PPS 0 referenced
[h264 @ 03d65000] decode_slice_header error
[h264 @ 03d65000] no frame!
[h264 @ 03d65000] non-existing SPS 0 referenced in buffering period
[h264 @ 03d65000] non-existing PPS referenced
[h264 @ 03d65000] non-existing SPS 0 referenced in buffering period
[h264 @ 03d65000] non-existing PPS 0 referenced
[h264 @ 03d65000] decode_slice_header error
[h264 @ 03d65000] non-existing PPS 0 referenced
[h264 @ 03d65000] decode_slice_header error
[h264 @ 03d65000] non-existing PPS 0 referenced
[h264 @ 03d65000] decode_slice_header error
[h264 @ 03d65000] non-existing PPS 0 referenced
[h264 @ 03d65000] decode_slice_header error
[h264 @ 03d65000] non-existing PPS 0 referenced
[h264 @ 03d65000] decode_slice_header error
[h264 @ 03d65000] non-existing PPS 0 referenced
[h264 @ 03d65000] decode_slice_header error
[h264 @ 03d65000] no frame!
[h264 @ 03d65000] non-existing SPS 0 referenced in buffering period
[h264 @ 03d65000] non-existing PPS referenced
[h264 @ 03d65000] non-existing SPS 0 referenced in buffering period
[h264 @ 03d65000] non-existing PPS 0 referenced
[h264 @ 03d65000] decode_slice_header error
[h264 @ 03d65000] non-existing PPS 0 referenced
[h264 @ 03d65000] decode_slice_header error
[h264 @ 03d65000] non-existing PPS 0 referenced
[h264 @ 03d65000] decode_slice_header error
[h264 @ 03d65000] non-existing PPS 0 referenced
[h264 @ 03d65000] decode_slice_header error
[h264 @ 03d65000] non-existing PPS 0 referenced
[h264 @ 03d65000] decode_slice_header error
[h264 @ 03d65000] non-existing PPS 0 referenced
[h264 @ 03d65000] decode_slice_header error
[h264 @ 03d65000] no frame!
[h264 @ 03d65000] non-existing SPS 0 referenced in buffering period
[h264 @ 03d65000] non-existing PPS referenced
[h264 @ 03d65000] non-existing SPS 0 referenced in buffering period
[h264 @ 03d65000] non-existing PPS 0 referenced
[h264 @ 03d65000] decode_slice_header error
[h264 @ 03d65000] non-existing PPS 0 referenced
[h264 @ 03d65000] decode_slice_header error
[h264 @ 03d65000] non-existing PPS 0 referenced
[h264 @ 03d65000] decode_slice_header error
[h264 @ 03d65000] non-existing PPS 0 referenced
[h264 @ 03d65000] decode_slice_header error
[h264 @ 03d65000] non-existing PPS 0 referenced
[h264 @ 03d65000] decode_slice_header error
[h264 @ 03d65000] non-existing PPS 0 referenced
[h264 @ 03d65000] decode_slice_header error
[h264 @ 03d65000] no frame!
[h264 @ 03d65000] non-existing SPS 0 referenced in buffering period
[h264 @ 03d65000] non-existing PPS referenced
[h264 @ 03d65000] non-existing SPS 0 referenced in buffering period
[h264 @ 03d65000] non-existing PPS 0 referenced
[h264 @ 03d65000] decode_slice_header error
[h264 @ 03d65000] non-existing PPS 0 referenced
[h264 @ 03d65000] decode_slice_header error
[h264 @ 03d65000] non-existing PPS 0 referenced
[h264 @ 03d65000] decode_slice_header error
[h264 @ 03d65000] non-existing PPS 0 referenced
[h264 @ 03d65000] decode_slice_header error
[h264 @ 03d65000] non-existing PPS 0 referenced
[h264 @ 03d65000] decode_slice_header error
[h264 @ 03d65000] non-existing PPS 0 referenced
[h264 @ 03d65000] decode_slice_header error
[h264 @ 03d65000] no frame!
[h264 @ 03d65000] non-existing SPS 0 referenced in buffering period
[h264 @ 03d65000] non-existing PPS referenced
[h264 @ 03d65000] non-existing SPS 0 referenced in buffering period
[h264 @ 03d65000] non-existing PPS 0 referenced
[h264 @ 03d65000] decode_slice_header error
[h264 @ 03d65000] non-existing PPS 0 referenced
[h264 @ 03d65000] decode_slice_header error
[h264 @ 03d65000] non-existing PPS 0 referenced
[h264 @ 03d65000] decode_slice_header error
[h264 @ 03d65000] non-existing PPS 0 referenced
[h264 @ 03d65000] decode_slice_header error
[h264 @ 03d65000] non-existing PPS 0 referenced
[h264 @ 03d65000] decode_slice_header error
[h264 @ 03d65000] non-existing PPS 0 referenced
[h264 @ 03d65000] decode_slice_header error
[h264 @ 03d65000] no frame!
[h264 @ 03d65000] mmco: unref short failure
[h264 @ 03d65000] number of reference frames (0+5) exceeds max (4; probably corrupt input), discarding one
Input #0, wtv, from '..\H264 Remuxsupp working.wtv':
  Metadata:
    Tuner ID        : 34FE29F6-56B4-4E0D-9EAF-42A888D218E5
    WM/MediaClassPrimaryID: db9830bd-3ab3-4fab-8a371a995f7ff74
    WM/MediaClassSecondaryID: ba7f258a-62f7-47a9-b21f4651c42a000
    Title           : F1: Grand Prix
    WM/SubTitle     : Canada
    WM/SubTitleDescription: Suzi Perry presents live coverage of the Canadian Grand Prix from Montreal. The Circuit Gill
es Villeneuve has been a happy hunting ground for Lewis Hamilton in recent years. In 2012 he won his third Grand Prix th
ere thanks to a sparkling performance in hi
    genre           : Motor Sport;Sport;4 Star;Motor Cars;Motorcars;F1;Formula 1;Formula One
    WM/OriginalReleaseTime: 0
    WM/MediaCredits : ;;;
    service_provider: BBC 1
    service_name    : BBC 1
    WM/MediaNetworkAffiliation: dvblink
    WM/MediaOriginalChannel: 1
    WM/MediaOriginalChannelSubNumber: 0
    WM/MediaOriginalBroadcastDateTime: 0001-01-01T00:00:00Z
    WM/MediaOriginalRunTime: 108574852334
    WM/MediaIsStereo: false
    WM/MediaIsRepeat: false
    WM/MediaIsLive  : false
    WM/MediaIsTape  : false
    WM/MediaIsDelay : false
    WM/MediaIsSubtitled: false
    WM/MediaIsMovie : false
    WM/MediaIsPremiere: false
    WM/MediaIsFinale: false
    WM/MediaIsSAP   : false
    WM/MediaIsSport : false
    WM/ParentalRating: ***
    WM/Provider     : MediaCenterDefault
    WM/ProviderRating: ***
    WM/VideoClosedCaptioning: false
    WM/WMRVEncodeTime: 2013-06-09 17:14:02
    WM/WMRVSeriesUID: !GenericSeries!F1: Grand Prix
    WM/WMRVServiceID: !Generated!d1fde876482445b185fc66163596f081
    WM/WMRVProgramID: !Generated!3c46c811de7e47ad98415c5f628663dc
    WM/WMRVRequestID: 0
    WM/WMRVScheduleItemID: 0
    WM/WMRVQuality  : 0
    WM/WMRVOriginalSoftPrePadding: 360
    WM/WMRVOriginalSoftPostPadding: 300
    WM/WMRVHardPrePadding: -300
    WM/WMRVHardPostPadding: 0
    WM/WMRVATSCContent: false
    WM/WMRVDTVContent: true
    WM/WMRVHDContent: true
    Duration        : 5705690788
    WM/WMRVEndTime  : 2013-06-09 17:23:33
    WM/WMRVBitrate  : 14.422836
    WM/WMRVKeepUntil: -1
    WM/WMRVActualSoftPrePadding: 357
    WM/WMRVActualSoftPostPadding: -9986
    WM/WMRVContentProtected: false
    WM/WMRVContentProtectedPercent: 0
    WM/WMRVExpirationSpan: 9223372036854775807
    WM/WMRVInBandRatingSystem: 255
    WM/WMRVInBandRatingLevel: 255
    WM/WMRVInBandRatingAttributes: 0
    WM/WMRVWatched  : false
    WM/MediaThumbWidth: 352
    WM/MediaThumbHeight: 198
    WM/MediaThumbStride: 1056
    WM/MediaThumbRet: 0
    WM/MediaThumbRatingSystem: 255
    WM/MediaThumbRatingLevel: 255
    WM/MediaThumbRatingAttributes: 0
    WM/MediaThumbAspectRatioX: 1920
    WM/MediaThumbAspectRatioY: 1080
    WM/MediaThumbTimeStamp: 4646727600202711928
  Duration: 00:09:29.72, start: 2866.580118, bitrate: 14444 kb/s
    Stream #0:0[0x55](eng): Subtitle: dvb_subtitle
    Stream #0:1[0x56](eng): Subtitle: dvb_teletext, 492x250
    Stream #0:2[0x57](eng): Audio: ac3, 48000 Hz, 5.1(side), fltp, 384 kb/s
    Stream #0:3[0x58](nar): Audio: mp2 (P[0][0][0] / 0x0050), 48000 Hz, stereo, s16p, 256 kb/s (visual impaired)
    Stream #0:4[0x59]: Video: h264 (High), yuv420p(tv, bt709), 1920x1080 [SAR 1:1 DAR 16:9], 25 fps, 25 tbr, 10000k tbn,
 50 tbc
    Stream #0:5[0xffffffff]: Video: mjpeg, yuvj420p(pc), 200x113 [SAR 96:96 DAR 200:113], 90k tbr, 90k tbn, 90k tbc
    Metadata:
      title           : TV Thumbnail
Output #0, wtv, to 'test.wtv':
  Metadata:
    Tuner ID        : 34FE29F6-56B4-4E0D-9EAF-42A888D218E5
    WM/MediaClassPrimaryID: db9830bd-3ab3-4fab-8a371a995f7ff74
    WM/MediaClassSecondaryID: ba7f258a-62f7-47a9-b21f4651c42a000
    Title           : F1: Grand Prix
    WM/SubTitle     : Canada
    WM/SubTitleDescription: Suzi Perry presents live coverage of the Canadian Grand Prix from Montreal. The Circuit Gill
es Villeneuve has been a happy hunting ground for Lewis Hamilton in recent years. In 2012 he won his third Grand Prix th
ere thanks to a sparkling performance in hi
    genre           : Motor Sport;Sport;4 Star;Motor Cars;Motorcars;F1;Formula 1;Formula One
    WM/OriginalReleaseTime: 0
    WM/MediaCredits : ;;;
    service_provider: BBC 1
    service_name    : BBC 1
    WM/MediaNetworkAffiliation: dvblink
    WM/MediaOriginalChannel: 1
    WM/MediaOriginalChannelSubNumber: 0
    WM/MediaOriginalBroadcastDateTime: 0001-01-01T00:00:00Z
    WM/MediaOriginalRunTime: 108574852334
    WM/MediaIsStereo: false
    WM/MediaIsRepeat: false
    WM/MediaIsLive  : false
    WM/MediaIsTape  : false
    WM/MediaIsDelay : false
    WM/MediaIsSubtitled: false
    WM/MediaIsMovie : false
    WM/MediaIsPremiere: false
    WM/MediaIsFinale: false
    WM/MediaIsSAP   : false
    WM/MediaIsSport : false
    WM/ParentalRating: ***
    WM/Provider     : MediaCenterDefault
    WM/ProviderRating: ***
    WM/VideoClosedCaptioning: false
    WM/WMRVEncodeTime: 2013-06-09 17:14:02
    WM/WMRVSeriesUID: !GenericSeries!F1: Grand Prix
    WM/WMRVServiceID: !Generated!d1fde876482445b185fc66163596f081
    WM/WMRVProgramID: !Generated!3c46c811de7e47ad98415c5f628663dc
    WM/WMRVRequestID: 0
    WM/WMRVScheduleItemID: 0
    WM/WMRVQuality  : 0
    WM/WMRVOriginalSoftPrePadding: 360
    WM/WMRVOriginalSoftPostPadding: 300
    WM/WMRVHardPrePadding: -300
    WM/WMRVHardPostPadding: 0
    WM/WMRVATSCContent: false
    WM/WMRVDTVContent: true
    WM/WMRVHDContent: true
    Duration        : 5705690788
    WM/WMRVEndTime  : 2013-06-09 17:23:33
    WM/WMRVBitrate  : 14.422836
    WM/WMRVKeepUntil: -1
    WM/WMRVActualSoftPrePadding: 357
    WM/WMRVActualSoftPostPadding: -9986
    WM/WMRVContentProtected: false
    WM/WMRVContentProtectedPercent: 0
    WM/WMRVExpirationSpan: 9223372036854775807
    WM/WMRVInBandRatingSystem: 255
    WM/WMRVInBandRatingLevel: 255
    WM/WMRVInBandRatingAttributes: 0
    WM/WMRVWatched  : false
    WM/MediaThumbWidth: 352
    WM/MediaThumbHeight: 198
    WM/MediaThumbStride: 1056
    WM/MediaThumbRet: 0
    WM/MediaThumbRatingSystem: 255
    WM/MediaThumbRatingLevel: 255
    WM/MediaThumbRatingAttributes: 0
    WM/MediaThumbAspectRatioX: 1920
    WM/MediaThumbAspectRatioY: 1080
    WM/MediaThumbTimeStamp: 4646727600202711928
    encoder         : Lavf55.22.100
    Stream #0:0: Video: h264 (H264 / 0x34363248), yuv420p, 1920x1080 [SAR 1:1 DAR 16:9], q=2-31, 25 fps, 10000k tbn, 25
tbc
Stream mapping:
  Stream #0:4 -> #0:0 (copy)
Press [q] to stop, [?] for help
[wtv @ 03d84b40] pts (12251328) < dts (13051330) in stream 0
av_interleaved_write_frame(): Invalid argument

Change History (7)

comment:1 Changed 4 years ago by ramitbhalla

Also, the same issue happens when concatenating multiple wtv files (after splitting them into smaller pieces) using the concat demuxer (-f concat). It happens even if the -avoid_negative_ts 1 flag is used along with the concat demuxer.

comment:2 Changed 4 years ago by cehoyos

  • Resolution set to needs_more_info
  • Status changed from new to closed

Feel free to reopen this ticket if you can provide (or point to) a sample.

comment:3 Changed 4 years ago by ramitbhalla

Uploaded ticket#3252.wtv (the smallest chunk to replicate the above command)

comment:4 Changed 4 years ago by ramitbhalla

  • Resolution needs_more_info deleted
  • Status changed from closed to reopened

comment:5 Changed 4 years ago by cehoyos

  • Keywords wtv h264 av_interleaved_write_frame added
  • Version changed from unspecified to git-master

Looks like a duplicate of ticket #2220 to me, possibly related to #2398.

comment:6 follow-up: Changed 4 years ago by ramitbhalla

Maybe but one difference I noticed in #2220 the value of -ss matters.
In this case -ss 1 or -ss 10 both lead to an issue.

comment:7 in reply to: ↑ 6 Changed 4 years ago by cehoyos

Replying to ramitbhalla:

Maybe but one difference I noticed

(I don't see it.)

in #2220 the value of -ss matters.

True

In this case -ss 1 or -ss 10 both lead to an issue.

-ss 1 works fine here:

$ ffmpeg -ss 1 -i ticket#3252.WTV -vcodec copy -an out.wtv
ffmpeg version N-59458-g21a2fb7 Copyright (c) 2000-2013 the FFmpeg developers
  built on Dec 31 2013 18:55:10 with gcc 4.7 (SUSE Linux)
  configuration: --enable-gpl
  libavutil      52. 59.100 / 52. 59.100
  libavcodec     55. 47.100 / 55. 47.100
  libavformat    55. 22.102 / 55. 22.102
  libavdevice    55.  5.102 / 55.  5.102
  libavfilter     4.  0.103 /  4.  0.103
  libswscale      2.  5.101 /  2.  5.101
  libswresample   0. 17.104 /  0. 17.104
  libpostproc    52.  3.100 / 52.  3.100
[wtv @ 0x2448900] truncated file
[wtv @ 0x2448900] reported file length (0x3d45068d) exceeds number of available sectors (0x30000000)
[wtv @ 0x2448900] truncated file
    Last message repeated 2 times
[mjpeg @ 0x24681e0] overread 8
[mjpeg @ 0x24681e0] EOI missing, emulating
[h264 @ 0x244f600] non-existing PPS referenced
[h264 @ 0x244f600] non-existing PPS 0 referenced
[h264 @ 0x244f600] decode_slice_header error
[h264 @ 0x244f600] no frame!
[h264 @ 0x244f600] non-existing SPS 0 referenced in buffering period
[h264 @ 0x244f600] non-existing PPS referenced
[h264 @ 0x244f600] non-existing SPS 0 referenced in buffering period
[h264 @ 0x244f600] non-existing PPS 0 referenced
[h264 @ 0x244f600] decode_slice_header error
[h264 @ 0x244f600] non-existing PPS 0 referenced
[h264 @ 0x244f600] decode_slice_header error
[h264 @ 0x244f600] non-existing PPS 0 referenced
[h264 @ 0x244f600] decode_slice_header error
[h264 @ 0x244f600] non-existing PPS 0 referenced
[h264 @ 0x244f600] decode_slice_header error
[h264 @ 0x244f600] non-existing PPS 0 referenced
[h264 @ 0x244f600] decode_slice_header error
[h264 @ 0x244f600] non-existing PPS 0 referenced
[h264 @ 0x244f600] decode_slice_header error
[h264 @ 0x244f600] no frame!
[h264 @ 0x244f600] non-existing SPS 0 referenced in buffering period
[h264 @ 0x244f600] non-existing PPS referenced
[h264 @ 0x244f600] non-existing SPS 0 referenced in buffering period
[h264 @ 0x244f600] non-existing PPS 0 referenced
[h264 @ 0x244f600] decode_slice_header error
[h264 @ 0x244f600] non-existing PPS 0 referenced
[h264 @ 0x244f600] decode_slice_header error
[h264 @ 0x244f600] non-existing PPS 0 referenced
[h264 @ 0x244f600] decode_slice_header error
[h264 @ 0x244f600] non-existing PPS 0 referenced
[h264 @ 0x244f600] decode_slice_header error
[h264 @ 0x244f600] non-existing PPS 0 referenced
[h264 @ 0x244f600] decode_slice_header error
[h264 @ 0x244f600] non-existing PPS 0 referenced
[h264 @ 0x244f600] decode_slice_header error
[h264 @ 0x244f600] no frame!
[h264 @ 0x244f600] non-existing SPS 0 referenced in buffering period
[h264 @ 0x244f600] non-existing PPS referenced
[h264 @ 0x244f600] non-existing SPS 0 referenced in buffering period
[h264 @ 0x244f600] non-existing PPS 0 referenced
[h264 @ 0x244f600] decode_slice_header error
[h264 @ 0x244f600] non-existing PPS 0 referenced
[h264 @ 0x244f600] decode_slice_header error
[h264 @ 0x244f600] non-existing PPS 0 referenced
[h264 @ 0x244f600] decode_slice_header error
[h264 @ 0x244f600] non-existing PPS 0 referenced
[h264 @ 0x244f600] decode_slice_header error
[h264 @ 0x244f600] non-existing PPS 0 referenced
[h264 @ 0x244f600] decode_slice_header error
[h264 @ 0x244f600] non-existing PPS 0 referenced
[h264 @ 0x244f600] decode_slice_header error
[h264 @ 0x244f600] no frame!
[h264 @ 0x244f600] non-existing SPS 0 referenced in buffering period
[h264 @ 0x244f600] non-existing PPS referenced
[h264 @ 0x244f600] non-existing SPS 0 referenced in buffering period
[h264 @ 0x244f600] non-existing PPS 0 referenced
[h264 @ 0x244f600] decode_slice_header error
[h264 @ 0x244f600] non-existing PPS 0 referenced
[h264 @ 0x244f600] decode_slice_header error
[h264 @ 0x244f600] non-existing PPS 0 referenced
[h264 @ 0x244f600] decode_slice_header error
[h264 @ 0x244f600] non-existing PPS 0 referenced
[h264 @ 0x244f600] decode_slice_header error
[h264 @ 0x244f600] non-existing PPS 0 referenced
[h264 @ 0x244f600] decode_slice_header error
[h264 @ 0x244f600] non-existing PPS 0 referenced
[h264 @ 0x244f600] decode_slice_header error
[h264 @ 0x244f600] no frame!
[h264 @ 0x244f600] non-existing SPS 0 referenced in buffering period
[h264 @ 0x244f600] non-existing PPS referenced
[h264 @ 0x244f600] non-existing SPS 0 referenced in buffering period
[h264 @ 0x244f600] non-existing PPS 0 referenced
[h264 @ 0x244f600] decode_slice_header error
[h264 @ 0x244f600] non-existing PPS 0 referenced
[h264 @ 0x244f600] decode_slice_header error
[h264 @ 0x244f600] non-existing PPS 0 referenced
[h264 @ 0x244f600] decode_slice_header error
[h264 @ 0x244f600] non-existing PPS 0 referenced
[h264 @ 0x244f600] decode_slice_header error
[h264 @ 0x244f600] non-existing PPS 0 referenced
[h264 @ 0x244f600] decode_slice_header error
[h264 @ 0x244f600] non-existing PPS 0 referenced
[h264 @ 0x244f600] decode_slice_header error
[h264 @ 0x244f600] no frame!
[h264 @ 0x244f600] non-existing SPS 0 referenced in buffering period
[h264 @ 0x244f600] non-existing PPS referenced
[h264 @ 0x244f600] non-existing SPS 0 referenced in buffering period
[h264 @ 0x244f600] non-existing PPS 0 referenced
[h264 @ 0x244f600] decode_slice_header error
[h264 @ 0x244f600] non-existing PPS 0 referenced
[h264 @ 0x244f600] decode_slice_header error
[h264 @ 0x244f600] non-existing PPS 0 referenced
[h264 @ 0x244f600] decode_slice_header error
[h264 @ 0x244f600] non-existing PPS 0 referenced
[h264 @ 0x244f600] decode_slice_header error
[h264 @ 0x244f600] non-existing PPS 0 referenced
[h264 @ 0x244f600] decode_slice_header error
[h264 @ 0x244f600] non-existing PPS 0 referenced
[h264 @ 0x244f600] decode_slice_header error
[h264 @ 0x244f600] no frame!
[h264 @ 0x244f600] non-existing SPS 0 referenced in buffering period
[h264 @ 0x244f600] non-existing PPS referenced
[h264 @ 0x244f600] non-existing SPS 0 referenced in buffering period
[h264 @ 0x244f600] non-existing PPS 0 referenced
[h264 @ 0x244f600] decode_slice_header error
[h264 @ 0x244f600] non-existing PPS 0 referenced
[h264 @ 0x244f600] decode_slice_header error
[h264 @ 0x244f600] non-existing PPS 0 referenced
[h264 @ 0x244f600] decode_slice_header error
[h264 @ 0x244f600] non-existing PPS 0 referenced
[h264 @ 0x244f600] decode_slice_header error
[h264 @ 0x244f600] non-existing PPS 0 referenced
[h264 @ 0x244f600] decode_slice_header error
[h264 @ 0x244f600] non-existing PPS 0 referenced
[h264 @ 0x244f600] decode_slice_header error
[h264 @ 0x244f600] no frame!
[h264 @ 0x244f600] non-existing SPS 0 referenced in buffering period
[h264 @ 0x244f600] non-existing PPS referenced
[h264 @ 0x244f600] non-existing SPS 0 referenced in buffering period
[h264 @ 0x244f600] non-existing PPS 0 referenced
[h264 @ 0x244f600] decode_slice_header error
[h264 @ 0x244f600] non-existing PPS 0 referenced
[h264 @ 0x244f600] decode_slice_header error
[h264 @ 0x244f600] non-existing PPS 0 referenced
[h264 @ 0x244f600] decode_slice_header error
[h264 @ 0x244f600] non-existing PPS 0 referenced
[h264 @ 0x244f600] decode_slice_header error
[h264 @ 0x244f600] non-existing PPS 0 referenced
[h264 @ 0x244f600] decode_slice_header error
[h264 @ 0x244f600] non-existing PPS 0 referenced
[h264 @ 0x244f600] decode_slice_header error
[h264 @ 0x244f600] no frame!
[h264 @ 0x244f600] non-existing SPS 0 referenced in buffering period
[h264 @ 0x244f600] non-existing PPS referenced
[h264 @ 0x244f600] non-existing SPS 0 referenced in buffering period
[h264 @ 0x244f600] non-existing PPS 0 referenced
[h264 @ 0x244f600] decode_slice_header error
[h264 @ 0x244f600] non-existing PPS 0 referenced
[h264 @ 0x244f600] decode_slice_header error
[h264 @ 0x244f600] non-existing PPS 0 referenced
[h264 @ 0x244f600] decode_slice_header error
[h264 @ 0x244f600] non-existing PPS 0 referenced
[h264 @ 0x244f600] decode_slice_header error
[h264 @ 0x244f600] non-existing PPS 0 referenced
[h264 @ 0x244f600] decode_slice_header error
[h264 @ 0x244f600] non-existing PPS 0 referenced
[h264 @ 0x244f600] decode_slice_header error
[h264 @ 0x244f600] no frame!
[h264 @ 0x244f600] non-existing SPS 0 referenced in buffering period
[h264 @ 0x244f600] non-existing PPS referenced
[h264 @ 0x244f600] non-existing SPS 0 referenced in buffering period
[h264 @ 0x244f600] non-existing PPS 0 referenced
[h264 @ 0x244f600] decode_slice_header error
[h264 @ 0x244f600] non-existing PPS 0 referenced
[h264 @ 0x244f600] decode_slice_header error
[h264 @ 0x244f600] non-existing PPS 0 referenced
[h264 @ 0x244f600] decode_slice_header error
[h264 @ 0x244f600] non-existing PPS 0 referenced
[h264 @ 0x244f600] decode_slice_header error
[h264 @ 0x244f600] non-existing PPS 0 referenced
[h264 @ 0x244f600] decode_slice_header error
[h264 @ 0x244f600] non-existing PPS 0 referenced
[h264 @ 0x244f600] decode_slice_header error
[h264 @ 0x244f600] no frame!
[h264 @ 0x244f600] non-existing SPS 0 referenced in buffering period
[h264 @ 0x244f600] non-existing PPS referenced
[h264 @ 0x244f600] non-existing SPS 0 referenced in buffering period
[h264 @ 0x244f600] non-existing PPS 0 referenced
[h264 @ 0x244f600] decode_slice_header error
[h264 @ 0x244f600] non-existing PPS 0 referenced
[h264 @ 0x244f600] decode_slice_header error
[h264 @ 0x244f600] non-existing PPS 0 referenced
[h264 @ 0x244f600] decode_slice_header error
[h264 @ 0x244f600] non-existing PPS 0 referenced
[h264 @ 0x244f600] decode_slice_header error
[h264 @ 0x244f600] non-existing PPS 0 referenced
[h264 @ 0x244f600] decode_slice_header error
[h264 @ 0x244f600] non-existing PPS 0 referenced
[h264 @ 0x244f600] decode_slice_header error
[h264 @ 0x244f600] no frame!
[h264 @ 0x244f600] non-existing SPS 0 referenced in buffering period
[h264 @ 0x244f600] non-existing PPS referenced
[h264 @ 0x244f600] non-existing SPS 0 referenced in buffering period
[h264 @ 0x244f600] non-existing PPS 0 referenced
[h264 @ 0x244f600] decode_slice_header error
[h264 @ 0x244f600] non-existing PPS 0 referenced
[h264 @ 0x244f600] decode_slice_header error
[h264 @ 0x244f600] non-existing PPS 0 referenced
[h264 @ 0x244f600] decode_slice_header error
[h264 @ 0x244f600] non-existing PPS 0 referenced
[h264 @ 0x244f600] decode_slice_header error
[h264 @ 0x244f600] non-existing PPS 0 referenced
[h264 @ 0x244f600] decode_slice_header error
[h264 @ 0x244f600] non-existing PPS 0 referenced
[h264 @ 0x244f600] decode_slice_header error
[h264 @ 0x244f600] no frame!
[h264 @ 0x244f600] non-existing SPS 0 referenced in buffering period
[h264 @ 0x244f600] non-existing PPS referenced
[h264 @ 0x244f600] non-existing SPS 0 referenced in buffering period
[h264 @ 0x244f600] non-existing PPS 0 referenced
[h264 @ 0x244f600] decode_slice_header error
[h264 @ 0x244f600] non-existing PPS 0 referenced
[h264 @ 0x244f600] decode_slice_header error
[h264 @ 0x244f600] non-existing PPS 0 referenced
[h264 @ 0x244f600] decode_slice_header error
[h264 @ 0x244f600] non-existing PPS 0 referenced
[h264 @ 0x244f600] decode_slice_header error
[h264 @ 0x244f600] non-existing PPS 0 referenced
[h264 @ 0x244f600] decode_slice_header error
[h264 @ 0x244f600] non-existing PPS 0 referenced
[h264 @ 0x244f600] decode_slice_header error
[h264 @ 0x244f600] no frame!
[h264 @ 0x244f600] non-existing SPS 0 referenced in buffering period
[h264 @ 0x244f600] non-existing PPS referenced
[h264 @ 0x244f600] non-existing SPS 0 referenced in buffering period
[h264 @ 0x244f600] non-existing PPS 0 referenced
[h264 @ 0x244f600] decode_slice_header error
[h264 @ 0x244f600] non-existing PPS 0 referenced
[h264 @ 0x244f600] decode_slice_header error
[h264 @ 0x244f600] non-existing PPS 0 referenced
[h264 @ 0x244f600] decode_slice_header error
[h264 @ 0x244f600] non-existing PPS 0 referenced
[h264 @ 0x244f600] decode_slice_header error
[h264 @ 0x244f600] non-existing PPS 0 referenced
[h264 @ 0x244f600] decode_slice_header error
[h264 @ 0x244f600] non-existing PPS 0 referenced
[h264 @ 0x244f600] decode_slice_header error
[h264 @ 0x244f600] no frame!
[h264 @ 0x244f600] non-existing SPS 0 referenced in buffering period
[h264 @ 0x244f600] non-existing PPS referenced
[h264 @ 0x244f600] non-existing SPS 0 referenced in buffering period
[h264 @ 0x244f600] non-existing PPS 0 referenced
[h264 @ 0x244f600] decode_slice_header error
[h264 @ 0x244f600] non-existing PPS 0 referenced
[h264 @ 0x244f600] decode_slice_header error
[h264 @ 0x244f600] non-existing PPS 0 referenced
[h264 @ 0x244f600] decode_slice_header error
[h264 @ 0x244f600] non-existing PPS 0 referenced
[h264 @ 0x244f600] decode_slice_header error
[h264 @ 0x244f600] non-existing PPS 0 referenced
[h264 @ 0x244f600] decode_slice_header error
[h264 @ 0x244f600] non-existing PPS 0 referenced
[h264 @ 0x244f600] decode_slice_header error
[h264 @ 0x244f600] no frame!
[h264 @ 0x244f600] mmco: unref short failure
[h264 @ 0x244f600] number of reference frames (0+5) exceeds max (4; probably corrupt input), discarding one
Input #0, wtv, from 'ticket#3252.WTV':
  Metadata:
    Tuner ID        : 34FE29F6-56B4-4E0D-9EAF-42A888D218E5
    WM/MediaClassPrimaryID: db9830bd-3ab3-4fab-8a371a995f7ff74
    WM/MediaClassSecondaryID: ba7f258a-62f7-47a9-b21f4651c42a000
    Title           : F1: Grand Prix
    WM/SubTitle     : Canada
    WM/SubTitleDescription: Suzi Perry presents live coverage of the Canadian Grand Prix from Montreal. The Circuit Gilles Villeneuve has been a happy hunting ground for Lewis Hamilton in recent years. In 2012 he won his third Grand Prix there thanks to a sparkling performance in hi
    genre           : Motor Sport;Sport;4 Star;Motor Cars;Motorcars;F1;Formula 1;Formula One
    WM/OriginalReleaseTime: 0
    WM/MediaCredits : ;;;
    service_provider: BBC 1
    service_name    : BBC 1
    WM/MediaNetworkAffiliation: dvblink
    WM/MediaOriginalChannel: 1
    WM/MediaOriginalChannelSubNumber: 0
    WM/MediaOriginalBroadcastDateTime: 0001-01-01T00:00:00Z
    WM/MediaOriginalRunTime: 108574852334
    WM/MediaIsStereo: false
    WM/MediaIsRepeat: false
    WM/MediaIsLive  : false
    WM/MediaIsTape  : false
    WM/MediaIsDelay : false
    WM/MediaIsSubtitled: false
    WM/MediaIsMovie : false
    WM/MediaIsPremiere: false
    WM/MediaIsFinale: false
    WM/MediaIsSAP   : false
    WM/MediaIsSport : false
    WM/ParentalRating: ***
    WM/Provider     : MediaCenterDefault
    WM/ProviderRating: ***
    WM/VideoClosedCaptioning: false
    WM/WMRVEncodeTime: 2013-06-09 17:14:02
    WM/WMRVSeriesUID: !GenericSeries!F1: Grand Prix
    WM/WMRVServiceID: !Generated!d1fde876482445b185fc66163596f081
    WM/WMRVProgramID: !Generated!3c46c811de7e47ad98415c5f628663dc
    WM/WMRVRequestID: 0
    WM/WMRVScheduleItemID: 0
    WM/WMRVQuality  : 0
    WM/WMRVOriginalSoftPrePadding: 360
    WM/WMRVOriginalSoftPostPadding: 300
    WM/WMRVHardPrePadding: -300
    WM/WMRVHardPostPadding: 0
    WM/WMRVATSCContent: false
    WM/WMRVDTVContent: true
    WM/WMRVHDContent: true
    Duration        : 5705690788
    WM/WMRVEndTime  : 2013-06-09 17:23:33
    WM/WMRVBitrate  : 14.422836
    WM/WMRVKeepUntil: -1
    WM/WMRVActualSoftPrePadding: 357
    WM/WMRVActualSoftPostPadding: -9986
    WM/WMRVContentProtected: false
    WM/WMRVContentProtectedPercent: 0
    WM/WMRVExpirationDate: 9999-12-31 23:59:59
    WM/WMRVExpirationSpan: 9223372036854775807
    WM/WMRVInBandRatingSystem: 255
    WM/WMRVInBandRatingLevel: 255
    WM/WMRVInBandRatingAttributes: 0
    WM/WMRVWatched  : false
    WM/MediaThumbWidth: 352
    WM/MediaThumbHeight: 198
    WM/MediaThumbStride: 1056
    WM/MediaThumbRet: 0
    WM/MediaThumbRatingSystem: 255
    WM/MediaThumbRatingLevel: 255
    WM/MediaThumbRatingAttributes: 0
    WM/MediaThumbAspectRatioX: 1920
    WM/MediaThumbAspectRatioY: 1080
    WM/MediaThumbTimeStamp: 4646727600202711928
  Duration: 00:08:31.50, start: 2866.580118, bitrate: 328 kb/s
    Stream #0:0[0x55](eng): Subtitle: dvb_subtitle
    Stream #0:1[0x56](eng): Subtitle: dvb_teletext
    Stream #0:2[0x57](eng): Audio: ac3, 48000 Hz, 5.1(side), fltp, 384 kb/s
    Stream #0:3[0x58](nar): Audio: mp2 (P[0][0][0] / 0x0050), 48000 Hz, stereo, s16p, 256 kb/s (visual impaired)
    Stream #0:4[0x59]: Video: h264 (High), yuv420p(tv, bt709), 1920x1080 [SAR 1:1 DAR 16:9], 25 fps, 25 tbr, 10000k tbn, 50 tbc
    Stream #0:5[0xffffffff]: Video: mjpeg, yuvj420p(pc), 200x113 [SAR 96:96 DAR 200:113], 90k tbr, 90k tbn, 90k tbc
    Metadata:
      title           : TV Thumbnail
Output #0, wtv, to 'out.wtv':
  Metadata:
    Tuner ID        : 34FE29F6-56B4-4E0D-9EAF-42A888D218E5
    WM/MediaClassPrimaryID: db9830bd-3ab3-4fab-8a371a995f7ff74
    WM/MediaClassSecondaryID: ba7f258a-62f7-47a9-b21f4651c42a000
    Title           : F1: Grand Prix
    WM/SubTitle     : Canada
    WM/SubTitleDescription: Suzi Perry presents live coverage of the Canadian Grand Prix from Montreal. The Circuit Gilles Villeneuve has been a happy hunting ground for Lewis Hamilton in recent years. In 2012 he won his third Grand Prix there thanks to a sparkling performance in hi
    genre           : Motor Sport;Sport;4 Star;Motor Cars;Motorcars;F1;Formula 1;Formula One
    WM/OriginalReleaseTime: 0
    WM/MediaCredits : ;;;
    service_provider: BBC 1
    service_name    : BBC 1
    WM/MediaNetworkAffiliation: dvblink
    WM/MediaOriginalChannel: 1
    WM/MediaOriginalChannelSubNumber: 0
    WM/MediaOriginalBroadcastDateTime: 0001-01-01T00:00:00Z
    WM/MediaOriginalRunTime: 108574852334
    WM/MediaIsStereo: false
    WM/MediaIsRepeat: false
    WM/MediaIsLive  : false
    WM/MediaIsTape  : false
    WM/MediaIsDelay : false
    WM/MediaIsSubtitled: false
    WM/MediaIsMovie : false
    WM/MediaIsPremiere: false
    WM/MediaIsFinale: false
    WM/MediaIsSAP   : false
    WM/MediaIsSport : false
    WM/ParentalRating: ***
    WM/Provider     : MediaCenterDefault
    WM/ProviderRating: ***
    WM/VideoClosedCaptioning: false
    WM/WMRVEncodeTime: 2013-06-09 17:14:02
    WM/WMRVSeriesUID: !GenericSeries!F1: Grand Prix
    WM/WMRVServiceID: !Generated!d1fde876482445b185fc66163596f081
    WM/WMRVProgramID: !Generated!3c46c811de7e47ad98415c5f628663dc
    WM/WMRVRequestID: 0
    WM/WMRVScheduleItemID: 0
    WM/WMRVQuality  : 0
    WM/WMRVOriginalSoftPrePadding: 360
    WM/WMRVOriginalSoftPostPadding: 300
    WM/WMRVHardPrePadding: -300
    WM/WMRVHardPostPadding: 0
    WM/WMRVATSCContent: false
    WM/WMRVDTVContent: true
    WM/WMRVHDContent: true
    Duration        : 5705690788
    WM/WMRVEndTime  : 2013-06-09 17:23:33
    WM/WMRVBitrate  : 14.422836
    WM/WMRVKeepUntil: -1
    WM/WMRVActualSoftPrePadding: 357
    WM/WMRVActualSoftPostPadding: -9986
    WM/WMRVContentProtected: false
    WM/WMRVContentProtectedPercent: 0
    WM/WMRVExpirationDate: 9999-12-31 23:59:59
    WM/WMRVExpirationSpan: 9223372036854775807
    WM/WMRVInBandRatingSystem: 255
    WM/WMRVInBandRatingLevel: 255
    WM/WMRVInBandRatingAttributes: 0
    WM/WMRVWatched  : false
    WM/MediaThumbWidth: 352
    WM/MediaThumbHeight: 198
    WM/MediaThumbStride: 1056
    WM/MediaThumbRet: 0
    WM/MediaThumbRatingSystem: 255
    WM/MediaThumbRatingLevel: 255
    WM/MediaThumbRatingAttributes: 0
    WM/MediaThumbAspectRatioX: 1920
    WM/MediaThumbAspectRatioY: 1080
    WM/MediaThumbTimeStamp: 4646727600202711928
    encoder         : Lavf55.22.102
    Stream #0:0: Video: h264 (H264 / 0x34363248), yuv420p, 1920x1080 [SAR 1:1 DAR 16:9], q=2-31, 25 fps, 10000k tbn, 25 tbc
Stream mapping:
  Stream #0:4 -> #0:0 (copy)
Press [q] to stop, [?] for help
frame=  337 fps=0.0 q=-1.0 Lsize=    9764kB time=00:00:14.82 bitrate=5395.3kbits/s
video:9532kB audio:0kB subtitle:0 global headers:0kB muxing overhead 2.428964%
Note: See TracTickets for help on using tickets.