Opened 6 years ago

Closed 6 years ago

#3132 closed defect (needs_more_info)

ffmpeg Video Conversion

Reported by: govind.durai@gmail.com Owned by:
Priority: normal Component: undetermined
Version: git-master Keywords: asf h264
Cc: govind.durai@gmail.com Blocked By:
Blocking: Reproduced by developer: no
Analyzed by developer: no

Description

Summary of the bug: Not able to convert video from wmv format to flv

How to reproduce:
ffmpeg -i sampleWMV.wmv -c copy testWMV.flv

ffmpeg version N-58015-g8cdf4e0 Copyright (c) 2000-2013 the FFmpeg developers

built on Nov 10 2013 18:07:36 with gcc 4.8.2 (GCC)
configuration: --enable-gpl --enable-version3 --disable-w32threads --enable-av

isynth --enable-bzlib --enable-fontconfig --enable-frei0r --enable-gnutls --enab
le-iconv --enable-libass --enable-libbluray --enable-libcaca --enable-libfreetyp
e --enable-libgsm --enable-libilbc --enable-libmodplug --enable-libmp3lame --ena
ble-libopencore-amrnb --enable-libopencore-amrwb --enable-libopenjpeg --enable-l
ibopus --enable-librtmp --enable-libschroedinger --enable-libsoxr --enable-libsp
eex --enable-libtheora --enable-libtwolame --enable-libvidstab --enable-libvo-aa
cenc --enable-libvo-amrwbenc --enable-libvorbis --enable-libvpx --enable-libwavp
ack --enable-libx264 --enable-libxavs --enable-libxvid --enable-zlib

libavutil 52. 52.100 / 52. 52.100
libavcodec 55. 41.100 / 55. 41.100
libavformat 55. 21.100 / 55. 21.100
libavdevice 55. 5.100 / 55. 5.100
libavfilter 3. 90.102 / 3. 90.102
libswscale 2. 5.101 / 2. 5.101
libswresample 0. 17.104 / 0. 17.104
libpostproc 52. 3.100 / 52. 3.100

[h264 @ 000000000408ede0] missing picture in access unit with size 9

Last message repeated 39 times

Input #0, asf, from 'sampleWMV.wmv':

Metadata:

major_brand : isom
minor_version : 1
compatible_brands: isomavc1
encoder : Lavf55.21.100

Duration: 01:38:36.99, start: 0.000000, bitrate: 1091 kb/s

Stream #0:0: Video: h264 (High) (avc1 / 0x31637661), yuv420p(tv, bt709), 128

0x544 [SAR 1:1 DAR 40:17], 24.42 fps, 23.98 tbr, 1k tbn, 47.95 tbc

Stream #0:1: Audio: aac ([255][0][0][0] / 0x00FF), 48000 Hz, stereo, fltp, 9

3 kb/s
File 'testWMV.flv' already exists. Overwrite ? [y/N] y
Output #0, flv, to 'testWMV.flv':

Metadata:

major_brand : isom
minor_version : 1
compatible_brands: isomavc1
encoder : Lavf55.21.100
Stream #0:0: Video: h264 ([7][0][0][0] / 0x0007), yuv420p, 1280x544 [SAR 1:1

DAR 40:17], q=2-31, 24.42 fps, 1k tbn, 1k tbc

Stream #0:1: Audio: aac ([10][0][0][0] / 0x000A), 48000 Hz, stereo, 93 kb/s

Stream mapping:

Stream #0:0 -> #0:0 (copy)
Stream #0:1 -> #0:1 (copy)

Press [q] to stop, ? for help
[NULL @ 000000000408ede0] missing picture in access unit with size 9

Last message repeated 462 times

frame= 1009 fps=0.0 q=-1.0 size= 1890kB time=00:00:21.10 bitrate= 733.5kbits/
[NULL @ 000000000408ede0] missing picture in access unit with size 9

Last message repeated 462 times

frame= 1937 fps=1936 q=-1.0 size= 2730kB time=00:00:40.49 bitrate= 552.2kbits
[NULL @ 000000000408ede0] missing picture in access unit with size 9

Last message repeated 512 times

frame= 2965 fps=1975 q=-1.0 size= 5231kB time=00:01:01.97 bitrate= 691.4kbits
[NULL @ 000000000408ede0] missing picture in access unit with size 9

Last message repeated 489 times

frame= 3948 fps=1973 q=-1.0 size= 7737kB time=00:01:22.54 bitrate= 767.9kbits
[NULL @ 000000000408ede0] missing picture in access unit with size 9

Last message repeated 447 times

frame= 4847 fps=1938 q=-1.0 size= 12246kB time=00:01:41.35 bitrate= 989.8kbits
[NULL @ 000000000408ede0] missing picture in access unit with size 9

Last message repeated 465 times

frame= 5782 fps=1926 q=-1.0 size= 16096kB time=00:02:00.91 bitrate=1090.5kbits
[NULL @ 000000000408ede0] missing picture in access unit with size 9

Last message repeated 466 times

frame= 6720 fps=1919 q=-1.0 size= 19281kB time=00:02:20.55 bitrate=1123.7kbits
[NULL @ 000000000408ede0] missing picture in access unit with size 9

Last message repeated 462 times

frame= 7650 fps=1911 q=-1.0 size= 21581kB time=00:02:40.03 bitrate=1104.7kbits
[NULL @ 000000000408ede0] missing picture in access unit with size 9

Last message repeated 470 times

frame= 8597 fps=1909 q=-1.0 size= 24733kB time=00:02:59.88 bitrate=1126.3kbits
[NULL @ 000000000408ede0] missing picture in access unit with size 9

Last message repeated 473 times

frame= 9550 fps=1909 q=-1.0 size= 27190kB time=00:03:19.86 bitrate=1114.4kbits
[NULL @ 000000000408ede0] missing picture in access unit with size 9

Last message repeated 480 times

frame=10516 fps=1911 q=-1.0 size= 29751kB time=00:03:40.09 bitrate=1107.3kbits
[NULL @ 000000000408ede0] missing picture in access unit with size 9

Last message repeated 510 times

frame=11542 fps=1922 q=-1.0 size= 31372kB time=00:04:01.57 bitrate=1063.9kbits
[NULL @ 000000000408ede0] missing picture in access unit with size 9

Last message repeated 461 times

frame=12471 fps=1917 q=-1.0 size= 34144kB time=00:04:21.05 bitrate=1071.5kbits
[NULL @ 000000000408ede0] missing picture in access unit with size 9

Last message repeated 480 times

frame=13436 fps=1918 q=-1.0 size= 37406kB time=00:04:41.24 bitrate=1089.6kbits
[NULL @ 000000000408ede0] missing picture in access unit with size 9

Last message repeated 464 times

frame=14369 fps=1915 q=-1.0 size= 41650kB time=00:05:00.75 bitrate=1134.5kbits
[NULL @ 000000000408ede0] missing picture in access unit with size 9

Last message repeated 99 times

frame=14569 fps=1913 q=-1.0 Lsize= 42418kB time=00:05:04.93 bitrate=1139.5kbit
s/s
video:38421kB audio:3475kB subtitle:0 global headers:0kB muxing overhead 1.24675
7%
Received signal 2: terminating.

Change History (2)

comment:1 Changed 6 years ago by cehoyos

  • Component changed from FFmpeg to undetermined
  • Keywords asf h264 added; Video Conversion removed
  • Version changed from unspecified to git-master

Please provide the input file sampleWMV.wmv

comment:2 Changed 6 years ago by cehoyos

  • Resolution set to needs_more_info
  • Status changed from new to closed

Please reopen this ticket if you can provide the input sample.

Note: See TracTickets for help on using tickets.