Opened 4 years ago

Closed 4 years ago

#3006 closed enhancement (fixed)

Print channel layout with ffprobe -show_stream

Reported by: cehoyos Owned by:
Priority: wish Component: ffprobe
Version: git-master Keywords:
Cc: Blocked By:
Blocking: Reproduced by developer: yes
Analyzed by developer: yes

Description

Using the sample from ticket #2865:

$ ffprobe -show_streams SD_IVTC_8channel_ProResHQ_test_withT3.7.8_labels.mov
ffprobe version N-56673-gf31011e Copyright (c) 2007-2013 the FFmpeg developers
  built on Sep 26 2013 22:19:50 with gcc 4.7 (SUSE Linux)
  configuration: --enable-gpl
  libavutil      52. 46.100 / 52. 46.100
  libavcodec     55. 33.100 / 55. 33.100
  libavformat    55. 18.102 / 55. 18.102
  libavdevice    55.  3.100 / 55.  3.100
  libavfilter     3. 87.100 /  3. 87.100
  libswscale      2.  5.100 /  2.  5.100
  libswresample   0. 17.103 /  0. 17.103
  libpostproc    52.  3.100 / 52.  3.100
Input #0, mov,mp4,m4a,3gp,3g2,mj2, from 'SD_IVTC_8channel_ProResHQ_test_withT3.7.8_labels.mov':
  Metadata:
    major_brand     : qt
    minor_version   : 537199360
    compatible_brands: qt
    creation_time   : 2013-08-21 17:18:54
    encoder         : Lavf55.11.100
  Duration: 00:00:00.50, start: 0.000000, bitrate: 16436 kb/s
    Stream #0:0(eng): Video: prores (apch / 0x68637061), yuv422p10le, 720x480, 6505 kb/s, SAR 10:11 DAR 15:11, 23.98 fps, 23.98 tbr, 11988 tbn, 11988 tbc (default)
    Metadata:
      creation_time   : 2013-08-21 17:18:54
      handler_name    : Apple Alias Data Handler
      timecode        : 00:59:59:00
    Stream #0:1(eng): Audio: pcm_s24le (in24 / 0x34326E69), 48000 Hz, 1 channels (FL), s32, 1152 kb/s (default)
    Metadata:
      creation_time   : 2013-08-21 17:18:54
      handler_name    : Apple Alias Data Handler
    Stream #0:2(eng): Audio: pcm_s24le (in24 / 0x34326E69), 48000 Hz, 1 channels (FR), s32, 1152 kb/s (default)
    Metadata:
      creation_time   : 2013-08-21 17:18:54
      handler_name    : Apple Alias Data Handler
    Stream #0:3(eng): Audio: pcm_s24le (in24 / 0x34326E69), 48000 Hz, mono, s32, 1152 kb/s (default)
    Metadata:
      creation_time   : 2013-08-21 17:18:54
      handler_name    : Apple Alias Data Handler
    Stream #0:4(eng): Audio: pcm_s24le (in24 / 0x34326E69), 48000 Hz, 1 channels (LFE), s32, 1152 kb/s (default)
    Metadata:
      creation_time   : 2013-08-21 17:18:54
      handler_name    : Apple Alias Data Handler
    Stream #0:5(eng): Audio: pcm_s24le (in24 / 0x34326E69), 48000 Hz, 1 channels (BL), s32, 1152 kb/s (default)
    Metadata:
      creation_time   : 2013-08-21 17:18:54
      handler_name    : Apple Alias Data Handler
    Stream #0:6(eng): Audio: pcm_s24le (in24 / 0x34326E69), 48000 Hz, 1 channels (BR), s32, 1152 kb/s (default)
    Metadata:
      creation_time   : 2013-08-21 17:18:54
      handler_name    : Apple Alias Data Handler
    Stream #0:7(eng): Audio: pcm_s24le (in24 / 0x34326E69), 48000 Hz, 1 channels (DL), s32, 1152 kb/s (default)
    Metadata:
      creation_time   : 2013-08-21 17:18:54
      handler_name    : Apple Alias Data Handler
    Stream #0:8(eng): Audio: pcm_s24le (in24 / 0x34326E69), 48000 Hz, 1 channels (DR), s32, 1152 kb/s (default)
    Metadata:
      creation_time   : 2013-08-21 17:18:54
      handler_name    : Apple Alias Data Handler
    Stream #0:9(eng): Data: none (tmcd / 0x64636D74), 0 kb/s (default)
    Metadata:
      creation_time   : 2013-08-21 17:18:54
      handler_name    : Apple Alias Data Handler
      timecode        : 00:59:59:00
Unsupported codec with id 0 for input stream 9
[STREAM]
index=0
codec_name=prores
codec_long_name=ProRes
profile=unknown
codec_type=video
codec_time_base=1/11988
codec_tag_string=apch
codec_tag=0x68637061
width=720
height=480
has_b_frames=0
sample_aspect_ratio=10:11
display_aspect_ratio=15:11
pix_fmt=yuv422p10le
level=-99
timecode=N/A
id=N/A
r_frame_rate=2997/125
avg_frame_rate=2997/125
time_base=1/11988
start_pts=0
start_time=0.000000
duration_ts=6500
duration=0.542209
bit_rate=6505551
nb_frames=13
nb_read_frames=N/A
nb_read_packets=N/A
DISPOSITION:default=1
DISPOSITION:dub=0
DISPOSITION:original=0
DISPOSITION:comment=0
DISPOSITION:lyrics=0
DISPOSITION:karaoke=0
DISPOSITION:forced=0
DISPOSITION:hearing_impaired=0
DISPOSITION:visual_impaired=0
DISPOSITION:clean_effects=0
DISPOSITION:attached_pic=0
TAG:creation_time=2013-08-21 17:18:54
TAG:language=eng
TAG:handler_name=Apple Alias Data Handler
TAG:timecode=00:59:59:00
[/STREAM]
[STREAM]
index=1
codec_name=pcm_s24le
codec_long_name=PCM signed 24-bit little-endian
profile=unknown
codec_type=audio
codec_time_base=1/48000
codec_tag_string=in24
codec_tag=0x34326e69
sample_fmt=s32
sample_rate=48000
channels=1
bits_per_sample=24
id=N/A
r_frame_rate=0/0
avg_frame_rate=0/0
time_base=1/48000
start_pts=0
start_time=0.000000
duration_ts=24048
duration=0.501000
bit_rate=1152000
nb_frames=24048
nb_read_frames=N/A
nb_read_packets=N/A
DISPOSITION:default=1
DISPOSITION:dub=0
DISPOSITION:original=0
DISPOSITION:comment=0
DISPOSITION:lyrics=0
DISPOSITION:karaoke=0
DISPOSITION:forced=0
DISPOSITION:hearing_impaired=0
DISPOSITION:visual_impaired=0
DISPOSITION:clean_effects=0
DISPOSITION:attached_pic=0
TAG:creation_time=2013-08-21 17:18:54
TAG:language=eng
TAG:handler_name=Apple Alias Data Handler
[/STREAM]
[STREAM]
index=2
codec_name=pcm_s24le
codec_long_name=PCM signed 24-bit little-endian
profile=unknown
codec_type=audio
codec_time_base=1/48000
codec_tag_string=in24
codec_tag=0x34326e69
sample_fmt=s32
sample_rate=48000
channels=1
bits_per_sample=24
id=N/A
r_frame_rate=0/0
avg_frame_rate=0/0
time_base=1/48000
start_pts=0
start_time=0.000000
duration_ts=24048
duration=0.501000
bit_rate=1152000
nb_frames=24048
nb_read_frames=N/A
nb_read_packets=N/A
DISPOSITION:default=1
DISPOSITION:dub=0
DISPOSITION:original=0
DISPOSITION:comment=0
DISPOSITION:lyrics=0
DISPOSITION:karaoke=0
DISPOSITION:forced=0
DISPOSITION:hearing_impaired=0
DISPOSITION:visual_impaired=0
DISPOSITION:clean_effects=0
DISPOSITION:attached_pic=0
TAG:creation_time=2013-08-21 17:18:54
TAG:language=eng
TAG:handler_name=Apple Alias Data Handler
[/STREAM]
[STREAM]
index=3
codec_name=pcm_s24le
codec_long_name=PCM signed 24-bit little-endian
profile=unknown
codec_type=audio
codec_time_base=1/48000
codec_tag_string=in24
codec_tag=0x34326e69
sample_fmt=s32
sample_rate=48000
channels=1
bits_per_sample=24
id=N/A
r_frame_rate=0/0
avg_frame_rate=0/0
time_base=1/48000
start_pts=0
start_time=0.000000
duration_ts=24048
duration=0.501000
bit_rate=1152000
nb_frames=24048
nb_read_frames=N/A
nb_read_packets=N/A
DISPOSITION:default=1
DISPOSITION:dub=0
DISPOSITION:original=0
DISPOSITION:comment=0
DISPOSITION:lyrics=0
DISPOSITION:karaoke=0
DISPOSITION:forced=0
DISPOSITION:hearing_impaired=0
DISPOSITION:visual_impaired=0
DISPOSITION:clean_effects=0
DISPOSITION:attached_pic=0
TAG:creation_time=2013-08-21 17:18:54
TAG:language=eng
TAG:handler_name=Apple Alias Data Handler
[/STREAM]
[STREAM]
index=4
codec_name=pcm_s24le
codec_long_name=PCM signed 24-bit little-endian
profile=unknown
codec_type=audio
codec_time_base=1/48000
codec_tag_string=in24
codec_tag=0x34326e69
sample_fmt=s32
sample_rate=48000
channels=1
bits_per_sample=24
id=N/A
r_frame_rate=0/0
avg_frame_rate=0/0
time_base=1/48000
start_pts=0
start_time=0.000000
duration_ts=24048
duration=0.501000
bit_rate=1152000
nb_frames=24048
nb_read_frames=N/A
nb_read_packets=N/A
DISPOSITION:default=1
DISPOSITION:dub=0
DISPOSITION:original=0
DISPOSITION:comment=0
DISPOSITION:lyrics=0
DISPOSITION:karaoke=0
DISPOSITION:forced=0
DISPOSITION:hearing_impaired=0
DISPOSITION:visual_impaired=0
DISPOSITION:clean_effects=0
DISPOSITION:attached_pic=0
TAG:creation_time=2013-08-21 17:18:54
TAG:language=eng
TAG:handler_name=Apple Alias Data Handler
[/STREAM]
[STREAM]
index=5
codec_name=pcm_s24le
codec_long_name=PCM signed 24-bit little-endian
profile=unknown
codec_type=audio
codec_time_base=1/48000
codec_tag_string=in24
codec_tag=0x34326e69
sample_fmt=s32
sample_rate=48000
channels=1
bits_per_sample=24
id=N/A
r_frame_rate=0/0
avg_frame_rate=0/0
time_base=1/48000
start_pts=0
start_time=0.000000
duration_ts=24048
duration=0.501000
bit_rate=1152000
nb_frames=24048
nb_read_frames=N/A
nb_read_packets=N/A
DISPOSITION:default=1
DISPOSITION:dub=0
DISPOSITION:original=0
DISPOSITION:comment=0
DISPOSITION:lyrics=0
DISPOSITION:karaoke=0
DISPOSITION:forced=0
DISPOSITION:hearing_impaired=0
DISPOSITION:visual_impaired=0
DISPOSITION:clean_effects=0
DISPOSITION:attached_pic=0
TAG:creation_time=2013-08-21 17:18:54
TAG:language=eng
TAG:handler_name=Apple Alias Data Handler
[/STREAM]
[STREAM]
index=6
codec_name=pcm_s24le
codec_long_name=PCM signed 24-bit little-endian
profile=unknown
codec_type=audio
codec_time_base=1/48000
codec_tag_string=in24
codec_tag=0x34326e69
sample_fmt=s32
sample_rate=48000
channels=1
bits_per_sample=24
id=N/A
r_frame_rate=0/0
avg_frame_rate=0/0
time_base=1/48000
start_pts=0
start_time=0.000000
duration_ts=24048
duration=0.501000
bit_rate=1152000
nb_frames=24048
nb_read_frames=N/A
nb_read_packets=N/A
DISPOSITION:default=1
DISPOSITION:dub=0
DISPOSITION:original=0
DISPOSITION:comment=0
DISPOSITION:lyrics=0
DISPOSITION:karaoke=0
DISPOSITION:forced=0
DISPOSITION:hearing_impaired=0
DISPOSITION:visual_impaired=0
DISPOSITION:clean_effects=0
DISPOSITION:attached_pic=0
TAG:creation_time=2013-08-21 17:18:54
TAG:language=eng
TAG:handler_name=Apple Alias Data Handler
[/STREAM]
[STREAM]
index=7
codec_name=pcm_s24le
codec_long_name=PCM signed 24-bit little-endian
profile=unknown
codec_type=audio
codec_time_base=1/48000
codec_tag_string=in24
codec_tag=0x34326e69
sample_fmt=s32
sample_rate=48000
channels=1
bits_per_sample=24
id=N/A
r_frame_rate=0/0
avg_frame_rate=0/0
time_base=1/48000
start_pts=0
start_time=0.000000
duration_ts=24048
duration=0.501000
bit_rate=1152000
nb_frames=24048
nb_read_frames=N/A
nb_read_packets=N/A
DISPOSITION:default=1
DISPOSITION:dub=0
DISPOSITION:original=0
DISPOSITION:comment=0
DISPOSITION:lyrics=0
DISPOSITION:karaoke=0
DISPOSITION:forced=0
DISPOSITION:hearing_impaired=0
DISPOSITION:visual_impaired=0
DISPOSITION:clean_effects=0
DISPOSITION:attached_pic=0
TAG:creation_time=2013-08-21 17:18:54
TAG:language=eng
TAG:handler_name=Apple Alias Data Handler
[/STREAM]
[STREAM]
index=8
codec_name=pcm_s24le
codec_long_name=PCM signed 24-bit little-endian
profile=unknown
codec_type=audio
codec_time_base=1/48000
codec_tag_string=in24
codec_tag=0x34326e69
sample_fmt=s32
sample_rate=48000
channels=1
bits_per_sample=24
id=N/A
r_frame_rate=0/0
avg_frame_rate=0/0
time_base=1/48000
start_pts=0
start_time=0.000000
duration_ts=24048
duration=0.501000
bit_rate=1152000
nb_frames=24048
nb_read_frames=N/A
nb_read_packets=N/A
DISPOSITION:default=1
DISPOSITION:dub=0
DISPOSITION:original=0
DISPOSITION:comment=0
DISPOSITION:lyrics=0
DISPOSITION:karaoke=0
DISPOSITION:forced=0
DISPOSITION:hearing_impaired=0
DISPOSITION:visual_impaired=0
DISPOSITION:clean_effects=0
DISPOSITION:attached_pic=0
TAG:creation_time=2013-08-21 17:18:54
TAG:language=eng
TAG:handler_name=Apple Alias Data Handler
[/STREAM]
[STREAM]
index=9
codec_name=unknown
codec_long_name=unknown
profile=unknown
codec_type=data
codec_time_base=1/24
codec_tag_string=tmcd
codec_tag=0x64636d74
id=N/A
r_frame_rate=0/0
avg_frame_rate=0/0
time_base=1/11988
start_pts=0
start_time=0.000000
duration_ts=6006
duration=0.501001
bit_rate=3
nb_frames=1
nb_read_frames=N/A
nb_read_packets=N/A
DISPOSITION:default=1
DISPOSITION:dub=0
DISPOSITION:original=0
DISPOSITION:comment=0
DISPOSITION:lyrics=0
DISPOSITION:karaoke=0
DISPOSITION:forced=0
DISPOSITION:hearing_impaired=0
DISPOSITION:visual_impaired=0
DISPOSITION:clean_effects=0
DISPOSITION:attached_pic=0
TAG:creation_time=2013-08-21 17:18:54
TAG:language=eng
TAG:handler_name=Apple Alias Data Handler
TAG:timecode=00:59:59:00
[/STREAM]

Change History (1)

comment:1 Changed 4 years ago by saste

  • Analyzed by developer set
  • Reproduced by developer set
  • Resolution set to fixed
  • Status changed from new to closed

Fixed in:

commit f5b27b6d5f86626adf1ece529d8b48ddec7c2961
Author: Stefano Sabatini <stefasab@gmail.com>
Date:   Tue Oct 1 23:42:07 2013 +0200

    ffprobe: print stream channel_layout when available
    
    Fix trac ticket #3006.
Note: See TracTickets for help on using tickets.