Opened 4 years ago

Closed 4 years ago

Last modified 4 years ago

#2926 closed defect (duplicate)

g2m4: invalid write 2

Reported by: ami_stuff Owned by:
Priority: important Component: avcodec
Version: git-master Keywords: g2m4 crash
Cc: Blocked By:
Blocking: Reproduced by developer: yes
Analyzed by developer: no

Description

http://www.datafilehost.com/d/83a19846

knoppix@Microknoppix:/media/sdb1$ valgrind --leak-check=full ffmpeg-HEAD-c042684/ffmpeg_g -i ./g2m4_fuzz3.wmv -t 20 -an -f null -
==4012== Memcheck, a memory error detector
==4012== Copyright (C) 2002-2011, and GNU GPL'd, by Julian Seward et al.
==4012== Using Valgrind-3.7.0 and LibVEX; rerun with -h for copyright info
==4012== Command: ffmpeg-HEAD-c042684/ffmpeg_g -i ./g2m4_fuzz3.wmv -t 20 -an -f null -
==4012== 
ffmpeg version 2.0-c042684 Copyright (c) 2000-2013 the FFmpeg developers
  built on Aug 30 2013 20:55:53 with gcc 4.7 (Debian 4.7.2-5)
  configuration: --disable-yasm --disable-ffprobe --disable-ffserver --enable-gpl
  libavutil      52. 42.100 / 52. 42.100
  libavcodec     55. 29.100 / 55. 29.100
  libavformat    55. 15.100 / 55. 15.100
  libavdevice    55.  3.100 / 55.  3.100
  libavfilter     3. 82.102 /  3. 82.102
  libswscale      2.  5.100 /  2.  5.100
  libswresample   0. 17.103 /  0. 17.103
  libpostproc    52.  3.100 / 52.  3.100
[asf @ 0x4229080] packet_obj_size invalid
[asf @ 0x4229080] ff asf bad header 0  at:234855
[asf @ 0x4229080] ff asf skip 7991 (unknown stream)
[asf @ 0x4229080] ff asf bad header fb  at:242877
[asf @ 0x4229080] invalid packet_length -1075249767 at:242885
[asf @ 0x4229080] ff asf bad header 3f  at:242943
[asf @ 0x4229080] invalid padsize -940249493 at:242951
[asf @ 0x4229080] ff asf bad header 2  at:243075
[asf @ 0x4229080] packet_obj_size invalid
[asf @ 0x4229080] ff asf bad header 74  at:251331
[asf @ 0x4229080] invalid packet_length -1529462935 at:251338
[asf @ 0x4229080] ff asf bad header af  at:259831
[asf @ 0x4229080] ff asf bad header 5d  at:268829
[asf @ 0x4229080] invalid padsize -187436257 at:268836
[asf @ 0x4229080] ff asf bad header a7  at:278815
[asf @ 0x4229080] packet_obj_size invalid
[asf @ 0x4229080] ff asf bad header b1  at:290811
[asf @ 0x4229080] invalid padsize 49862 at:290813
[asf @ 0x4229080] freeing incomplete packet size 3110, new 3119
[asf @ 0x4229080] Estimating duration from bitrate, this may be inaccurate
Guessed Channel Layout for  Input Stream #0.0 : mono
Input #0, asf, from './g2m4_fuzz3.wmv':
  Metadata:
    DeviceConformanceTemplate: L2
    WMFSDKNeeded    : 0.0.0.0000
    WMFSDKVersion   : 9.00.00.4509
    IsVBR           : 1
  Duration: 00:00:02.96, start: 0.000000, bitrate: 27694 kb/s
    Stream #0:0(eng): Audio: wmav2 (a[1][0][0] / 0x0161), 44100 Hz, mono, fltp, 48 kb/s
    Stream #0:1(eng): Data: none, 2 kb/s
    Stream #0:2(eng): Video: g2m (G2M4 / 0x344D3247), rgb24, 1280x1024, 27648 kb/s, 9.92 tbr, 1k tbn, 1k tbc
Output #0, null, to 'pipe:':
  Metadata:
    DeviceConformanceTemplate: L2
    WMFSDKNeeded    : 0.0.0.0000
    WMFSDKVersion   : 9.00.00.4509
    IsVBR           : 1
    encoder         : Lavf55.15.100
    Stream #0:0(eng): Video: rawvideo (RGB[24] / 0x18424752), rgb24, 1280x1024, q=2-31, 200 kb/s, 90k tbn, 9.92 tbc
Stream mapping:
  Stream #0:2 -> #0:0 (g2m -> rawvideo)
Press [q] to stop, [?] for help
[g2m @ 0x4261980] Error decoding tile 5,0
[g2m @ 0x4261980] Error decoding tile 6,0
[g2m @ 0x4261980] Error decoding tile 6,7
[g2m @ 0x4261980] Error decoding tile 0,7
[g2m @ 0x4261980] Error decoding tile 5,1
[g2m @ 0x4261980] Error decoding tile 2,2
[g2m @ 0x4261980] Error decoding tile 6,2
[g2m @ 0x4261980] Invalid chunk size -922746874 type 01
[null @ 0x4425180] Encoder did not produce proper pts, making some up.
[g2m @ 0x4261980] Error decoding tile 3,0
[g2m @ 0x4261980] Error decoding tile 5,0
[g2m @ 0x4261980] Error decoding tile 6,0
[g2m @ 0x4261980] Error decoding tile 6,7
[g2m @ 0x4261980] Error decoding tile 0,7
[g2m @ 0x4261980] Error decoding tile 1,0
[g2m @ 0x4261980] Error decoding tile 5,1
[g2m @ 0x4261980] Error decoding tile 6,1
[g2m @ 0x4261980] Error decoding tile 0,2
[g2m @ 0x4261980] Invalid tile pos 66,2 (in 8x8 grid)
[g2m @ 0x4261980] Invalid chunk size 16777311 type 09
[g2m @ 0x4261980] Error decoding tile 6,7
    Last message repeated 1 times
frame=   39 fps=0.0 q=0.0 size=N/A time=00:00:03.93 bitrate=N/A dup=18 drop=2   [g2m @ 0x4261980] Error decoding tile 6,7
    Last message repeated 1 times
[g2m @ 0x4261980] Error decoding tile 3,0
[g2m @ 0x4261980] Error decoding tile 6,0
[g2m @ 0x4261980] Error decoding tile 6,7
[g2m @ 0x4261980] Error decoding tile 0,7
[g2m @ 0x4261980] Error decoding tile 4,0
[g2m @ 0x4261980] Error decoding tile 5,0
[g2m @ 0x4261980] Error decoding tile 1,0
[g2m @ 0x4261980] Error decoding tile 2,0
[g2m @ 0x4261980] Error decoding tile 1,1
[g2m @ 0x4261980] Error decoding tile 2,1
[g2m @ 0x4261980] Error decoding tile 3,1
[g2m @ 0x4261980] Error decoding tile 4,1
[g2m @ 0x4261980] Error decoding tile 5,1
[g2m @ 0x4261980] Error decoding tile 6,1
[g2m @ 0x4261980] Error decoding tile 0,2
[g2m @ 0x4261980] Error decoding tile 2,2
[g2m @ 0x4261980] Error decoding tile 6,2
[g2m @ 0x4261980] Error decoding tile 0,3
[g2m @ 0x4261980] Error decoding tile 1,3
[g2m @ 0x4261980] Error decoding tile 2,3
[g2m @ 0x4261980] Error decoding tile 6,3
[g2m @ 0x4261980] Error decoding tile 0,4
[g2m @ 0x4261980] Error decoding tile 1,4
[g2m @ 0x4261980] Error decoding tile 2,4
[g2m @ 0x4261980] Error decoding tile 6,4
[g2m @ 0x4261980] Error decoding tile 0,5
[g2m @ 0x4261980] Error decoding tile 1,5
[g2m @ 0x4261980] Error decoding tile 6,5
[g2m @ 0x4261980] Error decoding tile 0,6
[g2m @ 0x4261980] Error decoding tile 1,6
[g2m @ 0x4261980] Error decoding tile 2,6
[g2m @ 0x4261980] Error decoding tile 3,6
[g2m @ 0x4261980] Error decoding tile 4,6
[g2m @ 0x4261980] Invalid chunk size -2147483403 type C9
[g2m @ 0x4261980] Error decoding tile 7,0
[g2m @ 0x4261980] Error decoding tile 3,0
[g2m @ 0x4261980] Error decoding tile 4,0
[g2m @ 0x4261980] Error decoding tile 5,0
[g2m @ 0x4261980] Error decoding tile 6,0
[g2m @ 0x4261980] Error decoding tile 2,0
[g2m @ 0x4261980] Error decoding tile 0,0
[g2m @ 0x4261980] Error decoding tile 1,0
[g2m @ 0x4261980] Error decoding tile 0,0
[g2m @ 0x4261980] Error decoding tile 1,0
[g2m @ 0x4261980] Error decoding tile 0,1
[g2m @ 0x4261980] Error decoding tile 1,1
[g2m @ 0x4261980] Error decoding tile 2,1
[g2m @ 0x4261980] Error decoding tile 3,1
[g2m @ 0x4261980] Error decoding tile 4,1
[g2m @ 0x4261980] Error decoding tile 5,1
[g2m @ 0x4261980] Error decoding tile 6,1
[g2m @ 0x4261980] Error decoding tile 0,2
[g2m @ 0x4261980] Error decoding tile 1,2
[g2m @ 0x4261980] Error decoding tile 2,2
[g2m @ 0x4261980] Error decoding tile 3,2
[g2m @ 0x4261980] Error decoding tile 4,2
[g2m @ 0x4261980] Error decoding tile 5,2
[g2m @ 0x4261980] Error decoding tile 6,2
[g2m @ 0x4261980] Error decoding tile 0,3
[g2m @ 0x4261980] Error decoding tile 1,3
[g2m @ 0x4261980] Error decoding tile 2,3
[g2m @ 0x4261980] Error decoding tile 3,3
[g2m @ 0x4261980] Error decoding tile 4,3
[g2m @ 0x4261980] Error decoding tile 5,3
[g2m @ 0x4261980] Error decoding tile 6,3
[g2m @ 0x4261980] Error decoding tile 0,4
[g2m @ 0x4261980] Error decoding tile 1,4
[g2m @ 0x4261980] Error decoding tile 2,4
[g2m @ 0x4261980] Error decoding tile 3,4
[g2m @ 0x4261980] Error decoding tile 4,4
[g2m @ 0x4261980] Error decoding tile 5,4
[g2m @ 0x4261980] Error decoding tile 6,4
[g2m @ 0x4261980] Error decoding tile 0,5
[g2m @ 0x4261980] Error decoding tile 1,5
[g2m @ 0x4261980] Error decoding tile 2,5
[g2m @ 0x4261980] Error decoding tile 3,5
[g2m @ 0x4261980] Error decoding tile 4,5
[g2m @ 0x4261980] Error decoding tile 5,5
[g2m @ 0x4261980] Error decoding tile 6,5
[g2m @ 0x4261980] Error decoding tile 0,6
[g2m @ 0x4261980] Error decoding tile 1,6
[g2m @ 0x4261980] Error decoding tile 2,6
[g2m @ 0x4261980] Error decoding tile 3,6
[g2m @ 0x4261980] Error decoding tile 4,6
[g2m @ 0x4261980] Error decoding tile 5,6
[g2m @ 0x4261980] Error decoding tile 6,6
[g2m @ 0x4261980] Error decoding tile 1,7
[g2m @ 0x4261980] Error decoding tile 2,7
[g2m @ 0x4261980] Error decoding tile 3,7
[g2m @ 0x4261980] Error decoding tile 4,7
[g2m @ 0x4261980] Error decoding tile 5,7
[g2m @ 0x4261980] Error decoding tile 0,1
[g2m @ 0x4261980] Error decoding tile 1,1
[g2m @ 0x4261980] Error decoding tile 2,1
[g2m @ 0x4261980] Error decoding tile 3,1
[g2m @ 0x4261980] Error decoding tile 4,1
[g2m @ 0x4261980] Error decoding tile 5,1
[g2m @ 0x4261980] Error decoding tile 6,1
[g2m @ 0x4261980] Error decoding tile 0,2
[g2m @ 0x4261980] Error decoding tile 1,2
[g2m @ 0x4261980] Error decoding tile 2,2
[g2m @ 0x4261980] Error decoding tile 3,2
[g2m @ 0x4261980] Error decoding tile 4,2
[g2m @ 0x4261980] Error decoding tile 5,2
[g2m @ 0x4261980] Error decoding tile 6,2
[g2m @ 0x4261980] Error decoding tile 0,3
[g2m @ 0x4261980] Error decoding tile 1,3
[g2m @ 0x4261980] Error decoding tile 2,3
[g2m @ 0x4261980] Error decoding tile 3,3
[g2m @ 0x4261980] Error decoding tile 4,3
[g2m @ 0x4261980] Error decoding tile 5,3
[g2m @ 0x4261980] Error decoding tile 6,3
[g2m @ 0x4261980] Error decoding tile 0,4
[g2m @ 0x4261980] Error decoding tile 1,4
[g2m @ 0x4261980] Error decoding tile 2,4
[g2m @ 0x4261980] Error decoding tile 3,4
[g2m @ 0x4261980] Error decoding tile 4,4
[g2m @ 0x4261980] Error decoding tile 5,4
[g2m @ 0x4261980] Error decoding tile 6,4
[g2m @ 0x4261980] Error decoding tile 0,5
[g2m @ 0x4261980] Error decoding tile 1,5
[g2m @ 0x4261980] Error decoding tile 2,5
[g2m @ 0x4261980] Error decoding tile 3,5
[g2m @ 0x4261980] Error decoding tile 4,5
[g2m @ 0x4261980] Error decoding tile 5,5
[g2m @ 0x4261980] Error decoding tile 6,5
[g2m @ 0x4261980] Error decoding tile 0,6
[g2m @ 0x4261980] Error decoding tile 1,6
[g2m @ 0x4261980] Error decoding tile 2,6
[g2m @ 0x4261980] Error decoding tile 3,6
[g2m @ 0x4261980] Error decoding tile 4,6
[g2m @ 0x4261980] Error decoding tile 5,6
[g2m @ 0x4261980] Error decoding tile 6,6
[g2m @ 0x4261980] Error decoding tile 1,7
[g2m @ 0x4261980] Error decoding tile 2,7
[g2m @ 0x4261980] Error decoding tile 3,7
[g2m @ 0x4261980] Error decoding tile 4,7
[g2m @ 0x4261980] Error decoding tile 5,7
[g2m @ 0x4261980] Error decoding tile 0,1
[g2m @ 0x4261980] Error decoding tile 1,1
[g2m @ 0x4261980] Error decoding tile 2,1
[g2m @ 0x4261980] Error decoding tile 3,1
[g2m @ 0x4261980] Error decoding tile 4,1
[g2m @ 0x4261980] Error decoding tile 5,1
[g2m @ 0x4261980] Error decoding tile 6,1
[g2m @ 0x4261980] Error decoding tile 0,2
[g2m @ 0x4261980] Error decoding tile 1,2
[g2m @ 0x4261980] Error decoding tile 2,2
[g2m @ 0x4261980] Error decoding tile 3,2
[g2m @ 0x4261980] Error decoding tile 4,2
[g2m @ 0x4261980] Error decoding tile 5,2
[g2m @ 0x4261980] Error decoding tile 6,2
[g2m @ 0x4261980] Error decoding tile 0,3
[g2m @ 0x4261980] Error decoding tile 1,3
[g2m @ 0x4261980] Error decoding tile 2,3
[g2m @ 0x4261980] Error decoding tile 3,3
[g2m @ 0x4261980] Error decoding tile 4,3
[g2m @ 0x4261980] Error decoding tile 5,3
[g2m @ 0x4261980] Error decoding tile 6,3
[g2m @ 0x4261980] Error decoding tile 0,4
[g2m @ 0x4261980] Error decoding tile 1,4
[g2m @ 0x4261980] Error decoding tile 2,4
[g2m @ 0x4261980] Error decoding tile 3,4
[g2m @ 0x4261980] Error decoding tile 4,4
[g2m @ 0x4261980] Error decoding tile 5,4
[g2m @ 0x4261980] Error decoding tile 6,4
[g2m @ 0x4261980] Error decoding tile 0,5
[g2m @ 0x4261980] Error decoding tile 1,5
[g2m @ 0x4261980] Error decoding tile 2,5
[g2m @ 0x4261980] Error decoding tile 3,5
[g2m @ 0x4261980] Error decoding tile 4,5
[g2m @ 0x4261980] Error decoding tile 5,5
[g2m @ 0x4261980] Error decoding tile 6,5
[g2m @ 0x4261980] Error decoding tile 0,6
[g2m @ 0x4261980] Error decoding tile 1,6
[g2m @ 0x4261980] Error decoding tile 2,6
[g2m @ 0x4261980] Error decoding tile 3,6
[g2m @ 0x4261980] Error decoding tile 4,6
[g2m @ 0x4261980] Error decoding tile 5,6
[g2m @ 0x4261980] Error decoding tile 6,6
[g2m @ 0x4261980] Error decoding tile 1,7
[g2m @ 0x4261980] Error decoding tile 2,7
[g2m @ 0x4261980] Error decoding tile 3,7
[g2m @ 0x4261980] Error decoding tile 4,7
[g2m @ 0x4261980] Error decoding tile 5,7
[g2m @ 0x4261980] Error decoding tile 0,1
[g2m @ 0x4261980] Error decoding tile 1,1
[g2m @ 0x4261980] Error decoding tile 2,1
[g2m @ 0x4261980] Error decoding tile 3,1
[g2m @ 0x4261980] Error decoding tile 4,1
[g2m @ 0x4261980] Error decoding tile 5,1
[g2m @ 0x4261980] Error decoding tile 6,1
[g2m @ 0x4261980] Error decoding tile 0,2
[g2m @ 0x4261980] Error decoding tile 1,2
[g2m @ 0x4261980] Error decoding tile 2,2
[g2m @ 0x4261980] Error decoding tile 3,2
[g2m @ 0x4261980] Error decoding tile 4,2
[g2m @ 0x4261980] Error decoding tile 5,2
[g2m @ 0x4261980] Error decoding tile 6,2
[g2m @ 0x4261980] Error decoding tile 0,3
[g2m @ 0x4261980] Error decoding tile 1,3
[g2m @ 0x4261980] Error decoding tile 2,3
[g2m @ 0x4261980] Error decoding tile 3,3
[g2m @ 0x4261980] Error decoding tile 4,3
[g2m @ 0x4261980] Error decoding tile 5,3
[g2m @ 0x4261980] Error decoding tile 6,3
[g2m @ 0x4261980] Error decoding tile 0,4
[g2m @ 0x4261980] Invalid chunk size 29949951 type 04
[g2m @ 0x4261980] Error decoding tile 7,1
[g2m @ 0x4261980] Error decoding tile 7,4
==4012== Conditional jump or move depends on uninitialised value(s)
==4012==    at 0x41609BCD: ??? (in /lib/i386-linux-gnu/libz.so.1.2.7)
==4012==    by 0x4160C31D: inflate (in /lib/i386-linux-gnu/libz.so.1.2.7)
==4012==    by 0x416102DF: uncompress (in /lib/i386-linux-gnu/libz.so.1.2.7)
==4012==    by 0xFBEBDD: ???
==4012== 
==4012== Use of uninitialised value of size 4
==4012==    at 0x41609E36: ??? (in /lib/i386-linux-gnu/libz.so.1.2.7)
==4012==    by 0x4160C31D: inflate (in /lib/i386-linux-gnu/libz.so.1.2.7)
==4012==    by 0x416102DF: uncompress (in /lib/i386-linux-gnu/libz.so.1.2.7)
==4012==    by 0xFBEBDD: ???
==4012== 
==4012== Use of uninitialised value of size 4
==4012==    at 0x41609A43: ??? (in /lib/i386-linux-gnu/libz.so.1.2.7)
==4012==    by 0x4160C31D: inflate (in /lib/i386-linux-gnu/libz.so.1.2.7)
==4012==    by 0x416102DF: uncompress (in /lib/i386-linux-gnu/libz.so.1.2.7)
==4012==    by 0xFBEBDD: ???
==4012== 
==4012== Use of uninitialised value of size 4
==4012==    at 0x4160ABC0: inflate (in /lib/i386-linux-gnu/libz.so.1.2.7)
==4012==    by 0x416102DF: uncompress (in /lib/i386-linux-gnu/libz.so.1.2.7)
==4012==    by 0xFBEBDD: ???
==4012== 
==4012== Use of uninitialised value of size 4
==4012==    at 0x4160AC1E: inflate (in /lib/i386-linux-gnu/libz.so.1.2.7)
==4012==    by 0x416102DF: uncompress (in /lib/i386-linux-gnu/libz.so.1.2.7)
==4012==    by 0xFBEBDD: ???
==4012== 
[g2m @ 0x4261980] Error decoding tile 0,1
==4012== Conditional jump or move depends on uninitialised value(s)
==4012==    at 0x834D27E: g2m_decode_frame (g2meet.c:685)
==4012==    by 0x867704D: avcodec_decode_video2 (utils.c:1983)
==4012==    by 0x80B366C: decode_video (ffmpeg.c:1668)
==4012==    by 0xB54643A: ???
==4012== 
==4012== Conditional jump or move depends on uninitialised value(s)
==4012==    at 0x40D2D3C: vfprintf (vfprintf.c:1622)
==4012==    by 0x40F494F: vsnprintf (vsnprintf.c:120)
==4012==    by 0x885E3B7: av_vbprintf (bprint.c:128)
==4012==    by 0x886A1DE: format_line.isra.0 (log.c:195)
==4012==    by 0x886A32F: av_log_default_callback (log.c:224)
==4012==    by 0x886A661: av_log (log.c:272)
==4012==    by 0x834E0CA: g2m_decode_frame (g2meet.c:686)
==4012==    by 0x867704D: avcodec_decode_video2 (utils.c:1983)
==4012==    by 0x80B366C: decode_video (ffmpeg.c:1668)
==4012==    by 0xB54643A: ???
==4012== 
==4012== Use of uninitialised value of size 4
==4012==    at 0x40CDB1E: _itoa_word (_itoa.c:195)
==4012==    by 0x40D12DB: vfprintf (vfprintf.c:1622)
==4012==    by 0x40F494F: vsnprintf (vsnprintf.c:120)
==4012==    by 0x885E3B7: av_vbprintf (bprint.c:128)
==4012==    by 0x886A1DE: format_line.isra.0 (log.c:195)
==4012==    by 0x886A32F: av_log_default_callback (log.c:224)
==4012==    by 0x886A661: av_log (log.c:272)
==4012==    by 0x834E0CA: g2m_decode_frame (g2meet.c:686)
==4012==    by 0x867704D: avcodec_decode_video2 (utils.c:1983)
==4012==    by 0x80B366C: decode_video (ffmpeg.c:1668)
==4012==    by 0xB54643A: ???
==4012== 
==4012== Conditional jump or move depends on uninitialised value(s)
==4012==    at 0x40CDB26: _itoa_word (_itoa.c:195)
==4012==    by 0x40D12DB: vfprintf (vfprintf.c:1622)
==4012==    by 0x40F494F: vsnprintf (vsnprintf.c:120)
==4012==    by 0x885E3B7: av_vbprintf (bprint.c:128)
==4012==    by 0x886A1DE: format_line.isra.0 (log.c:195)
==4012==    by 0x886A32F: av_log_default_callback (log.c:224)
==4012==    by 0x886A661: av_log (log.c:272)
==4012==    by 0x834E0CA: g2m_decode_frame (g2meet.c:686)
==4012==    by 0x867704D: avcodec_decode_video2 (utils.c:1983)
==4012==    by 0x80B366C: decode_video (ffmpeg.c:1668)
==4012==    by 0xB54643A: ???
==4012== 
==4012== Conditional jump or move depends on uninitialised value(s)
==4012==    at 0x40CF2F7: vfprintf (vfprintf.c:1622)
==4012==    by 0x40F494F: vsnprintf (vsnprintf.c:120)
==4012==    by 0x885E3B7: av_vbprintf (bprint.c:128)
==4012==    by 0x886A1DE: format_line.isra.0 (log.c:195)
==4012==    by 0x886A32F: av_log_default_callback (log.c:224)
==4012==    by 0x886A661: av_log (log.c:272)
==4012==    by 0x834E0CA: g2m_decode_frame (g2meet.c:686)
==4012==    by 0x867704D: avcodec_decode_video2 (utils.c:1983)
==4012==    by 0x80B366C: decode_video (ffmpeg.c:1668)
==4012==    by 0xB54643A: ???
==4012== 
==4012== Conditional jump or move depends on uninitialised value(s)
==4012==    at 0x40CF319: vfprintf (vfprintf.c:1622)
==4012==    by 0x40F494F: vsnprintf (vsnprintf.c:120)
==4012==    by 0x885E3B7: av_vbprintf (bprint.c:128)
==4012==    by 0x886A1DE: format_line.isra.0 (log.c:195)
==4012==    by 0x886A32F: av_log_default_callback (log.c:224)
==4012==    by 0x886A661: av_log (log.c:272)
==4012==    by 0x834E0CA: g2m_decode_frame (g2meet.c:686)
==4012==    by 0x867704D: avcodec_decode_video2 (utils.c:1983)
==4012==    by 0x80B366C: decode_video (ffmpeg.c:1668)
==4012==    by 0xB54643A: ???
==4012== 
==4012== Use of uninitialised value of size 4
==4012==    at 0x40CDB50: _itoa_word (_itoa.c:196)
==4012==    by 0x40D12DB: vfprintf (vfprintf.c:1622)
==4012==    by 0x40F494F: vsnprintf (vsnprintf.c:120)
==4012==    by 0x885E3B7: av_vbprintf (bprint.c:128)
==4012==    by 0x886A1DE: format_line.isra.0 (log.c:195)
==4012==    by 0x886A32F: av_log_default_callback (log.c:224)
==4012==    by 0x886A661: av_log (log.c:272)
==4012==    by 0x834E0CA: g2m_decode_frame (g2meet.c:686)
==4012==    by 0x867704D: avcodec_decode_video2 (utils.c:1983)
==4012==    by 0x80B366C: decode_video (ffmpeg.c:1668)
==4012==    by 0xB54643A: ???
==4012== 
==4012== Conditional jump or move depends on uninitialised value(s)
==4012==    at 0x40CDB5B: _itoa_word (_itoa.c:196)
==4012==    by 0x40D12DB: vfprintf (vfprintf.c:1622)
==4012==    by 0x40F494F: vsnprintf (vsnprintf.c:120)
==4012==    by 0x885E3B7: av_vbprintf (bprint.c:128)
==4012==    by 0x886A1DE: format_line.isra.0 (log.c:195)
==4012==    by 0x886A32F: av_log_default_callback (log.c:224)
==4012==    by 0x886A661: av_log (log.c:272)
==4012==    by 0x834E0CA: g2m_decode_frame (g2meet.c:686)
==4012==    by 0x867704D: avcodec_decode_video2 (utils.c:1983)
==4012==    by 0x80B366C: decode_video (ffmpeg.c:1668)
==4012==    by 0xB54643A: ???
==4012== 
[g2m @ 0x4261980] Invalid chunk size -1 type 00
frame=  182 fps=181 q=0.0 size=N/A time=00:00:18.35 bitrate=N/A dup=130 drop=8  [g2m @ 0x4261980] Error decoding tile 0,1
[g2m @ 0x4261980] Error decoding tile 1,1
[g2m @ 0x4261980] Error decoding tile 2,1
[g2m @ 0x4261980] Error decoding tile 3,1
[g2m @ 0x4261980] Error decoding tile 4,1
[g2m @ 0x4261980] Error decoding tile 5,1
[g2m @ 0x4261980] Error decoding tile 6,1
[g2m @ 0x4261980] Error decoding tile 0,2
[g2m @ 0x4261980] Error decoding tile 1,2
[g2m @ 0x4261980] Error decoding tile 2,2
[g2m @ 0x4261980] Error decoding tile 3,2
[g2m @ 0x4261980] Error decoding tile 4,2
[g2m @ 0x4261980] Error decoding tile 5,2
[g2m @ 0x4261980] Error decoding tile 6,2
[g2m @ 0x4261980] Error decoding tile 0,3
[g2m @ 0x4261980] Error decoding tile 1,3
[g2m @ 0x4261980] Error decoding tile 2,3
[g2m @ 0x4261980] Error decoding tile 3,3
[g2m @ 0x4261980] Error decoding tile 4,3
[g2m @ 0x4261980] Error decoding tile 5,3
[g2m @ 0x4261980] Error decoding tile 6,3
[g2m @ 0x4261980] Error decoding tile 7,3
[g2m @ 0x4261980] Error decoding tile 0,4
[g2m @ 0x4261980] Error decoding tile 1,4
[g2m @ 0x4261980] Error decoding tile 2,4
[g2m @ 0x4261980] Error decoding tile 3,4
[g2m @ 0x4261980] Error decoding tile 4,4
[g2m @ 0x4261980] Error decoding tile 5,4
[g2m @ 0x4261980] Error decoding tile 6,4
[g2m @ 0x4261980] Error decoding tile 7,4
[g2m @ 0x4261980] Error decoding tile 0,5
[g2m @ 0x4261980] Error decoding tile 1,5
[g2m @ 0x4261980] Error decoding tile 2,5
[g2m @ 0x4261980] Error decoding tile 3,5
[g2m @ 0x4261980] Error decoding tile 4,5
[g2m @ 0x4261980] Error decoding tile 5,5
[g2m @ 0x4261980] Error decoding tile 6,5
[g2m @ 0x4261980] Error decoding tile 0,6
[g2m @ 0x4261980] Invalid chunk size -1962049568 type AD
[g2m @ 0x4261980] Error decoding tile 0,1
[g2m @ 0x4261980] Error decoding tile 1,1
[g2m @ 0x4261980] Error decoding tile 2,1
[g2m @ 0x4261980] Error decoding tile 3,1
[g2m @ 0x4261980] Error decoding tile 4,1
[g2m @ 0x4261980] Error decoding tile 5,1
[g2m @ 0x4261980] Error decoding tile 6,1
[g2m @ 0x4261980] Error decoding tile 0,2
[g2m @ 0x4261980] Error decoding tile 1,2
[g2m @ 0x4261980] Error decoding tile 2,2
[g2m @ 0x4261980] Error decoding tile 3,2
[g2m @ 0x4261980] Error decoding tile 4,2
[g2m @ 0x4261980] Error decoding tile 5,2
[g2m @ 0x4261980] Error decoding tile 6,2
[g2m @ 0x4261980] Error decoding tile 0,3
[g2m @ 0x4261980] Error decoding tile 1,3
[g2m @ 0x4261980] Error decoding tile 3,3
[g2m @ 0x4261980] Error decoding tile 4,3
[g2m @ 0x4261980] Error decoding tile 5,3
[g2m @ 0x4261980] Error decoding tile 6,3
[g2m @ 0x4261980] Error decoding tile 0,4
[g2m @ 0x4261980] Error decoding tile 1,4
[g2m @ 0x4261980] Error decoding tile 2,4
[g2m @ 0x4261980] Error decoding tile 3,4
[g2m @ 0x4261980] Error decoding tile 4,4
[g2m @ 0x4261980] Error decoding tile 5,4
[g2m @ 0x4261980] Error decoding tile 6,4
[g2m @ 0x4261980] Error decoding tile 0,5
[g2m @ 0x4261980] Error decoding tile 1,5
[g2m @ 0x4261980] Error decoding tile 2,5
[g2m @ 0x4261980] Error decoding tile 3,5
[g2m @ 0x4261980] Error decoding tile 4,5
[g2m @ 0x4261980] Error decoding tile 5,5
[g2m @ 0x4261980] Error decoding tile 6,5
[g2m @ 0x4261980] Error decoding tile 0,6
[g2m @ 0x4261980] Error decoding tile 1,6
[g2m @ 0x4261980] Error decoding tile 2,6
[g2m @ 0x4261980] Error decoding tile 3,6
[g2m @ 0x4261980] Error decoding tile 4,6
[g2m @ 0x4261980] Error decoding tile 5,6
[g2m @ 0x4261980] Error decoding tile 6,6
[g2m @ 0x4261980] Error decoding tile 1,7
[g2m @ 0x4261980] Error decoding tile 2,7
[g2m @ 0x4261980] Error decoding tile 3,7
[g2m @ 0x4261980] Error decoding tile 4,7
[g2m @ 0x4261980] Error decoding tile 5,7
[asf @ 0x4229080] freeing incomplete packet size 71058, new 71059
[asf @ 0x4229080] freeing incomplete packet size 71059, new 71058
[asf @ 0x4229080] freeing incomplete packet size 71058, new 70665
[asf @ 0x4229080] packet fragment position invalid 536870912,7252 not in 70665
[asf @ 0x4229080] ff asf bad header 4c  at:1092329
[asf @ 0x4229080] packet_replic_size 1375814204 is invalid
[asf @ 0x4229080] freeing incomplete packet size 70665, new 69484
[g2m @ 0x4261980] Error decoding tile 0,1
[g2m @ 0x4261980] Error decoding tile 1,1
[g2m @ 0x4261980] Error decoding tile 2,1
[g2m @ 0x4261980] Error decoding tile 3,1
[g2m @ 0x4261980] Error decoding tile 4,1
[g2m @ 0x4261980] Error decoding tile 5,1
[g2m @ 0x4261980] Error decoding tile 6,1
[g2m @ 0x4261980] Error decoding tile 0,2
[g2m @ 0x4261980] Error decoding tile 1,2
[g2m @ 0x4261980] Error decoding tile 2,2
[g2m @ 0x4261980] Error decoding tile 3,2
[g2m @ 0x4261980] Error decoding tile 4,2
[g2m @ 0x4261980] Error decoding tile 5,2
[g2m @ 0x4261980] Error decoding tile 6,2
[g2m @ 0x4261980] Error decoding tile 0,3
[g2m @ 0x4261980] Error decoding tile 1,3
[g2m @ 0x4261980] Error decoding tile 2,3
[g2m @ 0x4261980] Error decoding tile 3,3
[g2m @ 0x4261980] Error decoding tile 4,3
[g2m @ 0x4261980] Error decoding tile 5,3
[g2m @ 0x4261980] Error decoding tile 6,3
[g2m @ 0x4261980] Error decoding tile 0,4
[g2m @ 0x4261980] Error decoding tile 1,4
[g2m @ 0x4261980] Error decoding tile 2,4
[g2m @ 0x4261980] Error decoding tile 3,4
[g2m @ 0x4261980] Error decoding tile 4,4
[g2m @ 0x4261980] Error decoding tile 5,4
[g2m @ 0x4261980] Error decoding tile 6,4
[g2m @ 0x4261980] Error decoding tile 0,5
[g2m @ 0x4261980] Error decoding tile 1,5
[g2m @ 0x4261980] Error decoding tile 2,5
[g2m @ 0x4261980] Error decoding tile 3,5
[g2m @ 0x4261980] Error decoding tile 4,5
[g2m @ 0x4261980] Error decoding tile 5,5
[g2m @ 0x4261980] Error decoding tile 6,5
[g2m @ 0x4261980] Error decoding tile 0,6
[g2m @ 0x4261980] Error decoding tile 1,6
[g2m @ 0x4261980] Error decoding tile 2,6
[g2m @ 0x4261980] Error decoding tile 3,6
[g2m @ 0x4261980] Error decoding tile 4,6
==4012== Invalid write of size 1
==4012==    at 0x834CBC8: jpg_decode_data.constprop.3 (g2meet.c:228)
==4012==    by 0x834D065: kempf_decode_tile (g2meet.c:430)
==4012==    by 0x834DFF4: g2m_decode_frame (g2meet.c:765)
==4012==    by 0x867704D: avcodec_decode_video2 (utils.c:1983)
==4012==    by 0x80B366C: decode_video (ffmpeg.c:1668)
==4012==    by 0xBE8B4FA: ???
==4012==  Address 0xb4e7e00 is 0 bytes after a block of size 69,632 alloc'd
==4012==    at 0x40268A4: memalign (vg_replace_malloc.c:694)
==4012==    by 0x402695E: posix_memalign (vg_replace_malloc.c:835)
==4012==    by 0x886C8C7: av_mallocz (mem.c:93)
==4012==    by 0x834DB7C: g2m_decode_frame (g2meet.c:463)
==4012==    by 0x867704D: avcodec_decode_video2 (utils.c:1983)
==4012==    by 0x80B366C: decode_video (ffmpeg.c:1668)
==4012==    by 0x62E083A: ???
==4012== 
==4012== Invalid write of size 1
==4012==    at 0x834CBEA: jpg_decode_data.constprop.3 (g2meet.c:229)
==4012==    by 0x834D065: kempf_decode_tile (g2meet.c:430)
==4012==    by 0x834DFF4: g2m_decode_frame (g2meet.c:765)
==4012==    by 0x867704D: avcodec_decode_video2 (utils.c:1983)
==4012==    by 0x80B366C: decode_video (ffmpeg.c:1668)
==4012==    by 0xBE8B4FA: ???
==4012==  Address 0xb4e7e01 is 1 bytes after a block of size 69,632 alloc'd
==4012==    at 0x40268A4: memalign (vg_replace_malloc.c:694)
==4012==    by 0x402695E: posix_memalign (vg_replace_malloc.c:835)
==4012==    by 0x886C8C7: av_mallocz (mem.c:93)
==4012==    by 0x834DB7C: g2m_decode_frame (g2meet.c:463)
==4012==    by 0x867704D: avcodec_decode_video2 (utils.c:1983)
==4012==    by 0x80B366C: decode_video (ffmpeg.c:1668)
==4012==    by 0x62E083A: ???
==4012== 
==4012== Invalid write of size 1
==4012==    at 0x834CB9B: jpg_decode_data.constprop.3 (g2meet.c:227)
==4012==    by 0x834D065: kempf_decode_tile (g2meet.c:430)
==4012==    by 0x834DFF4: g2m_decode_frame (g2meet.c:765)
==4012==    by 0x867704D: avcodec_decode_video2 (utils.c:1983)
==4012==    by 0x80B366C: decode_video (ffmpeg.c:1668)
==4012==    by 0xBE8B4FA: ???
==4012==  Address 0xb4e7e02 is 2 bytes after a block of size 69,632 alloc'd
==4012==    at 0x40268A4: memalign (vg_replace_malloc.c:694)
==4012==    by 0x402695E: posix_memalign (vg_replace_malloc.c:835)
==4012==    by 0x886C8C7: av_mallocz (mem.c:93)
==4012==    by 0x834DB7C: g2m_decode_frame (g2meet.c:463)
==4012==    by 0x867704D: avcodec_decode_video2 (utils.c:1983)
==4012==    by 0x80B366C: decode_video (ffmpeg.c:1668)
==4012==    by 0x62E083A: ???
==4012== 
[g2m @ 0x4261980] Error decoding tile 6,6
[g2m @ 0x4261980] Error decoding tile 1,7
[g2m @ 0x4261980] Error decoding tile 2,7
[g2m @ 0x4261980] Error decoding tile 3,7
[g2m @ 0x4261980] Error decoding tile 4,7
[g2m @ 0x4261980] Error decoding tile 5,7
[asf @ 0x4229080] freeing incomplete packet size 67004, new 198076
[asf @ 0x4229080] freeing incomplete packet size 198076, new 67004
[asf @ 0x4229080] freeing incomplete packet size 67004, new 1917
[g2m @ 0x4261980] Error decoding tile 7,4
frame=  195 fps=165 q=0.0 Lsize=N/A time=00:00:19.66 bitrate=N/A dup=140 drop=8    
video:12kB audio:0kB subtitle:0 global headers:0kB muxing overhead -100.176282%
==4012== 
==4012== HEAP SUMMARY:
==4012==     in use at exit: 0 bytes in 0 blocks
==4012==   total heap usage: 3,864 allocs, 3,864 frees, 24,388,687 bytes allocated
==4012== 
==4012== All heap blocks were freed -- no leaks are possible
==4012== 
==4012== For counts of detected and suppressed errors, rerun with: -v
==4012== Use --track-origins=yes to see where uninitialised values come from
==4012== ERROR SUMMARY: 1096 errors from 16 contexts (suppressed: 59 from 6)
knoppix@Microknoppix:/media/sdb1$ 
(gdb) r -i ./g2m4_fuzz3.wmv -an -f null -
Starting program: /media/sdb1/ffmpeg-HEAD-c042684/ffmpeg_g -i ./g2m4_fuzz3.wmv -an -f null -
[Thread debugging using libthread_db enabled]
Using host libthread_db library "/lib/i386-linux-gnu/libthread_db.so.1".
ffmpeg version 2.0-c042684 Copyright (c) 2000-2013 the FFmpeg developers
  built on Aug 30 2013 20:55:53 with gcc 4.7 (Debian 4.7.2-5)
  configuration: --disable-yasm --disable-ffprobe --disable-ffserver --enable-gpl
  libavutil      52. 42.100 / 52. 42.100
  libavcodec     55. 29.100 / 55. 29.100
  libavformat    55. 15.100 / 55. 15.100
  libavdevice    55.  3.100 / 55.  3.100
  libavfilter     3. 82.102 /  3. 82.102
  libswscale      2.  5.100 /  2.  5.100
  libswresample   0. 17.103 /  0. 17.103
  libpostproc    52.  3.100 / 52.  3.100
[asf @ 0x9104d60] packet_obj_size invalid
[asf @ 0x9104d60] ff asf bad header 0  at:234855
[asf @ 0x9104d60] ff asf skip 7991 (unknown stream)
[asf @ 0x9104d60] ff asf bad header fb  at:242877
[asf @ 0x9104d60] invalid packet_length -1075249767 at:242885
[asf @ 0x9104d60] ff asf bad header 3f  at:242943
[asf @ 0x9104d60] invalid padsize -940249493 at:242951
[asf @ 0x9104d60] ff asf bad header 2  at:243075
[asf @ 0x9104d60] packet_obj_size invalid
[asf @ 0x9104d60] ff asf bad header 74  at:251331
[asf @ 0x9104d60] invalid packet_length -1529462935 at:251338
[asf @ 0x9104d60] ff asf bad header af  at:259831
[asf @ 0x9104d60] ff asf bad header 5d  at:268829
[asf @ 0x9104d60] invalid padsize -187436257 at:268836
[asf @ 0x9104d60] ff asf bad header a7  at:278815
[asf @ 0x9104d60] packet_obj_size invalid
[asf @ 0x9104d60] ff asf bad header b1  at:290811
[asf @ 0x9104d60] invalid padsize 49862 at:290813
[asf @ 0x9104d60] freeing incomplete packet size 3110, new 3119
[asf @ 0x9104d60] Estimating duration from bitrate, this may be inaccurate
Guessed Channel Layout for  Input Stream #0.0 : mono
Input #0, asf, from './g2m4_fuzz3.wmv':
  Metadata:
    DeviceConformanceTemplate: L2
    WMFSDKNeeded    : 0.0.0.0000
    WMFSDKVersion   : 9.00.00.4509
    IsVBR           : 1
  Duration: 00:00:02.96, start: 0.000000, bitrate: 27694 kb/s
    Stream #0:0(eng): Audio: wmav2 (a[1][0][0] / 0x0161), 44100 Hz, mono, fltp, 48 kb/s
    Stream #0:1(eng): Data: none, 2 kb/s
    Stream #0:2(eng): Video: g2m (G2M4 / 0x344D3247), rgb24, 1280x1024, 27648 kb/s, 9.92 tbr, 1k tbn, 1k tbc
[New Thread 0xb7dd1b70 (LWP 4030)]
[New Thread 0xb75d1b70 (LWP 4031)]
[New Thread 0xb6dd1b70 (LWP 4032)]
[New Thread 0xb65d1b70 (LWP 4033)]
[New Thread 0xb5dd1b70 (LWP 4034)]
[New Thread 0xb55d1b70 (LWP 4035)]
[New Thread 0xb4dd1b70 (LWP 4036)]
[New Thread 0xb45d1b70 (LWP 4037)]
[New Thread 0xb3dd1b70 (LWP 4038)]
Output #0, null, to 'pipe:':
  Metadata:
    DeviceConformanceTemplate: L2
    WMFSDKNeeded    : 0.0.0.0000
    WMFSDKVersion   : 9.00.00.4509
    IsVBR           : 1
    encoder         : Lavf55.15.100
    Stream #0:0(eng): Video: rawvideo (RGB[24] / 0x18424752), rgb24, 1280x1024, q=2-31, 200 kb/s, 90k tbn, 9.92 tbc
Stream mapping:
  Stream #0:2 -> #0:0 (g2m -> rawvideo)
Press [q] to stop, [?] for help
[g2m @ 0x9106460] Error decoding tile 5,0
[g2m @ 0x9106460] Error decoding tile 6,0
[g2m @ 0x9106460] Error decoding tile 6,7
[g2m @ 0x9106460] Error decoding tile 0,7
[g2m @ 0x9106460] Error decoding tile 5,1
[g2m @ 0x9106460] Error decoding tile 2,2
[g2m @ 0x9106460] Error decoding tile 6,2
[g2m @ 0x9106460] Invalid chunk size -922746874 type 01
[null @ 0x910c0e0] Encoder did not produce proper pts, making some up.
[g2m @ 0x9106460] Error decoding tile 3,0
[g2m @ 0x9106460] Error decoding tile 5,0
[g2m @ 0x9106460] Error decoding tile 6,0
[g2m @ 0x9106460] Error decoding tile 6,7
[g2m @ 0x9106460] Error decoding tile 0,7
[g2m @ 0x9106460] Error decoding tile 1,0
[g2m @ 0x9106460] Error decoding tile 5,1
[g2m @ 0x9106460] Error decoding tile 6,1
[g2m @ 0x9106460] Error decoding tile 0,2
[g2m @ 0x9106460] Invalid tile pos 66,2 (in 8x8 grid)
[g2m @ 0x9106460] Invalid chunk size 16777311 type 09
[g2m @ 0x9106460] Error decoding tile 6,7
    Last message repeated 3 times
[g2m @ 0x9106460] Error decoding tile 3,0
[g2m @ 0x9106460] Error decoding tile 6,0
[g2m @ 0x9106460] Error decoding tile 6,7
[g2m @ 0x9106460] Error decoding tile 0,7
[g2m @ 0x9106460] Error decoding tile 4,0
[g2m @ 0x9106460] Error decoding tile 5,0
[g2m @ 0x9106460] Error decoding tile 1,0
[g2m @ 0x9106460] Error decoding tile 2,0
[g2m @ 0x9106460] Error decoding tile 1,1
[g2m @ 0x9106460] Error decoding tile 2,1
[g2m @ 0x9106460] Error decoding tile 3,1
[g2m @ 0x9106460] Error decoding tile 4,1
[g2m @ 0x9106460] Error decoding tile 5,1
[g2m @ 0x9106460] Error decoding tile 6,1
[g2m @ 0x9106460] Error decoding tile 0,2
[g2m @ 0x9106460] Error decoding tile 2,2
[g2m @ 0x9106460] Error decoding tile 6,2
[g2m @ 0x9106460] Error decoding tile 0,3
[g2m @ 0x9106460] Error decoding tile 1,3
[g2m @ 0x9106460] Error decoding tile 2,3
[g2m @ 0x9106460] Error decoding tile 6,3
[g2m @ 0x9106460] Error decoding tile 0,4
[g2m @ 0x9106460] Error decoding tile 1,4
[g2m @ 0x9106460] Error decoding tile 2,4
[g2m @ 0x9106460] Error decoding tile 6,4
[g2m @ 0x9106460] Error decoding tile 0,5
[g2m @ 0x9106460] Error decoding tile 1,5
[g2m @ 0x9106460] Error decoding tile 6,5
[g2m @ 0x9106460] Error decoding tile 0,6
[g2m @ 0x9106460] Error decoding tile 1,6
[g2m @ 0x9106460] Error decoding tile 2,6
[g2m @ 0x9106460] Error decoding tile 3,6
[g2m @ 0x9106460] Error decoding tile 4,6
[g2m @ 0x9106460] Invalid chunk size -2147483403 type C9
[g2m @ 0x9106460] Error decoding tile 7,0
[g2m @ 0x9106460] Error decoding tile 3,0
[g2m @ 0x9106460] Error decoding tile 4,0
[g2m @ 0x9106460] Error decoding tile 5,0
[g2m @ 0x9106460] Error decoding tile 6,0
[g2m @ 0x9106460] Error decoding tile 2,0
[g2m @ 0x9106460] Error decoding tile 0,0
[g2m @ 0x9106460] Error decoding tile 1,0
[g2m @ 0x9106460] Error decoding tile 0,0
[g2m @ 0x9106460] Error decoding tile 1,0
[g2m @ 0x9106460] Error decoding tile 0,1
[g2m @ 0x9106460] Error decoding tile 1,1
[g2m @ 0x9106460] Error decoding tile 2,1
[g2m @ 0x9106460] Error decoding tile 3,1
[g2m @ 0x9106460] Error decoding tile 4,1
[g2m @ 0x9106460] Error decoding tile 5,1
[g2m @ 0x9106460] Error decoding tile 6,1
[g2m @ 0x9106460] Error decoding tile 0,2
[g2m @ 0x9106460] Error decoding tile 1,2
[g2m @ 0x9106460] Error decoding tile 2,2
[g2m @ 0x9106460] Error decoding tile 3,2
[g2m @ 0x9106460] Error decoding tile 4,2
[g2m @ 0x9106460] Error decoding tile 5,2
[g2m @ 0x9106460] Error decoding tile 6,2
[g2m @ 0x9106460] Error decoding tile 0,3
[g2m @ 0x9106460] Error decoding tile 1,3
[g2m @ 0x9106460] Error decoding tile 2,3
[g2m @ 0x9106460] Error decoding tile 3,3
[g2m @ 0x9106460] Error decoding tile 4,3
[g2m @ 0x9106460] Error decoding tile 5,3
[g2m @ 0x9106460] Error decoding tile 6,3
[g2m @ 0x9106460] Error decoding tile 0,4
[g2m @ 0x9106460] Error decoding tile 1,4
[g2m @ 0x9106460] Error decoding tile 2,4
[g2m @ 0x9106460] Error decoding tile 3,4
[g2m @ 0x9106460] Error decoding tile 4,4
[g2m @ 0x9106460] Error decoding tile 5,4
[g2m @ 0x9106460] Error decoding tile 6,4
[g2m @ 0x9106460] Error decoding tile 0,5
[g2m @ 0x9106460] Error decoding tile 1,5
[g2m @ 0x9106460] Error decoding tile 2,5
[g2m @ 0x9106460] Error decoding tile 3,5
[g2m @ 0x9106460] Error decoding tile 4,5
[g2m @ 0x9106460] Error decoding tile 5,5
[g2m @ 0x9106460] Error decoding tile 6,5
[g2m @ 0x9106460] Error decoding tile 0,6
[g2m @ 0x9106460] Error decoding tile 1,6
[g2m @ 0x9106460] Error decoding tile 2,6
[g2m @ 0x9106460] Error decoding tile 3,6
[g2m @ 0x9106460] Error decoding tile 4,6
[g2m @ 0x9106460] Error decoding tile 5,6
[g2m @ 0x9106460] Error decoding tile 6,6
[g2m @ 0x9106460] Error decoding tile 1,7
[g2m @ 0x9106460] Error decoding tile 2,7
[g2m @ 0x9106460] Error decoding tile 3,7
[g2m @ 0x9106460] Error decoding tile 4,7
[g2m @ 0x9106460] Error decoding tile 5,7
[g2m @ 0x9106460] Error decoding tile 0,1
[g2m @ 0x9106460] Error decoding tile 1,1
[g2m @ 0x9106460] Error decoding tile 2,1
[g2m @ 0x9106460] Error decoding tile 3,1
[g2m @ 0x9106460] Error decoding tile 4,1
[g2m @ 0x9106460] Error decoding tile 5,1
[g2m @ 0x9106460] Error decoding tile 6,1
[g2m @ 0x9106460] Error decoding tile 0,2
[g2m @ 0x9106460] Error decoding tile 1,2
[g2m @ 0x9106460] Error decoding tile 2,2
[g2m @ 0x9106460] Error decoding tile 3,2
[g2m @ 0x9106460] Error decoding tile 4,2
[g2m @ 0x9106460] Error decoding tile 5,2
[g2m @ 0x9106460] Error decoding tile 6,2
[g2m @ 0x9106460] Error decoding tile 0,3
[g2m @ 0x9106460] Error decoding tile 1,3
[g2m @ 0x9106460] Error decoding tile 2,3
[g2m @ 0x9106460] Error decoding tile 3,3
[g2m @ 0x9106460] Error decoding tile 4,3
[g2m @ 0x9106460] Error decoding tile 5,3
[g2m @ 0x9106460] Error decoding tile 6,3
[g2m @ 0x9106460] Error decoding tile 0,4
[g2m @ 0x9106460] Error decoding tile 1,4
[g2m @ 0x9106460] Error decoding tile 2,4
[g2m @ 0x9106460] Error decoding tile 3,4
[g2m @ 0x9106460] Error decoding tile 4,4
[g2m @ 0x9106460] Error decoding tile 5,4
[g2m @ 0x9106460] Error decoding tile 6,4
[g2m @ 0x9106460] Error decoding tile 0,5
[g2m @ 0x9106460] Error decoding tile 1,5
[g2m @ 0x9106460] Error decoding tile 2,5
[g2m @ 0x9106460] Error decoding tile 3,5
[g2m @ 0x9106460] Error decoding tile 4,5
[g2m @ 0x9106460] Error decoding tile 5,5
[g2m @ 0x9106460] Error decoding tile 6,5
[g2m @ 0x9106460] Error decoding tile 0,6
[g2m @ 0x9106460] Error decoding tile 1,6
[g2m @ 0x9106460] Error decoding tile 2,6
[g2m @ 0x9106460] Error decoding tile 3,6
[g2m @ 0x9106460] Error decoding tile 4,6
[g2m @ 0x9106460] Error decoding tile 5,6
[g2m @ 0x9106460] Error decoding tile 6,6
[g2m @ 0x9106460] Error decoding tile 1,7
[g2m @ 0x9106460] Error decoding tile 2,7
[g2m @ 0x9106460] Error decoding tile 3,7
[g2m @ 0x9106460] Error decoding tile 4,7
[g2m @ 0x9106460] Error decoding tile 5,7
[g2m @ 0x9106460] Error decoding tile 0,1
[g2m @ 0x9106460] Error decoding tile 1,1
[g2m @ 0x9106460] Error decoding tile 2,1
[g2m @ 0x9106460] Error decoding tile 3,1
[g2m @ 0x9106460] Error decoding tile 4,1
[g2m @ 0x9106460] Error decoding tile 5,1
[g2m @ 0x9106460] Error decoding tile 6,1
[g2m @ 0x9106460] Error decoding tile 0,2
[g2m @ 0x9106460] Error decoding tile 1,2
[g2m @ 0x9106460] Error decoding tile 2,2
[g2m @ 0x9106460] Error decoding tile 3,2
[g2m @ 0x9106460] Error decoding tile 4,2
[g2m @ 0x9106460] Error decoding tile 5,2
[g2m @ 0x9106460] Error decoding tile 6,2
[g2m @ 0x9106460] Error decoding tile 0,3
[g2m @ 0x9106460] Error decoding tile 1,3
[g2m @ 0x9106460] Error decoding tile 2,3
[g2m @ 0x9106460] Error decoding tile 3,3
[g2m @ 0x9106460] Error decoding tile 4,3
[g2m @ 0x9106460] Error decoding tile 5,3
[g2m @ 0x9106460] Error decoding tile 6,3
[g2m @ 0x9106460] Error decoding tile 0,4
[g2m @ 0x9106460] Error decoding tile 1,4
[g2m @ 0x9106460] Error decoding tile 2,4
[g2m @ 0x9106460] Error decoding tile 3,4
[g2m @ 0x9106460] Error decoding tile 4,4
[g2m @ 0x9106460] Error decoding tile 5,4
[g2m @ 0x9106460] Error decoding tile 6,4
[g2m @ 0x9106460] Error decoding tile 0,5
[g2m @ 0x9106460] Error decoding tile 1,5
[g2m @ 0x9106460] Error decoding tile 2,5
[g2m @ 0x9106460] Error decoding tile 3,5
[g2m @ 0x9106460] Error decoding tile 4,5
[g2m @ 0x9106460] Error decoding tile 5,5
[g2m @ 0x9106460] Error decoding tile 6,5
[g2m @ 0x9106460] Error decoding tile 0,6
[g2m @ 0x9106460] Error decoding tile 1,6
[g2m @ 0x9106460] Error decoding tile 2,6
[g2m @ 0x9106460] Error decoding tile 3,6
[g2m @ 0x9106460] Error decoding tile 4,6
[g2m @ 0x9106460] Error decoding tile 5,6
[g2m @ 0x9106460] Error decoding tile 6,6
[g2m @ 0x9106460] Error decoding tile 1,7
[g2m @ 0x9106460] Error decoding tile 2,7
[g2m @ 0x9106460] Error decoding tile 3,7
[g2m @ 0x9106460] Error decoding tile 4,7
[g2m @ 0x9106460] Error decoding tile 5,7
[g2m @ 0x9106460] Error decoding tile 0,1
[g2m @ 0x9106460] Error decoding tile 1,1
[g2m @ 0x9106460] Error decoding tile 2,1
[g2m @ 0x9106460] Error decoding tile 3,1
[g2m @ 0x9106460] Error decoding tile 4,1
[g2m @ 0x9106460] Error decoding tile 5,1
[g2m @ 0x9106460] Error decoding tile 6,1
[g2m @ 0x9106460] Error decoding tile 0,2
[g2m @ 0x9106460] Error decoding tile 1,2
[g2m @ 0x9106460] Error decoding tile 2,2
[g2m @ 0x9106460] Error decoding tile 3,2
[g2m @ 0x9106460] Error decoding tile 4,2
[g2m @ 0x9106460] Error decoding tile 5,2
[g2m @ 0x9106460] Error decoding tile 6,2
[g2m @ 0x9106460] Error decoding tile 0,3
[g2m @ 0x9106460] Error decoding tile 1,3
[g2m @ 0x9106460] Error decoding tile 2,3
[g2m @ 0x9106460] Error decoding tile 3,3
[g2m @ 0x9106460] Error decoding tile 4,3
[g2m @ 0x9106460] Error decoding tile 5,3
[g2m @ 0x9106460] Error decoding tile 6,3
[g2m @ 0x9106460] Error decoding tile 0,4
[g2m @ 0x9106460] Invalid chunk size 29949951 type 04
[g2m @ 0x9106460] Error decoding tile 7,1
[g2m @ 0x9106460] Error decoding tile 7,4
[g2m @ 0x9106460] Error decoding tile 0,1
[g2m @ 0x9106460] Invalid chunk size 78682143 type 38
[g2m @ 0x9106460] Error decoding tile 0,1
[g2m @ 0x9106460] Error decoding tile 1,1
[g2m @ 0x9106460] Error decoding tile 2,1
[g2m @ 0x9106460] Error decoding tile 3,1
[g2m @ 0x9106460] Error decoding tile 4,1
[g2m @ 0x9106460] Error decoding tile 5,1
[g2m @ 0x9106460] Error decoding tile 6,1
[g2m @ 0x9106460] Error decoding tile 0,2
[g2m @ 0x9106460] Error decoding tile 1,2
[g2m @ 0x9106460] Error decoding tile 2,2
[g2m @ 0x9106460] Error decoding tile 3,2
[g2m @ 0x9106460] Error decoding tile 4,2
[g2m @ 0x9106460] Error decoding tile 5,2
[g2m @ 0x9106460] Error decoding tile 6,2
[g2m @ 0x9106460] Error decoding tile 0,3
[g2m @ 0x9106460] Error decoding tile 1,3
[g2m @ 0x9106460] Error decoding tile 2,3
[g2m @ 0x9106460] Error decoding tile 3,3
[g2m @ 0x9106460] Error decoding tile 4,3
[g2m @ 0x9106460] Error decoding tile 5,3
[g2m @ 0x9106460] Error decoding tile 6,3
[g2m @ 0x9106460] Error decoding tile 7,3
[g2m @ 0x9106460] Error decoding tile 0,4
[g2m @ 0x9106460] Error decoding tile 1,4
[g2m @ 0x9106460] Error decoding tile 2,4
[g2m @ 0x9106460] Error decoding tile 3,4
[g2m @ 0x9106460] Error decoding tile 4,4
[g2m @ 0x9106460] Error decoding tile 5,4
[g2m @ 0x9106460] Error decoding tile 6,4
[g2m @ 0x9106460] Error decoding tile 7,4
[g2m @ 0x9106460] Error decoding tile 0,5
[g2m @ 0x9106460] Error decoding tile 1,5
[g2m @ 0x9106460] Error decoding tile 2,5
[g2m @ 0x9106460] Error decoding tile 3,5
[g2m @ 0x9106460] Error decoding tile 4,5
[g2m @ 0x9106460] Error decoding tile 5,5
[g2m @ 0x9106460] Error decoding tile 6,5
[g2m @ 0x9106460] Error decoding tile 0,6
[g2m @ 0x9106460] Invalid chunk size -1962049568 type AD
[g2m @ 0x9106460] Error decoding tile 0,1
[g2m @ 0x9106460] Error decoding tile 1,1
[g2m @ 0x9106460] Error decoding tile 2,1
[g2m @ 0x9106460] Error decoding tile 3,1
[g2m @ 0x9106460] Error decoding tile 4,1
[g2m @ 0x9106460] Error decoding tile 5,1
[g2m @ 0x9106460] Error decoding tile 6,1
[g2m @ 0x9106460] Error decoding tile 0,2
[g2m @ 0x9106460] Error decoding tile 1,2
[g2m @ 0x9106460] Error decoding tile 2,2
[g2m @ 0x9106460] Error decoding tile 3,2
[g2m @ 0x9106460] Error decoding tile 4,2
[g2m @ 0x9106460] Error decoding tile 5,2
[g2m @ 0x9106460] Error decoding tile 6,2
[g2m @ 0x9106460] Error decoding tile 0,3
[g2m @ 0x9106460] Error decoding tile 1,3
[g2m @ 0x9106460] Error decoding tile 3,3
[g2m @ 0x9106460] Error decoding tile 4,3
[g2m @ 0x9106460] Error decoding tile 5,3
[g2m @ 0x9106460] Error decoding tile 6,3
[g2m @ 0x9106460] Error decoding tile 0,4
[g2m @ 0x9106460] Error decoding tile 1,4
[g2m @ 0x9106460] Error decoding tile 2,4
[g2m @ 0x9106460] Error decoding tile 3,4
[g2m @ 0x9106460] Error decoding tile 4,4
[g2m @ 0x9106460] Error decoding tile 5,4
[g2m @ 0x9106460] Error decoding tile 6,4
[g2m @ 0x9106460] Error decoding tile 0,5
[g2m @ 0x9106460] Error decoding tile 1,5
[g2m @ 0x9106460] Error decoding tile 2,5
[g2m @ 0x9106460] Error decoding tile 3,5
[g2m @ 0x9106460] Error decoding tile 4,5
[g2m @ 0x9106460] Error decoding tile 5,5
[g2m @ 0x9106460] Error decoding tile 6,5
[g2m @ 0x9106460] Error decoding tile 0,6
[g2m @ 0x9106460] Error decoding tile 1,6
[g2m @ 0x9106460] Error decoding tile 2,6
[g2m @ 0x9106460] Error decoding tile 3,6
[g2m @ 0x9106460] Error decoding tile 4,6
[g2m @ 0x9106460] Error decoding tile 5,6
[g2m @ 0x9106460] Error decoding tile 6,6
[g2m @ 0x9106460] Error decoding tile 1,7
[g2m @ 0x9106460] Error decoding tile 2,7
[g2m @ 0x9106460] Error decoding tile 3,7
[g2m @ 0x9106460] Error decoding tile 4,7
[g2m @ 0x9106460] Error decoding tile 5,7
[asf @ 0x9104d60] freeing incomplete packet size 71058, new 71059
[asf @ 0x9104d60] freeing incomplete packet size 71059, new 71058
[asf @ 0x9104d60] freeing incomplete packet size 71058, new 70665
[asf @ 0x9104d60] packet fragment position invalid 536870912,7252 not in 70665
[asf @ 0x9104d60] ff asf bad header 4c  at:1092329
[asf @ 0x9104d60] packet_replic_size 1375814204 is invalid
[asf @ 0x9104d60] freeing incomplete packet size 70665, new 69484
[g2m @ 0x9106460] Error decoding tile 0,1
[g2m @ 0x9106460] Error decoding tile 1,1
[g2m @ 0x9106460] Error decoding tile 2,1
[g2m @ 0x9106460] Error decoding tile 3,1
[g2m @ 0x9106460] Error decoding tile 4,1
[g2m @ 0x9106460] Error decoding tile 5,1
[g2m @ 0x9106460] Error decoding tile 6,1
[g2m @ 0x9106460] Error decoding tile 0,2
[g2m @ 0x9106460] Error decoding tile 1,2
[g2m @ 0x9106460] Error decoding tile 2,2
[g2m @ 0x9106460] Error decoding tile 3,2
[g2m @ 0x9106460] Error decoding tile 4,2
[g2m @ 0x9106460] Error decoding tile 5,2
[g2m @ 0x9106460] Error decoding tile 6,2
[g2m @ 0x9106460] Error decoding tile 0,3
[g2m @ 0x9106460] Error decoding tile 1,3
[g2m @ 0x9106460] Error decoding tile 2,3
[g2m @ 0x9106460] Error decoding tile 3,3
[g2m @ 0x9106460] Error decoding tile 4,3
[g2m @ 0x9106460] Error decoding tile 5,3
[g2m @ 0x9106460] Error decoding tile 6,3
[g2m @ 0x9106460] Error decoding tile 0,4
[g2m @ 0x9106460] Error decoding tile 1,4
[g2m @ 0x9106460] Error decoding tile 2,4
[g2m @ 0x9106460] Error decoding tile 3,4
[g2m @ 0x9106460] Error decoding tile 4,4
[g2m @ 0x9106460] Error decoding tile 5,4
[g2m @ 0x9106460] Error decoding tile 6,4
[g2m @ 0x9106460] Error decoding tile 0,5
[g2m @ 0x9106460] Error decoding tile 1,5
[g2m @ 0x9106460] Error decoding tile 2,5
[g2m @ 0x9106460] Error decoding tile 3,5
[g2m @ 0x9106460] Error decoding tile 4,5
[g2m @ 0x9106460] Error decoding tile 5,5
[g2m @ 0x9106460] Error decoding tile 6,5
[g2m @ 0x9106460] Error decoding tile 0,6
[g2m @ 0x9106460] Error decoding tile 1,6
[g2m @ 0x9106460] Error decoding tile 2,6
[g2m @ 0x9106460] Error decoding tile 3,6
[g2m @ 0x9106460] Error decoding tile 4,6
[g2m @ 0x9106460] Error decoding tile 6,6
[g2m @ 0x9106460] Error decoding tile 1,7
[g2m @ 0x9106460] Error decoding tile 2,7
[g2m @ 0x9106460] Error decoding tile 3,7
[g2m @ 0x9106460] Error decoding tile 4,7
[g2m @ 0x9106460] Error decoding tile 5,7
*** glibc detected *** /media/sdb1/ffmpeg-HEAD-c042684/ffmpeg_g: double free or corruption (out): 0x09149a88 ***
======= Backtrace: =========
/lib/i386-linux-gnu/libc.so.6(+0x70a8a)[0xb7ea4a8a]
/lib/i386-linux-gnu/libc.so.6(+0x722e8)[0xb7ea62e8]
/lib/i386-linux-gnu/libc.so.6(cfree+0x6d)[0xb7ea93ed]
/media/sdb1/ffmpeg-HEAD-c042684/ffmpeg_g[0x885f153]
======= Memory map: ========
08048000-08ae3000 r-xp 00000000 08:11 17092      /media/sdb1/ffmpeg-HEAD-c042684/ffmpeg_g
08ae3000-08b02000 rw-p 00a9b000 08:11 17092      /media/sdb1/ffmpeg-HEAD-c042684/ffmpeg_g
08b02000-091bc000 rw-p 00000000 00:00 0          [heap]
41602000-41619000 r-xp 00000000 08:02 10056      /lib/i386-linux-gnu/libz.so.1.2.7
41619000-4161a000 r--p 00016000 08:02 10056      /lib/i386-linux-gnu/libz.so.1.2.7
4161a000-4161b000 rw-p 00017000 08:02 10056      /lib/i386-linux-gnu/libz.so.1.2.7
41628000-41659000 r-xp 00000000 08:02 10014      /lib/i386-linux-gnu/libncursesw.so.5.9
41659000-4165a000 r--p 00030000 08:02 10014      /lib/i386-linux-gnu/libncursesw.so.5.9
4165a000-4165b000 rw-p 00031000 08:02 10014      /lib/i386-linux-gnu/libncursesw.so.5.9
41673000-41676000 r-xp 00000000 08:02 24959      /usr/lib/i386-linux-gnu/libpulse-simple.so.0.0.3
41676000-41677000 r--p 00002000 08:02 24959      /usr/lib/i386-linux-gnu/libpulse-simple.so.0.0.3
41677000-41678000 rw-p 00003000 08:02 24959      /usr/lib/i386-linux-gnu/libpulse-simple.so.0.0.3
4178e000-418c2000 r-xp 00000000 08:02 24566      /usr/lib/i386-linux-gnu/libX11.so.6.3.0
418c2000-418c6000 rw-p 00133000 08:02 24566      /usr/lib/i386-linux-gnu/libX11.so.6.3.0
418c8000-418e9000 r-xp 00000000 08:02 25047      /usr/lib/i386-linux-gnu/libxcb.so.1.1.0
418e9000-418ea000 r--p 00020000 08:02 25047      /usr/lib/i386-linux-gnu/libxcb.so.1.1.0
418ea000-418eb000 rw-p 00021000 08:02 25047      /usr/lib/i386-linux-gnu/libxcb.so.1.1.0
418ed000-418ef000 r-xp 00000000 08:02 24568      /usr/lib/i386-linux-gnu/libXau.so.6.0.0
418ef000-418f0000 rw-p 00001000 08:02 24568      /usr/lib/i386-linux-gnu/libXau.so.6.0.0
418f2000-418f7000 r-xp 00000000 08:02 24574      /usr/lib/i386-linux-gnu/libXdmcp.so.6.0.0
418f7000-418f8000 rw-p 00004000 08:02 24574      /usr/lib/i386-linux-gnu/libXdmcp.so.6.0.0
41913000-41924000 r-xp 00000000 08:02 24575      /usr/lib/i386-linux-gnu/libXext.so.6.4.0
41924000-41925000 rw-p 00010000 08:02 24575      /usr/lib/i386-linux-gnu/libXext.so.6.4.0
41cd1000-41cd3000 r-xp 00000000 08:02 25013      /usr/lib/i386-linux-gnu/libts-0.0.so.0.1.1
41cd3000-41cd4000 rw-p 00001000 08:02 25013      /usr/lib/i386-linux-gnu/libts-0.0.so.0.1.1
41cd6000-41ce4000 r-xp 00000000 08:02 24578      /usr/lib/i386-linux-gnu/libXi.so.6.1.0
41ce4000-41ce5000 rw-p 0000e000 08:02 24578      /usr/lib/i386-linux-gnu/libXi.so.6.1.0
41f58000-41f6e000 r-xp 00000000 08:02 24654      /usr/lib/i386-linux-gnu/libdirect-1.2.so.9.0.1
41f6e000-41f6f000 rw-p 00016000 08:02 24654      /usr/lib/i386-linux-gnu/libdirect-1.2.so.9.0.1
41f94000-41f98000 r-xp 00000000 08:02 9978       /lib/i386-linux-gnu/libattr.so.1.1.0
41f98000-41f99000 r--p 00003000 08:02 9978       /lib/i386-linux-gnu/libattr.so.1.1.0
41f99000-41f9a000 rw-p 00004000 08:02 9978       /lib/i386-linux-gnu/libattr.so.1.1.0
41f9c000-41fa0000 r-xp 00000000 08:02 9985       /lib/i386-linux-gnu/libcap.so.2.22
41fa0000-41fa1000 rw-p 00003000 08:02 9985       /lib/i386-linux-gnu/libcap.so.2.22
41fa3000-41fab000 r-xp 00000000 08:02 10054      /lib/i386-linux-gnu/libwrap.so.0.7.6
41fab000-41fac000 r--p 00007000 08:02 10054      /lib/i386-linux-gnu/libwrap.so.0.7.6
41fac000-41fad000 rw-p 00008000 08:02 10054      /lib/i386-linux-gnu/libwrap.so.0.7.6
41faf000-41fb4000 r-xp 00000000 08:02 24589      /usr/lib/i386-linux-gnu/libXtst.so.6.1.0
41fb4000-41fb5000 rw-p 00004000 08:02 24589      /usr/lib/i386-linux-gnu/libXtst.so.6.1.0
4244e000-42457000 r-xp 00000000 08:02 24707      /usr/lib/i386-linux-gnu/libfusion-1.2.so.9.0.1
42457000-42458000 rw-p 00008000 08:02 24707      /usr/lib/i386-linux-gnu/libfusion-1.2.so.9.0.1
42489000-42491000 r-xp 00000000 08:02 10005      /lib/i386-linux-gnu/libjson.so.0.1.0
42491000-42492000 r--p 00007000 08:02 10005      /lib/i386-linux-gnu/libjson.so.0.1.0
42492000-42493000 rw-p 00008000 08:02 10005      /lib/i386-linux-gnu/libjson.so.0.1.0
42495000-4249a000 r-xp 00000000 08:02 24603      /usr/lib/i386-linux-gnu/libasyncns.so.0.3.1
4249a000-4249b000 rw-p 00004000 08:02 24603      /usr/lib/i386-linux-gnu/libasyncns.so.0.3.1
424a1000-424a7000 r-xp 00000000 08:02 24920      /usr/lib/i386-linux-gnu/libogg.so.0.8.0
424a7000-424a8000 rw-p 00005000 08:02 24920      /usr/lib/i386-linux-gnu/libogg.so.0.8.0
424aa000-424d4000 r-xp 00000000 08:02 25032      /usr/lib/i386-linux-gnu/libvorbis.so.0.4.5
424d4000-424d5000 r--p 00029000 08:02 25032      /usr/lib/i386-linux-gnu/libvorbis.so.0.4.5
424d5000-424d6000 rw-p 0002a000 08:02 25032      /usr/lib/i386-linux-gnu/libvorbis.so.0.4.5
424d8000-42526000 r-xp 00000000 08:02 24551      /usr/lib/i386-linux-gnu/libFLAC.so.8.2.0
42526000-42527000 r--p 0004d000 08:02 24551      /usr/lib/i386-linux-gnu/libFLAC.so.8.2.0
42527000-42528000 rw-p 0004e000 08:02 24551      /usr/lib/i386-linux-gnu/libFLAC.so.8.2.0
42530000-42534000 r-xp 00000000 08:02 10053      /lib/i386-linux-gnu/libuuid.so.1.3.0
42534000-42535000 r--p 00003000 08:02 10053      /lib/i386-linux-gnu/libuuid.so.1.3.0
42535000-42536000 rw-p 00004000 08:02 10053      /lib/i386-linux-gnu/libuuid.so.1.3.0
4254b000-4263e000 r-xp 00000000 08:02 24600      /usr/lib/i386-linux-gnu/libasound.so.2.0.0
4263e000-42642000 r--p 000f2000 08:02 24600      /usr/lib/i386-linux-gnu/libasound.so.2.0.0
42642000-42643000 rw-p 000f6000 08:02 24600      /usr/lib/i386-linux-gnu/libasound.so.2.0.0
4266f000-426b8000 r-xp 00000000 08:02 9989       /lib/i386-linux-gnu/libdbus-1.so.3.7.2
426b8000-426b9000 ---p 00049000 08:02 9989       /lib/i386-linux-gnu/libdbus-1.so.3.7.2
426b9000-426ba000 r--p 00049000 08:02 9989       /lib/i386-linux-gnu/libdbus-1.so.3.7.2
Program received signal SIGABRT, Aborted.
0xb7e5e667 in *__GI_raise (sig=6) at ../nptl/sysdeps/unix/sysv/linux/raise.c:64
64	../nptl/sysdeps/unix/sysv/linux/raise.c: No such file or directory.
(gdb) bt
#0  0xb7e5e667 in *__GI_raise (sig=6)
    at ../nptl/sysdeps/unix/sysv/linux/raise.c:64
#1  0xb7e61a52 in *__GI_abort () at abort.c:92
#2  0xb7e9a98d in __libc_message (do_abort=2, 
    fmt=0xb7f61330 "*** glibc detected *** %s: %s: 0x%s ***\n")
    at ../sysdeps/unix/sysv/linux/libc_fatal.c:189
#3  0xb7ea4a8a in malloc_printerr (action=<optimized out>, 
    str=0x6 <Address 0x6 out of bounds>, ptr=0x9149a88) at malloc.c:6283
#4  0xb7ea62e8 in _int_free (av=<optimized out>, p=<optimized out>)
    at malloc.c:4795
#5  0xb7ea93ed in *__GI___libc_free (mem=0x9149a88) at malloc.c:3738
#6  0x0885f153 in av_buffer_unref (buf=buf@entry=0xbffff708)
    at libavutil/buffer.c:115
#7  0x0827a67c in av_free_packet (pkt=pkt@entry=0xbffff708)
    at libavcodec/avpacket.c:281
#8  0x080b6d0f in process_input (file_index=3) at ffmpeg.c:3096
#9  0x080a2e33 in transcode_step () at ffmpeg.c:3181
#10 transcode () at ffmpeg.c:3233
#11 main (argc=<optimized out>, argv=<optimized out>) at ffmpeg.c:3411
(gdb) 

Change History (2)

comment:1 Changed 4 years ago by michael

  • Reproduced by developer set
  • Resolution set to duplicate
  • Status changed from new to closed

Duplicate of #2922

comment:2 Changed 4 years ago by cehoyos

  • Component changed from undetermined to avcodec
  • Keywords g2m4 crash added
  • Priority changed from normal to important
  • Version changed from unspecified to git-master
Note: See TracTickets for help on using tickets.