Changes between Initial Version and Version 1 of Ticket #2873, comment 8


Ignore:
Timestamp:
Aug 12, 2018, 6:47:53 PM (2 years ago)
Author:
kadmandux
Comment:

Legend:

Unmodified
Added
Removed
Modified
  • Ticket #2873, comment 8

    initial v1  
    1717  libswresample   3.  2.100 /  3.  2.100
    1818  libpostproc    55.  2.100 / 55.  2.100
    19 Input #0, mpeg, from 'pruebas\M2U00826.MPG':
     19Input #0, mpeg, from 'M2U00826.MPG':
    2020  Duration: 00:00:12.96, start: 0.226767, bitrate: 6674 kb/s
    2121    Stream #0:0[0x80]: Audio: ac3, 48000 Hz, stereo, fltp, 256 kb/s
     
    3434  libswresample   3.  2.100 /  3.  2.100
    3535  libpostproc    55.  2.100 / 55.  2.100
    36 Input #0, mpeg, from 'pruebas\M2U00827.MPG':
     36Input #0, mpeg, from 'M2U00827.MPG':
    3737  Duration: 00:02:42.24, start: 0.098722, bitrate: 6319 kb/s
    3838    Stream #0:0[0x1e0]: Video: mpeg2video (Main), yuv420p(tv, top first), 720x576 [SAR 64:45 DAR 16:9], 25 fps, 25 tbr, 90k tbn, 50 tbc