Changes between Initial Version and Version 1 of Ticket #2712, comment 11


Ignore:
Timestamp:
Jul 19, 2013, 12:37:59 AM (3 years ago)
Author:
cehoyos
Comment:

Legend:

Unmodified
Added
Removed
Modified
  • Ticket #2712, comment 11

    initial v1  
    11OK, here is what you request. 
    2  
     2{{{ 
    33ffmpeg -fflags +genpts -i sample.avi -vcodec copy -acodec ac3 -y sample.ts 
    4  
    54 
    65ffmpeg version N-54178-gbbe26ef Copyright (c) 2000-2013 the FFmpeg developers 
    76  built on Jun 24 2013 17:15:47 with gcc 4.7.3 (GCC) 
    8   configuration: --enable-gpl --enable-version3 --disable-w32threads --enable-av 
    9 isynth --enable-bzlib --enable-fontconfig --enable-frei0r --enable-gnutls --enab 
    10 le-iconv --enable-libass --enable-libbluray --enable-libcaca --enable-libfreetyp 
    11 e --enable-libgsm --enable-libilbc --enable-libmodplug --enable-libmp3lame --ena 
    12 ble-libopencore-amrnb --enable-libopencore-amrwb --enable-libopenjpeg --enable-l 
    13 ibopus --enable-librtmp --enable-libschroedinger --enable-libsoxr --enable-libsp 
    14 eex --enable-libtheora --enable-libtwolame --enable-libvo-aacenc --enable-libvo- 
    15 amrwbenc --enable-libvorbis --enable-libvpx --enable-libx264 --enable-libxavs -- 
    16 enable-libxvid --enable-zlib 
     7  configuration: --enable-gpl --enable-version3 --disable-w32threads --enable-avisynth --enable-bzlib --enable-fontconfig --enable-frei0r --enable-gnutls --enable-iconv --enable-libass --enable-libbluray --enable-libcaca --enable-libfreetype --enable-libgsm --enable-libilbc --enable-libmodplug --enable-libmp3lame --enable-libopencore-amrnb --enable-libopencore-amrwb --enable-libopenjpeg --enable-libopus --enable-librtmp --enable-libschroedinger --enable-libsoxr --enable-libspeex --enable-libtheora --enable-libtwolame --enable-libvo-aacenc --enable-libvo-amrwbenc --enable-libvorbis --enable-libvpx --enable-libx264 --enable-libxavs --enable-libxvid --enable-zlib 
    178  libavutil      52. 37.101 / 52. 37.101 
    189  libavcodec     55. 17.100 / 55. 17.100 
     
    2718    encoder         : Lavf54.17.100 
    2819  Duration: 01:15:48.10, start: 0.000000, bitrate: 1234 kb/s 
    29     Stream #0:0: Video: h264 (High) (H264 / 0x34363248), yuv420p, 720x576 [SAR 6 
    30 4:45 DAR 16:9], 25 fps, 25 tbr, 25 tbn, 50 tbc 
    31     Stream #0:1: Audio: mp3 (U[0][0][0] / 0x0055), 48000 Hz, stereo, s16p, 192 k 
    32 b/s 
     20    Stream #0:0: Video: h264 (High) (H264 / 0x34363248), yuv420p, 720x576 [SAR 64:45 DAR 16:9], 25 fps, 25 tbr, 25 tbn, 50 tbc 
     21    Stream #0:1: Audio: mp3 (U[0][0][0] / 0x0055), 48000 Hz, stereo, s16p, 192 kb/s 
    3322Output #0, mpegts, to 'sample.ts': 
    3423  Metadata: 
    3524    encoder         : Lavf55.9.100 
    36     Stream #0:0: Video: h264 (H264 / 0x34363248), yuv420p, 720x576 [SAR 64:45 DA 
    37 R 16:9], q=2-31, 25 fps, 90k tbn, 25 tbc 
     25    Stream #0:0: Video: h264 (H264 / 0x34363248), yuv420p, 720x576 [SAR 64:45 DAR 16:9], q=2-31, 25 fps, 90k tbn, 25 tbc 
    3826    Stream #0:1: Audio: ac3, 48000 Hz, stereo, fltp, 192 kb/s 
    3927Stream mapping: 
     
    4937frame=112632 fps=1469 q=-1.0 size=  743963kB time=01:15:05.28 bitrate=1352.8kbit 
    5038frame=113622 fps=1472 q=-1.0 size=  749852kB time=01:15:44.88 bitrate=1351.6kbit 
    51 frame=113699 fps=1472 q=-1.0 Lsize=  750320kB time=01:15:48.09 bitrate=1351.5kbi 
    52 ts/s 
    53 video:571753kB audio:106596kB subtitle:0 global headers:0kB muxing overhead 10.6 
    54 09601% 
    55  
     39frame=113699 fps=1472 q=-1.0 Lsize=  750320kB time=01:15:48.09 bitrate=1351.5kbits/s 
     40video:571753kB audio:106596kB subtitle:0 global headers:0kB muxing overhead 10.609601% 
     41}}}