Changes between Initial Version and Version 7 of Ticket #2433


Ignore:
Timestamp:
Apr 5, 2013, 9:18:26 AM (3 years ago)
Author:
cehoyos
Comment:

Legend:

Unmodified
Added
Removed
Modified
  • Ticket #2433

    • Property Keywords regression added
    • Property Version changed from unspecified to git-master
  • Ticket #2433 – Description

    initial v7  
    619619    Stream #0:1[0x101](eng): Audio: aac_latm ([17][0][0][0] / 0x0011), 48000 Hz, stereo, fltp (hearing impaired) 
    620620    Stream #0:2[0x102](eng): Audio: aac_latm ([17][0][0][0] / 0x0011), 48000 Hz, stereo, fltp 
    621 At least one output file must be specified}}} 
    622  
    623  
     621At least one output file must be specified 
     622}}} 
    624623This is breaking the entire app since it depends on the duration reported by ffmpeg to process downstream actions such as trimming etc.